#TITLE:Is This The Future? (MGD Edit);
#SUBTITLE:;
#ARTIST:Plus System;
#TITLETRANSLIT:;
#SUBTITLETRANSLIT:;
#ARTISTTRANSLIT:;
#CREDIT:;
#BANNER:future.png;
#BACKGROUND:future-bg.png;
#LYRICSPATH:;
#CDTITLE:;
#MUSIC:future.ogg;
#OFFSET:0.000;
#SAMPLESTART:48.608;
#SAMPLELENGTH:12.000;
#SELECTABLE:YES;
#BPMS:0.000=158.000;
#STOPS:;
#BGCHANGES:;

//---------------dance-single - Renard----------------
#NOTES:
     dance-single:
     Renard:
     Challenge:
     10:
     0.646,0.672,0.427,0.089,0.196:
0000
0000
0000
0000
,
0000
0000
0000
0000
,
0000
0000
0000
0000
,
0000
0000
0000
0000
,
1000
1000
0000
0010
0100
0001
0010
0001
,
1000
0000
0001
0100
0001
0000
1000
0000
0100
0000
0010
0000
0001
0000
1000
0001
,
1000
0001
0000
0000
0100
0010
1000
0001
,
0100
0000
0010
0000
0010
0000
0010
0000
0010
0000
0010
0000
1000
0000
0100
0010
,
0001
0000
0001
0000
0010
0100
1000
0010
,
0000
0000
0010
0100
0010
0000
0100
0000
0001
0000
1000
0000
0100
0000
0010
0000
,
0001
0000
0001
0010
0100
1000
0001
0100
,
0000
0000
0001
0100
0001
0000
0100
0000
0010
0000
1000
0000
0001
0000
0100
0000
,
0010
0000
0010
1000
0100
0010
0001
1000
,
0000
0000
0010
1000
0010
0000
1000
0000
0010
0000
0100
0000
0001
0000
0010
0000
,
0100
0000
0100
1000
0010
0100
0001
0100
,
0000
0010
1000
0010
1000
0010
0000
0000
,
1010
0000
0010
0001
0000
0010
0000
0010
,
0100
0000
0100
1000
0000
1100
0000
0100
,
0001
0000
0001
0010
0000
0011
0000
0001
,
0010
0000
1000
0010
0000
1010
0000
0010
,
0100
0000
0100
1000
0000
1100
0000
0100
,
0010
0000
0001
0010
0000
0101
0000
0001
,
0100
0000
1000
0100
0000
1100
0000
0100
,
0010
1000
0010
1000
0000
0001
0010
0000
,
0100
0000
1100
1000
0000
1000
1010
0000
,
0010
0000
0100
0000
0101
0000
0001
0000
0000
0100
0001
0000
0110
0000
0000
0000
,
1000
0000
1100
0100
0000
0100
0110
0000
,
0010
0000
0001
0000
1001
0000
0001
0000
0000
0100
0010
0000
0110
0000
0010
0000
,
1000
0000
1100
0000
0100
0010
0001
0000
,
0010
0000
0100
0000
0110
0000
0100
0000
0000
1000
0100
0000
1100
0000
1000
0000
,
0010
0000
0110
0000
0100
0001
0101
0000
,
1002
1000
2003
0001
0001
0002
3003
0000
,
1000
0100
0010
0001
0010
0000
0100
0000
0000
0000
1000
0000
0010
0000
0100
0000
,
0001
0100
0010
1000
0001
0000
0100
0000
0000
0000
0010
0000
0000
0000
1000
0000
,
0100
0010
0001
0010
0100
0000
1000
0000
0000
0000
0100
0000
0000
0000
1000
0000
,
0010
0100
0001
0100
0010
0000
1000
0000
0000
0000
0010
0000
1000
0000
0000
0000
,
0100
1000
0001
0010
0100
0000
0010
0000
0000
0000
0001
0000
0000
0000
1000
0000
,
0100
0010
0100
1000
0100
0000
1000
0000
0000
0000
0010
0000
0000
0000
0100
0000
,
0001
0100
0010
0100
0001
0000
0100
0000
0000
0000
0010
0000
0000
0000
1000
0000
,
0100
0010
0001
0010
0100
0000
1000
0000
0001
1000
0010
1000
0001
0000
0100
0000
,
0001
0010
0100
0010
0001
0000
0010
0000
0100
0000
1000
0000
0010
0000
0100
0000
,
0001
0100
0010
1000
0001
0000
0100
0000
0010
0000
1000
0000
0001
0000
1000
0000
,
0100
0010
0001
0010
0100
0000
1000
0000
0010
0000
0100
0000
0001
0000
0100
0000
,
0010
1000
0010
0100
0010
0000
1000
0000
0100
0000
0010
0000
0001
0000
0010
0000
,
0100
1000
0001
0010
0100
0000
0010
0000
0001
0000
1000
0000
0010
0000
0100
0000
,
0010
1000
0001
0100
0010
0000
1000
0000
0001
0000
0100
0000
0010
0000
1000
0000
,
0001
1000
0100
0010
0001
0000
0010
0000
0100
0000
1000
0000
0001
0000
0010
0000
,
0002
1000
2003
0001
0001
0002
0000
3003
,
1000
0100
0001
0000
0101
0000
0001
0100
,
0000
1100
0000
1010
0000
0011
0000
0001
,
0010
0100
1000
0000
1100
0000
0100
0001
,
0000
0110
0000
1010
0000
1010
0000
1000
,
0100
0001
0100
0000
1100
0000
0100
0010
,
0000
0011
0000
0101
0000
0110
0000
0010
,
1000
0000
0101
0000
0001
0100
0010
1000
,
0101
0000
0000
0000
,
0001
0000
0100
1000
0000
0001
0000
0010
,
1000
0000
0100
0001
0000
1000
0000
0010
,
0001
0000
0100
1000
0000
0001
0000
0010
,
1000
0000
0010
0001
0000
0010
0100
0000
,
1000
0000
0100
0001
0000
1000
0000
0010
,
0001
0000
0010
1000
0000
0100
0000
0001
,
0100
0000
0010
0001
0000
0010
0000
1000
,
0001
0000
0100
1000
0000
0010
0001
0000
,
0100
0000
1100
1000
0000
1000
1010
0000
,
0010
0000
0100
0000
0101
0000
0001
0000
0000
0100
0001
0000
0110
0000
0000
0000
,
1000
0000
1100
0100
0000
0100
0110
0000
,
0010
0000
0001
0000
1001
0000
0001
0000
0000
0100
0010
0000
0110
0000
0010
0000
,
1000
0000
1100
0000
0100
0010
0001
0000
,
0010
0000
0100
0000
0110
0000
0100
0000
0000
1000
0100
0000
1100
0000
1000
0000
,
0010
0000
0110
0000
0100
0001
0101
1000
,
2000
0001
3002
1000
2003
0002
0000
3003
;

//---------------dance-single - Renard----------------
#NOTES:
     dance-single:
     Renard:
     Hard:
     8:
     0.559,0.545,0.427,0.062,0.000:
0000
0000
0000
0000
,
0000
0000
0000
0000
,
0000
0000
0000
0000
,
0000
0000
0000
0000
,
1000
1000
0001
0000
0100
0000
0010
0000
,
1000
0100
0010
0000
0001
0010
0100
1000
,
1000
1000
0001
0000
0100
0010
1000
0000
,
0001
0100
0010
0100
0010
0100
0000
0000
,
1010
0000
0100
0000
0001
0010
0100
1000
,
0000
0001
0000
0010
0000
0001
1000
0000
,
1010
0000
0101
0000
0001
0010
0100
1000
,
0000
1100
0000
1010
0000
1001
0000
0001
,
0100
0000
1001
0000
1000
0100
0010
0001
,
0000
0010
0000
0110
0000
1100
0000
0001
,
1000
0000
1001
0000
0001
1000
0010
0200
,
0020
0000
0000
0330
,
0010
0000
1000
0010
0000
0011
0000
0001
,
0010
0000
0100
0001
0000
0101
0000
0100
,
1000
0000
0100
0010
0000
0110
0000
0010
,
1000
0000
0010
0001
0000
0010
1000
0000
,
0100
0000
0001
0100
0000
0101
0000
0100
,
1000
0000
0100
0010
0000
0110
0000
0001
,
0010
0000
1000
0010
0000
0110
0000
0100
,
1000
0000
0010
0001
0000
0010
0100
0000
,
0001
0000
0100
0010
0000
1000
0100
0010
,
0001
0000
0001
0100
0000
1000
0100
0001
,
0010
0000
0010
0100
0000
0110
0000
0100
,
1000
0010
0100
0001
0000
0001
0100
0010
,
1000
0010
0001
0010
0000
0110
0000
0010
,
1000
0100
0001
0100
0000
0110
0000
0010
,
0001
0010
1000
0010
0000
0110
0000
1100
,
1001
0000
0000
0000
,
0100
1000
0100
0001
1000
0010
1000
0010
,
0001
1000
0001
0001
1000
0001
1000
0010
,
0001
1000
0100
0100
1000
0001
1000
0100
,
1000
0001
1000
0100
1000
0100
0001
1000
,
0100
1000
0100
0001
1000
0010
1000
0010
,
0001
1000
0001
0001
1000
0001
1000
0010
,
0001
1000
0100
0100
1000
0001
1000
0100
,
1000
0001
1000
0100
1000
0100
0001
0000
,
0010
0001
0010
1000
0001
0100
0001
0100
,
1000
0001
1000
1000
0001
1000
0001
0100
,
1000
0001
0010
0010
0001
1000
0001
0010
,
0001
1000
0001
0010
0001
0010
1000
0001
,
0010
0001
0010
1000
0001
0100
0001
0100
,
1000
0001
1000
1000
0001
1000
0001
0100
,
1000
0001
0010
1000
0001
0100
1000
0200
,
0002
0000
0000
0303
,
0101
0000
1010
0000
1000
0100
0010
0001
,
0000
0110
0000
1100
0000
0101
0000
0010
,
0010
0010
1000
0000
0100
0010
0001
0010
,
0000
0110
0000
1100
0000
0101
0000
0010
,
1000
0010
1000
0000
0110
0000
0001
0010
,
0000
0110
0000
1100
0000
0101
0000
0010
,
0010
0010
0100
0000
0001
1000
0100
0010
,
0002
0000
0000
0003
,
1100
0000
0100
0001
0000
0100
0000
1000
,
0100
0000
1000
0100
0000
0101
0000
0100
,
1000
0000
0001
0100
0000
1100
0000
1000
,
0100
0000
1000
0100
0000
0100
0001
0000
,
0110
0000
0010
0001
0000
0010
0000
1000
,
0010
0000
0010
0001
0000
0011
0000
1000
,
0010
0000
1000
0010
0000
0001
0000
0010
,
1000
0000
1000
0010
0000
0010
0001
0000
,
0001
0010
0100
1000
0000
1010
0000
0010
,
0001
0010
0100
1000
0000
1100
0000
0100
,
0001
0010
0100
0010
0000
0110
0000
0100
,
1000
0010
0100
0001
0000
0001
0010
0000
,
0110
0000
0100
1000
0000
1010
0000
0010
,
0100
0001
0010
0100
0000
0110
0000
0100
,
1000
0100
0010
0001
0000
1001
0000
1010
,
0202
0000
0000
0000
,
0303
0000
0000
0000
;

//---------------dance-single - Renard----------------
#NOTES:
     dance-single:
     Renard:
     Medium:
     6:
     0.353,0.352,0.000,0.080,0.000:
0000
0000
0000
0000
,
0000
0000
0000
0000
,
0000
0000
0000
0000
,
0000
0000
0000
0000
,
1000
0001
0000
0000
0100
0000
0001
0000
,
1000
0000
0100
0000
0010
0000
0001
1000
,
0001
1000
0000
0000
0001
0000
0100
0000
,
0001
1000
0100
0000
,
0010
0001
0000
0000
0010
0000
0100
0000
,
1000
0000
0001
0000
0100
0000
0010
1000
,
0010
1000
0000
0000
0010
0000
0100
0000
,
0001
1000
0100
0010
,
0001
1000
0000
0000
0001
0000
0100
0000
,
0010
0000
1000
0000
0001
0000
0100
0001
,
1000
0001
0000
0000
1000
0000
0100
0000
,
0020
0000
0000
0000
,
0031
0000
0001
0010
0000
0100
0000
0100
,
1000
0000
0010
0100
0000
0100
0000
0001
,
1000
0000
0100
0010
0000
0001
0000
0010
,
0100
0000
1000
0100
0000
0010
0001
0000
,
1000
0000
0100
0010
0000
0001
0000
0010
,
0100
0000
1000
0001
0000
0010
0000
0001
,
1000
0000
0100
0010
0000
0001
0000
1000
,
0001
0000
0010
0100
0000
1000
0001
0000
,
1000
0000
0000
0010
0000
0100
0000
0001
,
1000
0000
0000
0100
0000
0010
0000
0001
,
1000
0000
0000
0001
0000
0010
0000
0100
,
1000
0000
0000
0100
0000
0000
0010
0000
,
0001
0000
0000
0010
0000
0100
0000
1000
,
0100
0000
0000
0010
0000
0001
0000
1000
,
0001
0000
0000
0010
0000
0100
0000
2000
,
0002
0000
0000
3003
,
1000
0000
1000
0001
0000
0100
0000
0000
,
0001
0000
1000
0001
0000
1000
0000
0000
,
0100
0000
0010
0001
0000
0010
0000
0000
,
0100
0000
1000
0001
0000
0100
0000
0000
,
0001
0000
1000
0001
0000
1000
0000
0000
,
0001
0000
0010
0100
0000
0010
0000
0000
,
0100
0000
1000
0100
0000
1000
0000
0000
,
0001
0000
0010
0001
0000
0010
0001
0000
,
1000
0000
0100
1000
0000
0001
0000
0000
,
0010
0000
0100
1000
0000
0001
0000
0000
,
0010
0000
0001
1000
0000
0001
0000
0000
,
0100
0000
0010
0100
0000
0010
0000
0000
,
0010
0000
1000
0001
0000
0100
0000
0000
,
0001
0000
1000
0100
0000
1000
0000
0000
,
0001
0000
0010
0001
0000
1000
0000
0002
,
0200
0000
0000
0303
,
0001
0001
0100
0100
,
0010
0010
1000
1000
,
0010
0010
0100
0100
,
0001
0001
1000
1000
,
0001
0001
0100
0100
,
0010
0010
1000
1000
,
0010
0010
0100
0002
,
0200
0000
0000
0303
,
0001
0000
0100
0000
0000
0001
0100
0000
,
0001
0000
1000
0000
0000
0100
1000
0000
,
0001
0000
0010
0000
0000
0001
1000
0000
,
0001
0000
0100
0000
0000
0010
0100
0000
,
0010
0000
1000
0000
0000
0001
1000
0000
,
0100
0000
0010
0000
0000
0001
1000
0000
,
0001
0000
0010
0000
0000
0100
1000
0000
,
0001
0000
1000
0000
0000
0001
0100
0000
,
0001
0000
0001
1000
0000
0100
0000
0000
,
0010
0000
0010
0001
0000
1000
0000
0000
,
0001
0000
0001
0100
0000
0001
0000
0000
,
1000
0000
1000
0100
0000
0000
0010
0000
,
0001
0000
0001
0010
0000
0100
0000
0000
,
1000
0000
1000
0010
0000
0100
0000
0000
,
0001
0000
0001
0100
0000
0010
0000
2000
,
0002
0000
0000
0000
0000
0000
0000
3003
;

//---------------dance-single - Renard----------------
#NOTES:
     dance-single:
     Renard:
     Easy:
     2:
     0.220,0.224,0.000,0.160,0.000: // measure 1
0000
0000
0000
0000
,  // measure 2
0000
0000
0000
0000
,  // measure 3
0000
0000
0000
0000
,  // measure 4
0000
0000
0000
0000
,  // measure 5
1000
1000
0000
0000
,  // measure 6
0000
0000
0000
0001
,  // measure 7
0010
0010
0000
0000
,  // measure 8
0000
0000
0000
0000
,  // measure 9
0100
0100
1000
0001
,  // measure 10
0100
0000
0000
0000
,  // measure 11
0100
0100
0001
1000
,  // measure 12
0100
0000
0000
0000
,  // measure 13
0010
0010
0001
1000
,  // measure 14
0010
0000
0000
0000
,  // measure 15
0010
0010
1000
0001
,  // measure 16
0020
0000
0000
0000
,  // measure 17
0032
0000
0000
0103
,  // measure 18
0020
0000
0000
1030
,  // measure 19
0200
0000
0000
0310
,  // measure 20
0002
0000
0000
0103
,  // measure 21
0020
0000
0000
1030
,  // measure 22
0200
0000
0000
0310
,  // measure 23
0002
0000
0000
0013
,  // measure 24
0200
0000
0300
0100
,  // measure 25
2000
3000
1000
0000
,  // measure 26
0020
0030
0010
0000
,  // measure 27
0200
0300
0100
0000
,  // measure 28
0002
0003
0001
0000
,  // measure 29
0020
0030
0010
0000
,  // measure 30
0200
0300
0100
0000
,  // measure 31
1000
0001
0100
0010
,  // measure 32
2000
0000
0000
0000
,  // measure 33
3001
0001
0001
0000
,  // measure 34
0100
0000
0100
0000
,  // measure 35
0010
0010
0010
0000
,  // measure 36
1000
0000
1000
0000
,  // measure 37
0001
1000
0001
0000
,  // measure 38
0100
0000
0100
0000
,  // measure 39
0010
0000
0010
0000
,  // measure 40
1000
0000
0010
1000
,  // measure 41
0001
0000
0100
0000
,  // measure 42
0001
0010
0001
0000
,  // measure 43
1000
0000
0100
0000
,  // measure 44
0010
0001
1000
0000
,  // measure 45
0001
0000
0100
0000
,  // measure 46
0010
1000
0010
0000
,  // measure 47
0100
0000
0001
0000
,  // measure 48
2000
0000
0000
0000
,  // measure 49
3001
0000
0100
0000
,  // measure 50
0001
1000
0001
0000
,  // measure 51
0100
0000
0010
0000
,  // measure 52
1000
0010
1000
0000
,  // measure 53
0001
0000
0100
0000
,  // measure 54
0001
1000
0001
0000
,  // measure 55
0010
0000
0100
0000
,  // measure 56
1000
0000
0000
0000
,  // measure 57
0001
0000
0100
0000
,  // measure 58
0001
0000
1000
0000
,  // measure 59
0100
0000
0010
0000
,  // measure 60
0001
1000
0001
0000
,  // measure 61
0100
0000
0010
0000
,  // measure 62
1000
0000
0010
0000
,  // measure 63
0100
0000
0001
0000
,  // measure 64
1000
0100
1000
0000
,  // measure 65
0001
0010
0001
0000
,  // measure 66
1000
0100
1000
0000
,  // measure 67
0001
0010
0001
0000
,  // measure 68
1000
0010
1000
0000
,  // measure 69
0001
0100
0001
0000
,  // measure 70
1000
0001
1000
0000
,  // measure 71
0010
0100
0001
1000
,  // measure 72
0200
0000
0000
0000
,  // measure 73
0300
0000
0000
0000
;
