#TITLE:Invisible;
#SUBTITLE:;
#ARTIST:Jaql;
#TITLETRANSLIT:;
#SUBTITLETRANSLIT:;
#ARTISTTRANSLIT:;
#CREDIT:;
#BANNER:invisible.png;
#BACKGROUND:invisible-bg.png;
#LYRICSPATH:;
#CDTITLE:;
#MUSIC:invisible.ogg;
#OFFSET:0.000;
#SAMPLESTART:21.336;
#SAMPLELENGTH:12.000;
#SELECTABLE:YES;
#BPMS:0.000=90.000,30.000=180.000,64.000=90.000,96.000=180.000;
#STOPS:30.000=0.167
,30.500=0.167
,31.000=0.167
,31.500=0.167
;
#BGCHANGES:;

//---------------dance-single - Renard----------------
#NOTES:
     dance-single:
     Renard:
     Challenge:
     10:
     0.760,0.902,0.396,0.083,0.375:
0000
0000
0000
0000
,
0000
0000
0000
0000
,
1000
0100
0010
0001
0200
0000
0000
0000
0000
0000
0000
0000
0000
0000
0000
0000
,
0310
1000
0100
0010
0002
0000
0000
0000
0000
0000
0000
0000
0000
0000
0000
0000
,
1003
0001
0100
0000
0101
0000
0001
1000
0100
0010
0001
1000
0001
1000
0001
0100
,
0010
1000
0100
0000
1100
0000
1000
0010
0100
0001
1000
0100
0010
0001
0010
0100
,
1000
0001
0100
0000
0101
0000
0001
1000
0100
0010
0001
0010
0100
1000
0001
0100
,
0010
1000
0001
0000
1001
0000
1000
0100
1100
0000
1010
0000
0101
0000
0011
0000
,
0001
0010
1000
0010
0000
0010
0001
0000
,
0001
0100
0000
0100
1000
0100
0010
1000
,
0010
0001
0010
0100
0000
0100
1000
0000
,
1000
0100
0000
0100
0010
1000
0100
0001
,
0100
0010
0001
0010
0000
0010
0100
0000
,
0100
0001
0000
0001
0100
0000
0100
1000
,
0010
0001
1000
0001
1000
0001
0010
1000
,
0100
0001
1000
0001
0100
1000
0010
0100
,
0001
0100
0010
1000
0100
0000
0100
1000
0010
0100
0001
0000
1001
0000
0001
0100
,
0000
0000
M222
0000
0000
0000
0000
0000
0300
0M30
00M3
000M
0000
0000
11M1
0000
,
0000
0000
111M
0000
0000
0000
0000
0000
0010
1000
0100
0000
1100
0000
0100
1000
,
0001
0100
1000
0001
1000
0100
0001
1000
0100
0001
1000
0001
0100
1000
0001
0100
,
0010
1000
0100
0001
0000
0000
0101
0000
0100
1000
0010
0100
0001
0000
1001
0000
,
0000
0000
222M
0000
0000
0000
0000
0000
0030
03M0
3M00
M000
0000
0000
11M1
0000
,
0000
0000
M111
0000
0000
0000
0001
1000
0100
1000
0100
0000
1100
0000
1000
0100
,
0001
0100
0010
0001
0010
1000
0001
1000
0001
1000
0010
0001
0100
1000
0100
0010
,
0100
0001
1010
0100
1010
0100
0010
0101
,
0010
1000
0011
0100
1000
0110
0001
1000
,
1100
0010
0001
1010
0100
0001
0101
0100
,
1000
1001
0010
1000
0100
0001
0100
1000
,
0010
1000
0101
0010
0101
0010
0100
1010
,
0100
0001
1100
0010
0001
0110
1000
0001
,
0011
0100
1000
0101
0010
1000
1010
0010
,
0001
1001
0100
0001
0010
1000
0010
0001
,
0010
1000
0100
0001
1000
0001
0100
1000
,
0010
0001
1000
0001
0010
1000
0100
0010
,
0001
0100
0001
0010
0100
1000
0010
1000
,
0100
0010
1000
0010
0100
1000
0001
0010
,
0100
0001
0100
0010
0001
1000
0010
0100
,
1000
0001
1000
0001
0010
0100
0001
1000
,
0010
0001
0010
0100
1000
0100
0001
0010
,
0100
1000
0100
0001
0100
0010
0001
1000
,
0001
0100
1000
0100
0000
0100
0010
0000
,
0010
1000
0100
0001
0100
1000
0000
1M11
,
0000
0000
1000
0000
0001
0000
0100
0001
0100
0000
0001
0000
1000
0000
0100
0000
,
0010
0000
0001
0000
1000
0000
0100
1000
0100
1000
0100
0000
1000
0000
0010
0000
,
0100
0000
0001
0000
0010
0000
0100
0010
0100
0010
0100
0000
1000
0000
0010
0000
,
0100
0001
1000
0001
0100
0010
1000
0100
,
1000
0000
0001
0000
0010
0000
0001
1000
0001
0000
1000
0000
0001
0000
0100
0000
,
0010
1000
0100
0010
0001
0010
1000
0010
,
0100
0000
1000
0000
0100
0000
0001
0100
0001
0000
0100
0000
1000
0000
0010
0000
,
0001
0000
0010
0000
0100
0000
1000
0100
1000
0000
0100
0000
0001
0000
0010
0000
,
0100
0000
1000
0000
0100
0000
0001
0100
0001
0000
0100
0000
0010
0000
0001
0000
,
0010
0000
1000
0000
0010
0000
0001
0010
0001
0000
0010
0000
0100
0000
1000
0000
,
0010
0000
0001
0000
0010
0000
0100
0010
0100
0000
0010
0000
1000
0000
0100
0000
,
0010
0000
0001
0000
0010
0000
0100
0010
0100
0000
1000
0000
0010
0000
0100
0000
,
0001
0100
1000
0100
0010
1000
0100
0010
,
0001
0000
1000
0000
0010
1000
0010
0000
0100
0000
0010
1000
0010
0000
1000
0000
;

//---------------dance-single - Renard----------------
#NOTES:
     dance-single:
     Renard:
     Hard:
     8:
     0.527,0.582,0.208,0.021,0.000:
0000
0000
0000
0000
,
0000
0000
0000
0000
,
1000
0001
0200
0000
0000
0000
0000
0000
,
0301
1000
0200
0000
0000
0000
0000
0000
,
1300
0001
0101
0001
1000
0100
1100
0000
,
0001
0010
0011
0001
1000
0010
1010
0000
,
1000
0001
0101
0001
1000
0100
1100
0000
,
1000
0001
1000
0001
0100
0100
0100
0100
,
0100
0010
1000
0100
0000
0100
0010
0000
,
0010
0001
0000
0001
0010
0100
1000
0100
,
0001
0100
1000
0010
0000
0010
0100
0000
,
0100
0001
0000
0001
0100
0001
1000
0001
,
0010
0100
1000
0001
0000
0001
1000
0000
,
1000
0100
0000
0100
0010
0000
0010
0001
,
1000
0000
1000
0000
0010
0000
0100
0010
,
0000
0110
0000
0100
0000
0001
1000
0100
,
0010
0001
0011
0010
0100
1000
1100
1000
,
0001
0110
0000
0010
1000
0100
0010
0011
,
0010
0110
0100
1000
0010
0100
0001
1000
,
0100
0100
0010
0010
0001
0001
1000
1000
,
0001
0010
0110
0100
1000
0010
0110
0100
,
0001
1000
0000
0001
0100
0010
1000
0110
,
0000
1001
0000
1000
0100
0010
0001
1000
,
0001
0100
0001
0100
0001
0010
0001
0010
,
0100
1000
0100
1000
0100
0000
0010
0001
,
0000
0010
0001
0000
0010
0100
0000
1000
,
0100
0000
1000
0010
0000
0100
0001
0000
,
0100
0010
0000
1000
0010
0100
0001
0100
,
0001
0100
0001
1000
0100
0000
0010
0001
,
0000
0010
0100
0000
1000
0010
0000
0100
,
0001
0000
0100
0010
0000
1000
0100
0000
,
0010
0001
0000
1000
0001
0100
0001
1000
,
0100
0010
0001
0000
1000
0000
0100
1000
,
0000
0001
0010
0000
0001
1000
0000
0001
,
0100
0000
0010
1000
0000
0001
0100
0000
,
0001
1000
0000
0100
0010
0001
1000
0010
,
0100
0001
0100
0010
1000
0000
0001
0100
,
0000
0001
1000
0000
0100
0010
0000
0001
,
0010
0000
0100
1000
0000
0001
0100
0000
,
0010
1000
0000
0001
0100
0010
1000
0100
,
0010
0001
1000
0001
0000
0010
0001
0000
,
1000
0001
0000
0010
0001
0000
1000
0001
,
0100
0010
1000
0010
0000
0100
0001
0000
,
1000
0100
0000
0010
0001
1000
0001
1000
,
0001
0100
0010
1000
0000
0010
0100
0000
,
0001
0100
0000
0001
1000
0000
0100
0010
,
0001
0000
0011
0000
0110
0000
0100
1000
,
0000
0110
0000
1001
0000
1000
0100
0010
,
0001
1000
0001
0010
0000
0100
1000
0000
,
0001
0010
0000
0100
1000
0000
0001
0010
,
0100
1000
0001
0010
0000
0100
1000
0000
,
0001
0010
0000
0100
1000
0001
0010
0100
,
1000
0100
0010
0001
0000
1000
0100
0000
,
0010
0001
0000
1000
0100
0000
0010
0001
,
1000
0000
0100
0000
0010
0000
0001
0010
,
0000
0100
0000
1000
0000
0001
0100
0010
;

//---------------dance-single - Renard----------------
#NOTES:
     dance-single:
     Renard:
     Medium:
     5:
     0.333,0.407,0.083,0.000,0.000:
0000
0000
0000
0000
,
0000
0000
0000
0000
,
0000
0000
0000
0000
,
0000
0000
0000
0000
,
1000
0101
0010
0100
,
1000
0101
0010
0100
,
1000
0101
0010
0100
,
1000
0000
0101
0000
0001
0001
0001
0001
,
1000
0000
0001
0100
0000
0001
1000
0000
,
0100
0010
0000
0001
0010
0000
0100
0000
,
1000
0000
0001
0100
0000
0010
1000
0000
,
0001
0100
0000
0001
1000
0000
0100
0000
,
0010
0000
0001
1000
0000
0001
0010
0000
,
0100
1000
0000
0001
0100
0000
0010
0000
,
1000
0000
1000
0000
1000
0000
0010
1000
,
0000
0001
0000
0100
0000
0001
1000
0000
,
0100
1100
0010
0001
,
0100
1100
0010
0001
,
0100
1100
0010
0001
,
0100
1100
0010
0001
,
0100
0001
0010
0000
0100
0000
1000
0000
,
0100
0010
0001
0010
,
0001
0100
0010
0000
1000
0000
0100
0000
,
0010
0001
0010
0001
1000
0001
1000
0001
,
0100
0000
0001
0000
1000
0000
0000
0100
,
0000
0000
0010
0000
0000
0001
0000
0000
,
1000
0000
0000
0010
0000
0000
0100
0000
,
0000
0001
0000
0000
1000
0100
1000
0000
,
0001
0000
0010
0000
0100
0000
0000
1000
,
0000
0000
0001
0000
0000
0100
0000
0000
,
0001
0000
0000
1000
0000
0000
0100
0000
,
0000
0010
0000
0000
0001
0000
1000
0000
,
0010
0000
0100
0000
0001
0000
0000
1000
,
0000
0000
0100
0000
0000
0010
0000
0000
,
0001
0000
0000
1000
0000
0000
0001
0000
,
0000
0010
0000
0000
0100
0000
1000
0000
,
0001
0000
0100
0000
0010
0000
0000
1000
,
0000
0000
0010
0000
0000
0100
0000
0000
,
0001
0000
0000
1000
0000
0000
0100
0000
,
0000
0010
0000
0000
0001
0000
0010
0000
,
0100
0000
1000
0100
0000
1000
0001
0000
,
1000
0010
0000
1000
0001
0000
1000
0100
,
1000
0001
0100
0001
,
1000
0000
0100
0000
1000
0001
1000
0000
,
0001
0100
0001
0010
,
0100
1000
0010
0100
,
0001
0000
0010
0000
0001
0000
1000
0100
,
0000
1000
0000
0001
0000
0010
0001
0000
,
1000
0010
0100
0001
,
0010
0100
1000
0001
,
1000
0001
0100
0010
,
1000
0000
0001
0000
0010
0100
0010
0000
,
0100
1000
0010
0100
,
0001
0010
0100
1000
,
0001
0000
0001
0000
1000
0000
0001
0100
,
0000
0001
0000
1000
0000
0100
1000
0001
;

//---------------dance-single - Renard----------------
#NOTES:
     dance-single:
     Renard:
     Easy:
     2:
     0.278,0.377,0.083,0.052,0.000: // measure 1
0000
0000
0000
0000
,  // measure 2
0000
0000
0000
0000
,  // measure 3
0000
0000
0000
0000
,  // measure 4
0000
0000
0000
0000
,  // measure 5
1000
0000
1000
0000
0001
1000
0001
1000
,  // measure 6
0001
0000
0001
0000
1000
0001
1000
0001
,  // measure 7
1000
0000
1000
0000
0001
1000
0001
1000
,  // measure 8
0001
0000
0001
0000
1000
1000
1000
1000
,  // measure 9
0001
0000
0000
1000
0000
0000
0010
0000
,  // measure 10
0000
0100
0000
0000
0001
0000
0000
0000
,  // measure 11
1000
0000
0000
0100
0000
0000
0010
0000
,  // measure 12
0000
0001
0000
0000
1000
0000
0000
0000
,  // measure 13
0001
0000
0000
0010
0000
0000
0100
0000
,  // measure 14
0000
1000
0000
0000
0001
0000
0000
0000
,  // measure 15
0100
0000
0100
0000
0100
0000
0000
0010
,  // measure 16
0000
0010
0000
0010
0000
0000
0000
0000
,  // measure 17
1000
1001
0001
1001
,  // measure 18
1000
1001
0001
1001
,  // measure 19
0010
0110
0100
0110
,  // measure 20
0010
0110
0100
0110
,  // measure 21
0010
1000
0020
0000
0130
0000
0001
0000
,  // measure 22
0010
0200
0000
0000
0000
0000
1300
0020
,  // measure 23
0000
0230
0000
0000
0000
0000
0000
0000
,  // measure 24
0301
0000
1000
0000
0100
0010
0100
0010
,  // measure 25
0001
0000
1000
0000
0001
0000
0000
0100
,  // measure 26
0000
0000
0010
0000
0000
1000
0000
0000
,  // measure 27
0100
0000
0000
0010
0000
0000
0001
0000
,  // measure 28
0000
1000
0000
0000
0001
0000
0100
0000
,  // measure 29
0001
0000
1000
0000
0100
0000
0000
0010
,  // measure 30
0000
0000
0001
0000
0000
1000
0000
0000
,  // measure 31
0001
0000
0000
0100
0000
0000
0010
0000
,  // measure 32
0000
1000
0000
0000
0100
0000
0010
0000
,  // measure 33
0001
0000
1000
0000
0001
0000
0000
0100
,  // measure 34
0000
0000
0001
0000
0000
1000
0000
0000
,  // measure 35
0100
0000
0000
0010
0000
0000
0001
0000
,  // measure 36
0000
1000
0000
0000
0001
0000
0100
0000
,  // measure 37
0001
0000
1000
0000
0100
0000
0000
0010
,  // measure 38
0000
0000
0001
0000
0000
1000
0000
0000
,  // measure 39
0001
0000
0000
0100
0000
0000
0010
0000
,  // measure 40
0000
1000
0000
0000
0100
0000
0010
0000
,  // measure 41
0002
0000
0000
0000
,  // measure 42
0000
0000
0000
1003
,  // measure 43
0001
1000
0000
0001
,  // measure 44
0100
0010
0100
0001
,  // measure 45
1000
0100
0000
0010
,  // measure 46
0001
1000
0000
0001
,  // measure 47
0100
0000
0001
0000
1000
0000
0000
0100
,  // measure 48
0000
0010
0000
0001
0000
0000
1000
0000
,  // measure 49
0001
0100
0000
0001
,  // measure 50
1000
0100
0000
1000
,  // measure 51
0001
0010
0000
0001
,  // measure 52
1000
0010
1000
0001
,  // measure 53
1000
0001
0000
0100
,  // measure 54
0001
1000
0000
0100
,  // measure 55
0010
0000
0001
0000
1000
0000
0000
0001
,  // measure 56
0000
0100
0000
0010
0000
1000
0001
0000
;
