#TITLE:Indulgence;
#SUBTITLE:;
#ARTIST:KaW;
#TITLETRANSLIT:;
#SUBTITLETRANSLIT:;
#ARTISTTRANSLIT:;
#CREDIT:;
#BANNER:indulgence.png;
#BACKGROUND:indulgence-bg.png;
#LYRICSPATH:;
#CDTITLE:;
#MUSIC:indulgence.ogg;
#OFFSET:0.000;
#SAMPLESTART:24.555;
#SAMPLELENGTH:12.000;
#SELECTABLE:YES;
#BPMS:0.000=156.000;
#STOPS:;
#BGCHANGES:;

//---------------dance-single - Renard----------------
#NOTES:
     dance-single:
     Renard:
     Challenge:
     12:
     1.000,1.000,0.467,0.083,1.000:
0000
0000
0000
0000
,
0000
0000
0000
0000
,
0000
0000
0000
0000
,
0000
0000
0000
0000
0000
0000
0000
0000
0001
1001
0000
1000
1001
0000
0000
0000
,
0001
0010
0001
0010
0100
1000
0100
1000
0001
1000
0001
0100
0010
1000
0100
0010
,
0001
0010
0001
0010
0100
1000
0100
1000
0010
1000
0010
0100
0001
0010
0100
1000
,
0001
0100
0001
0100
0010
1000
0010
1000
0100
0010
0001
0010
0100
1000
0010
0100
,
0001
0100
0001
0100
0010
0100
0010
0100
0010
1000
0100
1000
0001
0010
0100
1000
,
0001
0100
0101
0000
0010
1000
1010
0000
1000
0100
1100
0000
0010
0001
0011
0000
,
0001
0100
0101
0000
0010
1000
1010
0000
1000
0100
1100
0000
0010
0001
0011
0000
,
1000
0010
1010
0000
0100
0001
0101
0000
0001
0010
0011
0000
0010
0100
0110
0000
,
0100
1000
1100
0000
1000
0010
1010
0000
0010
1000
0001
0100
0101
0000
0101
0000
,
0101
0000
0010
0000
1000
0000
0100
0010
0000
0001
0010
0000
0100
0000
1000
0000
,
1001
0000
1000
0000
0001
0000
0100
0010
0000
1000
0100
0000
0010
0000
0001
0000
,
0011
0000
0010
0100
1000
0000
0010
0000
1010
0000
0010
0000
0101
0000
0010
0000
,
0110
0100
1100
1000
2002
0000
3013
0000
,
0101
0000
1001
0000
0010
1000
0000
0100
1000
0000
0010
0000
1000
0001
0000
0100
,
0001
0000
0010
0000
0100
1000
0000
1000
0010
0000
0100
0000
0001
0010
0000
0010
,
1100
0000
1000
0000
0010
0100
0000
0001
0100
0000
0001
0000
1000
0100
0000
1000
,
0010
0000
0100
0000
0001
0010
0000
0100
1000
0100
0010
0001
0000
0100
0101
0000
,
1010
0000
1001
0000
0100
0001
0000
0010
0001
0000
0100
0000
0001
1000
0000
0010
,
1000
0000
0100
0000
0010
0001
0000
0001
0100
0000
0010
0000
1000
0100
0000
0100
,
0011
0000
0001
0000
0100
0010
0000
1000
0010
0000
1000
0000
0001
0010
0000
0001
,
0100
0000
0010
0000
1000
0100
0000
0010
0001
0010
0100
1000
0000
0010
1010
0000
,
1000
0010
1000
0010
0100
0001
0010
0100
1000
0100
1000
0100
0010
0001
0100
0010
,
0100
0001
0100
0001
0010
0100
1000
0001
0100
0010
1000
0100
0010
0001
0010
0100
,
1000
0010
0100
0001
1000
0100
1000
0001
0010
0100
1000
0010
0100
0001
0010
0001
,
1000
0100
0010
0001
0010
0100
1000
0001
0100
0001
1000
0100
0010
0000
1001
0000
,
1001
0000
0001
0100
0001
0000
0001
1000
0100
0000
0100
1000
0001
0000
0001
0010
,
0001
0000
0001
0010
0100
0000
0100
1000
0010
0000
0010
0100
0001
0000
0001
0100
,
0010
0000
0010
1000
0100
0000
0100
0010
0001
0000
0001
0010
0100
0000
0100
1000
,
0001
0000
0001
0010
0001
0100
0001
0000
1000
0100
0010
0001
0010
0000
0010
0000
,
0100
1000
0010
0100
0001
0000
0001
0100
0010
1000
0100
0000
0100
1000
0010
0100
,
0001
0000
0001
0010
0100
1000
0010
0000
0010
0100
0001
0010
0100
0000
0100
0000
,
0010
0001
0100
0010
1000
0000
1000
0010
0100
0001
0010
0000
0010
0001
0100
0010
,
1000
0000
1000
0100
0010
0001
0100
0000
0100
0010
1000
0100
0010
0000
0010
0000
,
0001
0010
0100
1000
0010
0100
0001
0100
0001
1000
0100
0010
0001
0100
0010
1000
,
0100
0010
0001
0010
0100
1000
0010
0100
0001
0010
0100
1000
0010
0100
0001
1000
,
0100
1000
0001
0010
0001
0100
0010
1000
0100
1000
0001
0010
0100
1000
0001
1000
,
0001
0100
0010
1000
0100
1000
0001
0010
0100
1000
0010
0100
0001
0100
0010
1000
,
0100
0010
0001
0100
0010
1000
0100
1000
0001
0010
0100
1000
0001
0010
0001
1000
,
0010
0100
0001
0100
0010
1000
0100
1000
0001
0010
0100
1000
0001
0010
0001
0100
,
0010
1000
0010
0100
0001
1000
0100
1000
0001
0010
0100
1000
0001
0010
0001
0100
,
0010
1000
0010
0100
0001
1000
0100
0010
0001
0100
0010
1000
0100
0010
0001
1000
,
0010
1000
0000
0010
1000
0000
1010
0000
2002
0000
0000
0000
3013
0000
0000
0000
,
0001
0010
0000
0001
0100
0000
0202
0000
1010
0000
1010
0000
1313
0000
0000
0000
,
0100
0001
0000
0100
0001
0000
0101
0000
2002
0000
0000
0000
3013
0000
0000
0000
,
1000
0100
0000
1000
0010
0000
2200
0000
0011
0000
0011
0000
3311
0000
0000
0000
,
1000
0001
0100
0010
1000
0000
0000
0000
0100
0000
0000
0000
0010
0000
0000
0000
,
0001
0000
0000
0000
0010
0000
0100
0000
1000
0000
0000
0010
0000
0000
0100
0000
,
0001
0100
0001
1000
0100
0000
0010
0000
0001
0000
0000
0000
0010
0000
0000
0000
,
0100
0000
0000
0000
1000
0000
0001
0000
0100
0001
0000
0100
0001
0000
1000
0000
,
0100
0010
0001
0010
0100
0000
1000
0000
0001
0000
0000
0000
0100
0000
0000
0000
,
0010
0000
0000
0000
1000
0000
0100
0000
1000
0000
0000
0010
0000
0000
0100
0000
,
0001
0100
0001
0100
0001
0000
1000
0000
0100
1000
0100
1000
0100
0000
1000
0000
,
0001
0010
0001
0010
0100
0010
0100
1000
0100
1000
0100
1000
0001
1000
0001
0000
,
1000
0010
1000
0000
0001
0001
0000
0100
0001
0010
0100
0000
1000
1000
0000
0100
,
0010
0001
0100
0000
0010
0010
0000
1000
0100
1000
0010
0100
0000
0001
0100
0000
,
0001
0100
0010
0000
1000
1000
0000
0100
0010
0001
0100
0000
0010
0010
0000
1000
,
0100
1000
0010
0000
0100
0100
0000
0001
0010
0100
1000
0001
0000
0100
0100
0000
,
0001
0100
0001
0000
1000
1000
0000
0010
1000
0100
0010
0000
0001
0001
0000
0010
,
0100
1000
0010
0000
0100
0100
0000
0001
0010
0001
0100
0010
0000
1000
0010
0000
,
1000
0010
0100
0000
0001
0001
0000
0010
0100
1000
0010
0000
0100
0100
0000
0001
,
0010
0001
0100
0000
0010
0010
0000
1000
0100
0010
0001
1000
0000
0010
0010
0000
,
1000
0010
1000
0000
0010
0010
0000
0100
0001
0100
0001
0000
0010
0010
0000
0100
,
1000
0100
1000
0000
0010
0010
0000
0100
0001
0100
0001
0000
1000
1000
0000
0100
,
1000
0001
0010
0000
0100
0100
0000
1000
0010
1000
0001
0000
0100
0100
0000
0010
,
1000
0100
0010
0000
0001
0001
0000
0010
0100
1000
0010
0100
0000
0000
0101
0000
,
0001
0100
0001
0000
0100
0100
0000
0010
1000
0010
1000
0000
0100
0100
0000
0010
,
0001
0010
0001
0000
0100
0100
0000
0010
1000
0010
1000
0000
0001
0001
0000
0010
,
0001
1000
0100
0000
0010
0010
0000
0001
0100
0001
1000
0000
0010
0010
0000
0100
,
0001
0010
0100
0000
1000
1000
0000
0100
0010
0001
0100
0010
0000
0000
1010
0000
,
0101
0000
0000
0010
1000
0000
0100
0000
0011
0000
0000
0100
1000
0000
0010
0000
,
0101
0000
0000
0001
1000
0000
0100
0000
0010
0001
0000
0001
0001
0000
0001
0000
,
0010
0000
0000
0100
1000
0000
0010
0000
0101
0000
0000
0010
1000
0000
0100
0000
,
0011
0000
0000
0100
1000
0000
0001
0000
0100
0001
1000
0100
0010
0001
0100
0010
,
1001
0000
0000
0000
;

//---------------dance-single - Renard----------------
#NOTES:
     dance-single:
     Renard:
     Hard:
     9:
     0.675,0.602,0.050,0.000,0.313:
0000
0000
0000
0000
,
0000
0000
0000
0000
,
0000
0000
0000
0000
,
0000
0000
0000
0000
,
1000
0000
0001
0000
0100
0001
0000
0000
1000
0000
0100
0000
1000
0100
0000
0000
,
1000
0000
0001
0000
0010
0001
0000
0000
1000
0000
0010
0000
1000
0010
0000
0000
,
0100
0000
0001
0000
1000
0100
0000
0000
1000
0000
0001
0000
0010
0001
0000
0000
,
1000
0000
0010
0000
1000
0010
0000
0000
1000
0000
0001
0000
0100
0001
0000
0000
,
1000
0000
0100
0000
0010
0001
0000
0000
1000
0000
0100
0000
0010
0001
0000
0000
,
1000
0000
0010
0000
0100
0001
0000
0000
0100
0000
0001
0000
1000
0010
0000
0000
,
1000
0000
0100
0000
0010
0001
0000
0000
1000
0000
0100
0000
0010
0001
0000
0000
,
1000
0010
0100
0001
0100
0010
1000
0001
,
0100
0000
0000
0000
0010
0000
1000
0000
0000
0000
0100
0000
0010
0000
0001
0010
,
0001
0000
0000
0000
0010
0000
0100
0000
0000
0000
1000
0000
0001
0000
0100
0010
,
0100
0000
0010
1000
0000
0001
0100
0010
,
1000
0000
0010
1000
0010
0000
1000
0000
0100
0000
0010
0000
0001
0000
1000
0000
,
0001
0000
0001
0000
0100
0010
0000
0000
1000
0000
1000
0000
0100
0010
0000
0000
,
0001
0000
0001
0000
0100
0010
0000
0000
1000
0000
0100
0000
0010
0000
0001
0000
,
1000
0000
1000
0000
0010
0100
0000
0000
0001
0000
0001
0000
0010
0100
0000
0000
,
1000
0000
1000
0000
0010
0100
0000
0000
0001
0000
0010
0000
0100
0000
1000
0000
,
0100
0000
0010
0000
0001
1000
0000
0000
0001
0000
0010
0000
0100
1000
0000
0000
,
0001
0000
0100
0000
0010
1000
0000
0000
0001
0000
0100
0000
0010
0000
1000
0000
,
0100
0000
0010
0000
0001
0010
0000
0000
0100
0000
1000
0000
0001
0100
0000
0000
,
0010
0000
1000
0000
0100
0010
0000
0000
0001
0000
0010
0000
0100
0000
1000
0000
,
0001
0100
0001
0000
0100
0000
0000
0000
0001
1000
0001
0000
1000
0000
0000
0000
,
0100
1000
0100
0000
1000
0000
0000
0000
0001
0010
0000
0001
0010
0000
0001
0000
,
0010
0100
0010
0000
0100
0000
0000
0000
1000
0100
1000
0000
0100
0000
0000
0000
,
1000
0001
1000
0000
0001
0000
0100
0000
0010
0000
1000
0000
0100
0000
0000
0000
,
0010
0000
0001
0010
0001
0000
0010
0000
0100
0000
1000
0000
0001
0000
0100
0000
,
0010
0000
1000
0010
1000
0000
0100
0000
0010
0000
0001
0000
0011
0000
0000
0000
,
0010
0000
0100
1000
0100
0000
1000
0000
0001
0000
0100
0000
0010
0000
1000
0000
,
0100
0000
0010
0100
0010
0000
0001
0000
1000
0000
0001
0000
1001
0000
0000
0000
,
0001
0000
0100
0001
0100
0000
0010
0000
1000
0000
0100
0000
1100
0000
0000
0000
,
1000
0000
0001
0100
0001
0000
0100
0000
0010
0000
1000
0000
1010
0000
0000
0000
,
1000
0000
0100
1000
0100
0000
1000
0100
1000
0000
0100
0000
1000
0000
0000
0000
,
0001
0000
0010
0001
0010
0000
0001
0000
0010
0000
0001
0000
0010
0000
0000
0000
,
0001
0000
1000
0001
1000
0000
0010
0000
0100
0000
0001
0000
0010
0000
0100
0000
,
1000
0001
0100
0010
1000
0001
1001
0000
,
1000
0000
0100
0010
0100
0000
0010
0000
0001
0000
1000
0000
0010
0000
0100
0000
,
0001
0010
0100
1000
0001
1000
1001
0000
,
0001
0000
0100
0010
0100
0000
0010
0000
1000
0000
0100
0000
0010
0000
0000
0000
,
0001
0000
0010
0001
0010
0000
0100
0000
1000
0000
0001
0000
0100
0000
0000
0000
,
0010
1000
0010
0000
1000
0000
0000
0000
0010
0100
0010
0000
0100
0000
0000
0000
,
0001
0010
0100
1000
0001
0100
0010
0000
,
1000
0000
1000
0000
0001
1000
0000
0000
0010
0000
0010
0000
0100
0010
0000
0000
,
0100
0000
0100
0000
0001
0010
0000
0000
0100
0000
1000
0000
0001
0000
0100
0000
,
0010
0000
0010
0000
1000
0001
0000
0000
0100
0000
0100
0000
0001
0010
0000
0000
,
0100
0000
1000
0000
0001
0000
0100
0000
0010
1000
0000
0010
1000
0000
0001
0000
,
0100
0000
0100
0010
1000
0000
1000
0100
,
0010
0000
0001
1000
0010
0000
0100
0000
,
0001
0000
0001
1000
0100
0000
0100
0010
,
0001
0000
1000
0010
0100
0000
0100
0000
,
0001
0000
0001
1000
0100
0000
0100
0010
,
0001
0000
0001
1000
0010
0100
0001
1000
,
0100
0000
0100
0010
0001
0000
0001
1000
,
0010
0000
0010
0100
0001
1000
0100
0010
,
0001
0000
1000
0000
0001
1000
0000
0000
0010
0000
0100
0000
0010
0100
0000
0000
,
0001
0000
0010
0000
0100
0010
0000
0000
0100
0000
1000
0000
0010
0000
0100
0000
,
0001
0000
1000
0000
0100
1000
0000
0000
0001
0000
0010
0000
0001
0010
0000
0000
,
0001
0000
1000
0000
0010
1000
0000
0000
0010
0000
0100
0000
0001
0000
0010
0000
,
0100
0000
1000
0000
0001
1000
0000
0000
0001
0000
0100
0000
0010
0100
0000
0000
,
0010
0000
1000
0000
0100
0010
0000
0000
0001
0000
0010
0000
0100
0000
1000
0000
,
0001
0000
0100
0000
0010
0100
0000
0000
0010
0000
1000
0000
0001
1000
0000
0000
,
0100
0010
0001
0010
0100
1000
0001
0100
,
0010
0100
0010
0100
0010
1000
0010
1000
,
0001
0100
0001
0100
0001
0010
0100
1000
,
0001
0100
0010
1000
0010
1000
0001
1000
,
0001
1000
0100
0010
0001
0010
0100
1000
,
0001
0000
0100
0000
0001
0000
0100
0001
0000
0000
0100
0000
0010
0000
0100
0010
,
0000
0100
0010
1000
0100
0010
0001
1000
,
0100
0000
0010
0000
0001
0000
1000
0100
0000
0000
1000
0000
0010
0000
1000
0010
,
0000
1000
0010
0100
0001
0010
0100
1000
,
0001
0100
0010
0100
0010
1000
0001
0010
,
0100
1000
0001
0100
0010
0000
1000
0000
,
0010
0100
0001
0010
0100
1000
0001
0100
,
0010
0000
1000
0000
0100
0000
0010
0000
0001
0000
1000
0001
1000
0000
0001
0000
,
0100
0000
0000
0000
;

//---------------dance-single - Renard----------------
#NOTES:
     dance-single:
     Renard:
     Medium:
     6:
     0.408,0.380,0.000,0.000,0.000:
0000
0000
0000
0000
,
0000
0000
0000
0000
,
0000
0000
0000
0000
,
0000
0000
0000
0000
,
1000
1000
0001
0001
,
0100
0000
0100
0000
0010
1000
0010
1000
,
0010
0010
0100
0100
,
0001
0000
0001
0000
0010
0100
0010
0100
,
1000
1000
0001
0001
,
0100
0000
0100
0000
0010
1000
0010
1000
,
0001
0001
0100
0100
,
0001
1000
0001
0000
0010
0100
0010
0000
,
0100
1000
0001
0100
,
0010
0000
1000
0000
0001
0100
0001
0100
,
0001
1000
0100
0010
,
0001
0000
1000
0000
0100
1000
0001
1000
,
0010
1000
0010
0100
,
0001
0000
0010
0000
0001
1000
0001
0000
,
0100
0000
0010
0100
0010
0000
1000
0010
,
1000
0000
0001
0100
0001
0000
1000
0000
,
0100
0000
0010
0001
0010
0000
0100
0010
,
0100
0000
1000
0100
1000
0000
0001
0000
,
0100
0000
0010
1000
0010
0000
0100
0001
,
0100
0000
0001
0000
1000
0100
1000
0000
,
0001
0000
0010
0001
0010
0000
0001
1000
,
0001
0000
0100
0010
0100
0000
0010
0000
,
1000
0000
0100
1000
0100
0000
0010
0001
,
0010
0000
0001
1000
0001
0000
0100
0000
,
0010
0000
1000
0000
0010
1000
0010
0000
,
0100
0000
0001
0000
0100
0001
0100
0000
,
0001
0000
0010
0000
0001
0010
0001
0000
,
1000
0000
0100
0000
1000
0100
1000
0000
,
0001
0000
1000
0000
0001
1000
0001
0000
,
0100
0000
0010
0000
0100
0010
0100
0000
,
0010
0000
1000
0000
0010
1000
0010
0000
,
0100
0000
0001
0000
0100
0001
0100
0000
,
0001
1000
0100
0010
,
0001
0000
0010
0000
0100
1000
0001
1000
,
0001
0100
0010
1000
,
0100
0000
0010
0000
0001
1000
0001
1000
,
0001
0100
0010
1000
,
0010
0000
0100
0000
0001
1000
0001
1000
,
0001
0010
0100
1000
,
0001
0000
0100
0000
0010
0100
0010
0100
,
0010
0010
0100
0100
,
0001
0000
0001
0000
1000
0001
1000
0000
,
0001
0001
1000
1000
,
0100
0000
0100
0000
0010
0001
0010
0000
,
0100
0100
1000
1000
,
0010
0010
0100
0000
,
0100
0100
0001
0001
,
1000
1000
0100
0000
,
0010
0010
0001
0001
,
1000
1000
0001
0000
,
0100
0100
0010
0010
,
1000
0010
0100
0001
,
1000
0001
1000
0000
0010
0100
0010
0000
,
1000
0001
1000
0000
0010
0000
0000
0000
,
0100
0010
0100
0000
0001
1000
0001
0000
,
0100
0010
0100
0000
0001
0000
0000
0000
,
1000
0100
1000
0000
0001
0010
0001
0000
,
1000
0010
1000
0000
0001
0000
0000
0000
,
0100
0001
0100
0000
0001
1000
0001
0000
,
0001
0010
0001
0000
1000
0000
0000
0000
,
0001
0100
0001
0100
,
0010
1000
0010
1000
,
0001
0100
0001
0100
,
0010
1000
0010
1000
,
0100
1000
0100
1000
,
0001
0010
0001
0010
,
0001
1000
0010
0100
,
0001
0000
1000
0000
0100
0000
0010
0001
,
0010
0010
0100
0100
,
1000
0000
1000
0000
0001
0100
0001
0000
,
0100
0100
0010
0010
,
1000
0000
1000
0000
0001
1000
0001
0000
,
0100
0000
0000
0000
;

//---------------dance-single - Renard----------------
#NOTES:
     dance-single:
     Renard:
     Easy:
     2:
     0.295,0.285,0.017,0.167,0.000: // measure 1
0000
0000
0000
0000
,  // measure 2
0000
0000
0000
0000
,  // measure 3
0000
0000
0000
0000
,  // measure 4
0000
0000
0000
0000
,  // measure 5
1000
0000
1000
0001
,  // measure 6
0100
0010
1000
0100
,  // measure 7
0010
0000
0010
0001
,  // measure 8
0100
0010
1000
0001
,  // measure 9
0010
0000
0010
0001
,  // measure 10
1000
0010
0100
0001
,  // measure 11
0010
0000
0010
0001
,  // measure 12
1000
0100
0010
0001
,  // measure 13
1000
0000
1000
0001
,  // measure 14
0100
0000
0100
0001
,  // measure 15
0010
0000
0001
0000
,  // measure 16
1000
0100
0110
0000
,  // measure 17
0010
0000
0010
0000
,  // measure 18
0001
0000
1000
0001
,  // measure 19
1000
0000
1000
0000
,  // measure 20
0010
0000
0100
0010
,  // measure 21
0100
0000
0100
0000
,  // measure 22
0001
0000
1000
0001
,  // measure 23
0010
0000
0100
0000
,  // measure 24
1000
0001
0100
0010
,  // measure 25
1000
0000
1000
0000
,  // measure 26
0010
0000
0010
0100
,  // measure 27
0001
0000
0001
0000
,  // measure 28
1000
0100
0010
0001
,  // measure 29
0010
0001
0010
0001
,  // measure 30
0010
0100
0010
0100
,  // measure 31
1000
0100
1000
0100
,  // measure 32
1000
0010
1000
0010
,  // measure 33
0100
0001
0100
0001
,  // measure 34
0010
0001
0010
0001
,  // measure 35
1000
0100
1000
0100
,  // measure 36
0010
0001
0010
0001
,  // measure 37
0001
0001
1000
1000
,  // measure 38
0001
0001
1000
1000
,  // measure 39
0010
0010
0100
0100
,  // measure 40
0010
0010
0100
0100
,  // measure 41
0001
0001
1000
1000
,  // measure 42
0001
0001
1000
1000
,  // measure 43
0010
0100
0010
0100
,  // measure 44
0001
1000
0001
1000
,  // measure 45
2000
0000
0100
3100
,  // measure 46
0200
0000
0010
0010
,  // measure 47
0320
0000
0001
0001
,  // measure 48
0032
0000
0100
0100
,  // measure 49
0203
0000
0302
0000
,  // measure 50
2003
0000
3200
0000
,  // measure 51
0320
0000
0032
0000
,  // measure 52
0023
0000
0230
0000
,  // measure 53
2300
0000
3002
0000
,  // measure 54
0203
0000
0302
0000
,  // measure 55
2003
0000
3200
0000
,  // measure 56
0320
0000
0032
0000
,  // measure 57
1003
0001
1000
0001
,  // measure 58
0100
0010
0100
0000
,  // measure 59
0010
1000
0010
1000
,  // measure 60
0001
0100
0001
0000
,  // measure 61
1000
0100
1000
0100
,  // measure 62
0010
0001
0010
0000
,  // measure 63
0001
1000
0001
0000
,  // measure 64
0100
0010
0100
0000
,  // measure 65
0010
0000
0010
1000
,  // measure 66
0100
0000
0100
0010
,  // measure 67
0001
0000
0001
0100
,  // measure 68
0010
0000
0010
1000
,  // measure 69
0100
0000
0100
0010
,  // measure 70
0001
0000
0001
0100
,  // measure 71
0010
0000
0010
1000
,  // measure 72
0100
0000
0100
0010
,  // measure 73
0001
0000
0001
0000
,  // measure 74
1000
0000
1000
0001
,  // measure 75
0100
0000
0010
0000
,  // measure 76
0100
0001
1000
0100
,  // measure 77
0110
0000
0000
0000
;
