#TITLE:Incubus;
#SUBTITLE:;
#ARTIST:D-Mode-D feat Jaql;
#TITLETRANSLIT:;
#SUBTITLETRANSLIT:;
#ARTISTTRANSLIT:;
#CREDIT:;
#BANNER:incubus.png;
#BACKGROUND:incubus-bg.png;
#LYRICSPATH:;
#CDTITLE:;
#MUSIC:incubus.ogg;
#OFFSET:0.000;
#SAMPLESTART:33.103;
#SAMPLELENGTH:12.000;
#SELECTABLE:YES;
#BPMS:0.000=174.000;
#STOPS:;
#BGCHANGES:;

//---------------dance-single - Renard----------------
#NOTES:
     dance-single:
     Renard:
     Hard:
     9:
     0.634,0.678,0.649,0.028,0.071:
0000
0000
0000
0000
,
0000
0000
0000
0000
,
0000
0000
0000
0000
,
0000
0000
0000
0000
,
1001
0000
0001
0100
0010
0000
0110
0000
,
0010
0000
1000
0100
0010
0001
0010
0100
,
0110
0110
0100
1000
,
0010
0000
0000
0000
1000
0000
0000
0000
0001
0000
1000
0001
1000
0000
0001
0000
,
1001
0000
0001
0100
0010
0000
0010
1000
,
0000
0100
1000
0001
0010
0100
0110
0000
,
0110
0000
0100
1000
0010
0000
1000
0001
,
0000
0001
0100
0000
0101
0000
0110
0000
,
1100
0000
1000
0100
0010
0000
0010
0100
,
0000
0100
0001
0010
0100
0000
0110
0000
,
1100
0000
1000
0100
0010
0000
0001
0000
,
0010
0100
1000
0010
0100
0001
0100
0010
,
0110
0210
0010
0000
,
0010
0000
0310
0000
,
1001
2001
0001
0000
,
0001
0000
3001
0000
,
1001
0000
1010
0000
0101
0000
0000
0001
,
0100
0100
0110
0000
,
1010
0000
1001
0000
1001
0000
0000
1000
,
0001
0000
0001
0000
0100
0100
0010
0000
,
0110
0000
0110
0000
0010
0000
1000
0100
,
1000
0000
0001
0010
0000
0010
0001
0000
,
1000
0001
1000
0000
1001
0000
1010
0000
,
1000
0000
1000
0100
0000
0100
0010
0000
,
0011
0000
0110
0000
0100
0000
1000
0010
,
1000
0000
0001
0100
0000
0100
0010
0000
,
1000
0010
1000
0000
1001
0000
1100
0000
,
1000
0000
1000
0000
0001
0000
0001
0000
0100
0010
0100
0000
0010
0000
0000
0000
,
0110
0000
0110
0000
0010
1000
0000
1000
,
0010
0000
0010
0100
0000
0100
0001
0000
,
1001
0000
1001
0000
0001
1000
0000
1000
,
0100
0000
0100
0010
0000
0001
1001
0000
,
0001
0000
1000
0001
1000
0000
0001
0000
0000
0000
0100
0000
0010
0000
1000
0000
,
0100
0000
0010
0100
0010
0000
0100
0000
1000
0000
0010
0000
0100
0000
0001
0000
,
0100
0000
0001
0100
0010
1000
0100
0010
,
0001
0000
0010
0100
0010
0000
0100
0000
1000
0000
0001
1000
0001
0000
0000
0000
,
1000
0000
1100
0000
1000
0010
0100
0001
,
0010
0001
1000
0010
0100
0001
1000
0000
,
0101
0000
0101
0000
0100
0010
1000
0100
,
0010
0000
0001
0010
0001
0000
1000
0100
1000
0000
0001
0000
1000
0000
0000
0000
,
1001
1001
0110
0110
,
0001
0001
1000
1000
0001
0001
0000
1000
,
0001
0000
0001
0100
0000
0100
1000
0000
,
0100
0010
0100
0010
0100
0000
0110
0000
,
0100
0000
0100
0001
0000
0001
1000
0000
,
0100
0010
0001
0010
0100
0000
0110
0000
,
0100
0000
0100
1000
0000
1000
0010
0000
,
0100
0001
0100
1000
0100
0000
0110
0000
,
0010
0000
1000
0100
0010
0000
0011
0000
,
0010
0000
0100
1000
0001
0100
1000
0100
,
0001
0000
0001
0100
0010
0000
1000
0000
,
0010
0000
1000
0000
0100
0010
0001
0010
,
0100
0000
0100
1000
0010
0000
1010
0000
,
1000
0000
0001
0100
0010
0100
0001
0010
,
0001
0000
1000
0001
0100
0000
0110
0000
,
1010
0000
0000
0000
1001
0000
0000
0000
1000
0000
0001
1000
0001
0000
0000
0000
,
1000
1001
0001
0100
,
0010
0000
1000
0000
0100
0000
0010
0000
0001
0000
0010
0000
0100
0000
0010
0100
,
0010
0110
0110
0100
,
1000
0000
0001
0100
0001
0000
0100
0000
0010
1000
0010
0000
1000
0000
0000
1000
,
0010
0110
0110
0100
,
0001
0000
0010
0000
0100
0000
0000
0000
1000
0000
0000
0000
0100
0000
1000
0001
,
1000
0101
1010
1001
,
0110
0000
1001
0000
0000
1001
0110
0000
,
1000
0000
1000
0001
0100
0000
0010
0000
,
0100
0000
0100
0010
1000
0100
0010
0001
,
0010
0000
0010
0001
1000
0000
0010
0000
,
0000
0000
1001
0000
0000
0000
0110
0000
0000
0000
0001
1000
0001
0000
1000
0000
,
1001
0000
0001
0000
0101
0000
0100
1000
,
0000
1000
0100
0000
0110
0000
0010
1000
,
0200
0000
0310
0000
0110
0000
0100
0001
,
0000
0100
1000
0010
0100
0001
1000
0001
;

//---------------dance-single - Renard----------------
#NOTES:
     dance-single:
     Renard:
     Medium:
     6:
     0.383,0.392,0.094,0.028,0.000:
0000
0000
0000
0000
,
0000
0000
0000
0000
,
0000
0000
0000
0000
,
0000
0000
0000
0000
,
1000
0000
1000
0001
1000
0000
0001
0000
,
1000
0000
0001
1000
0001
0000
1000
0000
,
0010
0000
0010
0100
0010
0000
0100
0000
,
0010
0100
0010
0100
,
0001
0000
1000
0001
1000
0000
0001
0000
,
1000
0001
1000
0001
,
0100
0010
0100
0010
,
0100
0000
0010
0000
0100
0010
0100
0000
,
0001
0000
1000
0001
1000
0000
0001
0000
,
1000
0100
0010
0001
,
1000
0010
0100
0001
,
1000
1000
1000
1000
,
0001
0000
0101
0000
,
1000
0000
1100
0000
,
0001
0000
0011
0000
,
2002
0000
0003
0000
0010
3000
0000
0000
,
1010
0000
0101
0000
,
0010
0000
0011
0000
,
0010
0000
0110
0000
,
0100
1000
0020
0031
,
0010
0010
0000
0100
,
0001
0000
1000
0100
0000
0000
1000
0000
,
0001
0010
0001
0000
0000
0000
0000
0000
,
1000
0000
0000
0010
0000
0000
0100
0000
,
0001
0000
0001
0000
0000
0000
1000
0100
,
1000
0000
0000
0001
0000
0000
0010
0000
,
0001
1000
0001
0000
0000
0000
0000
0000
,
0100
0000
0010
0100
,
0001
0000
0001
0000
1000
0100
0000
0000
,
0000
0000
0000
0000
,
1000
0000
1000
0000
0001
0100
0000
0000
,
0000
0000
0000
1001
,
0001
0000
0100
0000
0000
0001
1000
0000
,
0001
1000
0100
0010
,
0001
0000
1000
0000
0000
0100
1000
0000
,
0001
0010
0001
1000
,
0010
0000
0100
0000
0000
0001
1000
0000
,
0001
1000
0100
0010
,
0001
0000
1000
0000
0000
0010
0100
0000
,
0001
1000
0100
1001
,
1000
1000
0100
0100
,
0010
0001
0010
0001
0010
0001
0000
0000
,
1000
0001
0000
0100
,
0010
1000
0000
0010
,
0100
0000
0001
0000
0000
1000
0001
0000
,
1000
0100
0010
0001
,
1000
0001
1000
0001
,
0100
0010
0100
0001
,
1000
1000
0001
0001
,
0100
0100
0010
0010
,
1000
0010
0100
0001
,
1000
0000
0100
0000
0010
0000
0001
1000
,
0001
0100
0010
1000
,
0001
0100
0001
1000
,
0100
0010
0001
1000
,
0001
0000
0100
0000
0001
1000
0001
0000
,
1000
1000
0000
0100
,
0010
0010
0000
0001
,
1000
0001
1000
0010
,
0100
0001
1000
0100
,
0010
0010
0001
1000
,
0001
0001
0100
0010
,
1000
0001
0100
0001
,
1000
0000
0100
0000
0010
0001
0010
0000
,
0100
0100
1000
1000
,
0010
0000
0010
0000
0100
0001
0100
0000
,
0001
0001
0010
0010
,
0100
0000
0100
0000
1000
0000
0001
1000
,
0001
0100
0010
1000
,
0001
0000
0100
0000
0010
0000
1000
0010
,
1000
0010
0100
0001
,
1000
0000
0001
0000
1000
0001
1000
0000
;

//---------------dance-single - Renard----------------
#NOTES:
     dance-single:
     Renard:
     Easy:
     2:
     0.278,0.321,0.000,0.019,0.000: // measure 1
0000
0000
0000
0000
,  // measure 2
0000
0000
0000
0000
,  // measure 3
0000
0000
0000
0000
,  // measure 4
0000
0000
0000
0000
,  // measure 5
1000
0000
1000
0001
,  // measure 6
0100
0000
0100
0001
,  // measure 7
0010
0000
0100
0010
,  // measure 8
0001
0000
0001
0000
,  // measure 9
1000
0000
1000
0001
,  // measure 10
0010
0000
0010
0001
,  // measure 11
0100
0000
0100
0010
,  // measure 12
0001
0000
0010
0000
,  // measure 13
1000
0000
1000
0010
,  // measure 14
0100
0000
0100
0001
,  // measure 15
0010
0000
0100
0010
,  // measure 16
0001
0000
0000
0000
,  // measure 17
1000
0000
1000
0000
,  // measure 18
0001
0000
0001
0000
,  // measure 19
0100
0000
0100
0000
,  // measure 20
0020
0000
0130
0000
,  // measure 21
0001
0000
0001
0000
,  // measure 22
1000
0000
1000
0000
,  // measure 23
0100
0000
0100
0000
,  // measure 24
0020
0000
0000
0031
,  // measure 25
0010
0010
0000
0100
,  // measure 26
1000
0000
1000
0000
,  // measure 27
0001
0100
0000
0000
,  // measure 28
0001
0010
0001
0010
,  // measure 29
0100
0100
0000
1000
,  // measure 30
0001
1000
0010
0100
,  // measure 31
0001
0100
0000
0000
,  // measure 32
0001
1000
0001
1000
,  // measure 33
0010
1000
0010
1000
,  // measure 34
0010
0000
0010
0000
,  // measure 35
0100
0001
0100
0001
,  // measure 36
0100
0000
0100
0000
,  // measure 37
0001
0001
0000
1000
,  // measure 38
0001
1000
0001
0000
,  // measure 39
1000
0010
0000
1000
,  // measure 40
0010
1000
0010
0000
,  // measure 41
1000
0000
0001
0000
,  // measure 42
0100
0001
1000
0001
,  // measure 43
1000
0100
1000
0000
,  // measure 44
0001
0000
0010
0000
,  // measure 45
0001
0001
1000
1000
,  // measure 46
0001
1000
0001
0000
,  // measure 47
1000
0001
0000
0100
,  // measure 48
0010
1000
0000
0010
,  // measure 49
0100
0001
0000
1000
,  // measure 50
0001
0010
0000
0100
,  // measure 51
1000
0001
0000
0100
,  // measure 52
0001
1000
0000
0001
,  // measure 53
0010
0010
0100
0100
,  // measure 54
1000
1000
0001
0100
,  // measure 55
0001
0001
1000
1000
,  // measure 56
0010
1000
0001
0100
,  // measure 57
0001
1000
0100
0010
,  // measure 58
0001
1000
0010
0100
,  // measure 59
0001
0000
0001
0000
,  // measure 60
1000
0000
0001
1000
,  // measure 61
0001
0000
0001
0000
,  // measure 62
1000
0000
1000
0010
,  // measure 63
0100
0000
0100
0000
,  // measure 64
0001
0000
1000
0000
,  // measure 65
0100
0100
0100
0000
,  // measure 66
0010
0000
0001
0000
,  // measure 67
1000
1000
1000
0000
,  // measure 68
0010
0100
0010
0100
,  // measure 69
0001
0000
0001
0000
,  // measure 70
1000
0000
1000
0000
,  // measure 71
0000
0001
0100
0001
,  // measure 72
0000
0000
0000
0000
,  // measure 73
1000
0100
1000
0100
,  // measure 74
0010
0001
0010
0001
,  // measure 75
1000
0010
0100
0001
,  // measure 76
1000
1000
1000
0001
;
