#TITLE:Impossible Fidelity;
#SUBTITLE:;
#ARTIST:Kernel PARADOXAL;
#TITLETRANSLIT:;
#SUBTITLETRANSLIT:;
#ARTISTTRANSLIT:;
#CREDIT:;
#BANNER:impossible.png;
#BACKGROUND:impossible-bg.png;
#LYRICSPATH:;
#CDTITLE:;
#MUSIC:impossiblie.ogg;
#OFFSET:-1.630;
#SAMPLESTART:14.092;
#SAMPLELENGTH:12.000;
#SELECTABLE:YES;
#BPMS:0.000=150.000,12.000=155.000,12.500=156.200,13.000=157.500,13.500=167.240,14.000=157.980,15.000=165.000,16.000=163.380,21.000=163.360,31.000=163.240,31.500=162.140,32.000=162.500,48.000=161.580,49.000=150.000,113.000=152.500,121.000=155.000,122.500=157.500,123.500=159.999,129.000=162.499,134.000=161.319,137.000=164.279,138.500=168.539,139.500=169.999,177.000=324.998,179.000=162.499,243.000=154.999,272.000=157.839,276.000=158.079,277.000=159.319,278.000=159.999,279.000=161.419,280.000=162.499,282.000=164.999,283.500=164.379,285.000=163.379;
#STOPS:;
#BGCHANGES:;

//---------------dance-single - Renard----------------
#NOTES:
     dance-single:
     Renard:
     Challenge:
     14:
     1.000,1.000,0.546,0.044,1.000: // measure 1
1000
0100
0010
0001
0100
0010
1000
0001
0000
0001
1000
0100
0010
0001
1000
0001
,  // measure 2
0000
0001
0100
0010
1000
0100
0010
0001
0000
1000
0001
0100
0010
1000
0100
0010
,  // measure 3
0001
0010
0100
1000
0001
0010
0100
1000
0000
1000
0100
0010
0001
1000
0100
0010
,  // measure 4
0001
0000
0000
1001
0000
0110
0000
0010
1000
0001
0000
0101
0000
0001
1000
0000
,  // measure 5
0001
0000
0100
0000
0000
0101
0000
1000
0100
0000
0010
0000
0001
0000
0000
0000
,  // measure 6
0011
0000
0010
0000
0000
0100
0000
1000
0010
0000
0100
0000
0001
0000
0100
0000
,  // measure 7
0010
1000
0000
0000
0101
0000
1001
0000
1100
0000
0000
0010
0001
0000
0101
0000
,  // measure 8
0001
1000
0100
0000
1100
0000
0010
0001
0100
0000
0101
0000
1001
0000
1100
0000
,  // measure 9
2002
0000
0000
3003
0010
0100
0001
0010
0100
1000
0001
0010
0100
1000
0001
0100
,  // measure 10
0010
1000
0100
0010
0001
0010
0100
1000
0001
0100
0010
1000
0100
0010
0001
0010
,  // measure 11
0100
1000
0001
0100
0010
1000
0100
0010
0100
0010
0100
1000
0001
0010
0100
0010
,  // measure 12
0001
0010
0001
1000
0010
0100
0001
1000
0100
0010
0001
0010
0100
1000
0001
0100
,  // measure 13
0010
1000
0100
0010
0001
0000
0010
0000
0011
0000
0010
0000
0100
0000
0110
0000
,  // measure 14
0100
1100
1000
0010
1010
0010
0100
0110
,  // measure 15
0100
0101
0001
0010
1010
0010
0100
1100
,  // measure 16
1000
1010
1000
0010
0011
0001
0010
0110
,  // measure 17
0100
0000
0101
0000
0001
0000
1000
0001
0000
1000
0100
0000
0010
0000
0001
1000
,  // measure 18
0000
0000
0001
0100
0001
0000
0000
0000
1000
0000
0000
0000
0100
0000
0010
0000
0000
0000
0001
0000
0010
0000
0000
0000
0100
0000
1000
0000
0001
0000
0000
0000
,  // measure 19
0100
0000
0000
0000
0001
0100
0001
0000
0100
0000
0000
0000
0001
0000
1000
0000
0000
0000
0100
0000
1000
0000
0000
0000
0011
0000
0000
0000
0100
0000
1000
0000
,  // measure 20
0000
0010
1000
0000
0001
0000
0100
0001
1000
0100
1000
0000
0001
0100
0001
0000
,  // measure 21
1000
0000
0001
0000
0100
0001
0100
0000
0001
0000
0100
0000
0001
0000
0000
0000
1001
0000
0000
0000
0001
0000
1000
0000
0100
0000
0000
0000
0010
0000
0001
0000
,  // measure 22
0000
0000
0100
0001
0100
0000
0001
0000
1000
0000
0100
0000
1000
0000
0001
0000
0010
0000
0000
0000
0010
0000
0100
0000
1000
0001
1000
0000
0001
0000
0100
0000
,  // measure 23
0000
0010
0100
0010
1000
0010
1000
0000
1001
0000
0010
0001
0000
0010
0100
1000
,  // measure 24
0000
0000
0010
1000
0010
0000
1000
0000
0001
0000
0010
0000
0001
0000
1000
0000
0100
0000
0000
0000
0100
0000
0010
0000
0001
1000
0001
0000
1000
0000
0010
0000
,  // measure 25
0000
0100
0010
0100
0010
0000
0010
1000
0000
1000
0001
0000
0101
0000
0001
0010
,  // measure 26
0000
0000
0010
0100
1000
0000
0000
0000
1010
0000
0000
0000
1000
0000
0001
0000
0000
0000
0001
0000
0100
0000
0000
0000
0001
0000
0010
0000
0100
0000
0000
0000
,  // measure 27
1000
0001
1000
0001
1000
0000
1000
0010
0000
0010
0100
0000
0100
0000
0010
1000
,  // measure 28
0000
0000
1000
0001
0010
0000
0000
0000
0100
0000
0000
0000
0010
0000
0100
0000
0000
0000
0100
0000
1000
0000
0000
0000
1000
0000
0100
0000
0010
0000
0000
0000
,  // measure 29
0100
0000
0010
0100
0010
0000
0100
0010
0100
0000
1000
0000
0100
0000
1000
0000
0010
0000
1000
0000
0010
0000
1000
0000
0100
0000
1000
0000
0100
0000
1000
0000
,  // measure 30
0001
0010
0001
0010
0100
1000
0100
1000
0010
1000
0010
1000
0100
1000
0100
1000
,  // measure 31
0001
0010
0001
0010
0001
0000
0010
0100
1000
0000
1010
0000
0100
0001
0100
0000
,  // measure 32
0001
0100
0001
0100
0010
0100
0010
0100
0001
0100
0001
0100
0010
1000
0010
1000
,  // measure 33
0100
1000
0100
1000
0001
0010
0100
1000
0010
0100
0001
0010
0100
1000
0010
0100
,  // measure 34
0001
1000
0100
0010
0001
0100
0010
1000
0100
0010
0001
0100
0010
1000
0001
0100
,  // measure 35
0001
1000
0100
0010
0100
0000
0100
1000
0010
0000
1010
0000
0001
0100
0001
0000
,  // measure 36
0001
0100
0001
0100
0010
1000
0010
1000
0100
1000
0100
1000
0001
0010
0001
0010
,  // measure 37
0001
0000
0010
0000
0011
0000
0010
0000
0100
0000
0100
1000
0010
0100
0001
0100
,  // measure 38
0000
0001
1000
0000
0100
1000
0010
0100
0010
0000
0010
1000
0001
0010
0100
1000
,  // measure 39
0000
0001
1000
0000
0100
0000
1000
0000
0010
0000
0100
0001
0100
0010
1000
0010
,  // measure 40
0000
1000
0001
0000
0010
0001
0100
0010
0100
0000
0100
0001
1000
0100
0010
0001
,  // measure 41
0000
1000
0001
0000
2000
0000
0001
0000
3010
0000
1000
0001
0010
0100
1000
0001
,  // measure 42
0000
1000
0100
1000
0001
0000
1000
0000
0010
0000
1000
0001
0010
0100
1000
0010
,  // measure 43
0000
0010
1000
0010
1000
0001
0010
0000
0110
0000
0110
0000
1000
0001
0000
1000
,  // measure 44
0001
0000
1000
0000
0010
1000
0010
0000
0101
0000
1000
0001
0100
0000
0101
0000
,  // measure 45
1010
0000
1100
0000
2002
0000
0000
0000
0000
0000
0000
3003
1000
0000
1000
0000
,  // measure 46
0001
0001
0100
0100
0001
0001
1000
1000
,  // measure 47
0001
0001
0010
0010
0001
0001
1000
1000
,  // measure 48
0100
0100
1000
1000
0100
0100
0010
0010
,  // measure 49
0001
0001
0010
0010
0001
0001
1000
0010
,  // measure 50
0001
0010
0100
1000
0100
0001
0010
1000
,  // measure 51
0010
0000
0000
0000
0001
0000
0000
0000
0010
0000
0000
0000
0100
0000
0000
0000
1000
0000
0000
0000
1000
0000
0000
0000
0001
0000
0000
0100
0000
0000
0010
0000
,  // measure 52
1000
0000
0000
0100
0000
0000
0010
0000
0001
0000
0000
0010
0000
0000
0100
0000
1000
0000
0000
0001
0000
0000
0100
0000
0010
0000
0000
1000
0000
0000
0001
0000
,  // measure 53
0100
0000
0000
0001
0000
0000
1000
0000
0100
0000
0000
0010
0000
0000
0001
0000
1001
0000
0000
0000
0000
0000
0000
0000
1000
0000
0100
0000
1000
0000
0100
0000
,  // measure 54
0010
0001
0010
0001
0100
0001
0100
0001
1000
0010
1000
0010
1000
0100
0010
0001
,  // measure 55
1000
0100
0010
0001
0100
0010
1000
0001
0100
0010
1000
0001
1000
0100
0010
0001
,  // measure 56
0100
0010
1000
0010
0100
0001
1000
0100
0010
0001
0100
0010
1000
0001
1000
0100
,  // measure 57
0010
0001
0010
0100
1000
0001
0100
0010
1000
0100
0010
0001
0010
0001
0010
0100
,  // measure 58
1000
0100
1000
0010
1000
0010
0100
0001
0100
0001
0010
0100
1000
0001
1000
0100
,  // measure 59
1000
0010
1000
0001
0100
0001
0010
0001
1000
0100
0010
0001
0100
0010
1000
0001
,  // measure 60
1000
0100
1000
0001
0010
0001
0100
0010
1000
0100
1000
0001
0010
0001
0100
0010
,  // measure 61
1000
0100
0010
0001
0010
0100
1000
0001
0100
0010
1000
0001
1000
0001
1000
0001
,  // measure 62
1000
0000
0000
0000
0100
0000
0000
0000
0010
0001
0010
0000
0100
0000
1000
0000
0001
0000
0000
0100
0000
0000
0001
0000
1000
0000
0100
0000
0000
0000
0010
0000
,  // measure 63
0000
0000
0001
0000
1000
0001
1000
0000
0001
0000
0100
0000
0001
0000
1000
0000
0001
0000
0100
0000
0001
0000
1000
0000
0001
0000
1000
0000
0100
0000
0010
0000
,  // measure 64
0001
0000
0000
0000
1001
0000
0000
0000
0001
0100
0001
0000
1000
0000
0100
0000
0010
0000
0000
0001
0000
0000
1000
0000
0001
0000
0100
0000
0000
0000
0001
0000
,  // measure 65
0000
0000
1000
0000
0001
0100
0001
0000
1000
0000
0001
0000
0100
0000
0001
0000
1000
0000
0001
0000
0100
0000
0001
0000
1000
0000
0100
0000
0010
0000
0001
0000
,  // measure 66
0010
0000
0000
0000
0011
0000
0000
0000
0100
1000
0100
0000
1000
0000
0010
0000
0100
0000
0000
0001
0000
0000
0100
0000
0010
0000
1000
0000
0000
0000
0101
0000
,  // measure 67
0000
0000
0010
0000
1000
0001
1000
0000
0001
0000
0010
0000
0001
0000
1000
0000
0001
0000
0100
0000
0001
0000
0010
0000
0001
0000
0010
0000
0100
0000
1000
0000
,  // measure 68
0001
0000
0000
0000
1001
0000
0000
0000
0001
0100
0001
0000
0100
0000
0010
0000
1000
0000
0000
0001
0000
0000
0100
0000
0010
0000
1000
0000
0000
0000
1001
0000
,  // measure 69
0000
0001
1000
0000
1001
0000
1001
0000
0110
0000
0110
0000
0001
0010
0100
1000
,  // measure 70
0001
0000
1000
0100
0010
0001
0100
0010
0100
0000
0010
1000
0001
1000
0100
0010
,  // measure 71
0001
0000
0000
0000
0010
0000
0100
0000
1000
0000
0001
0000
1000
0000
0100
0000
1000
0000
0000
0000
0001
0000
0000
0000
0001
0000
0000
0100
0000
0000
0010
0000
,  // measure 72
1000
0000
0000
0100
0000
0000
0010
0000
0001
0000
0000
0010
0000
0000
0100
0000
1000
0000
0000
0001
0000
0000
1000
0000
0110
0000
0000
0110
0000
0000
0110
0000
,  // measure 73
1001
0000
0000
1001
0000
0000
1001
0000
0110
0000
0000
0110
0000
0000
0110
0000
1001
0000
0000
0000
0000
0000
0000
0000
1011
0000
0000
0000
0000
0000
0000
0000
;
