#TITLE:If I Survive;
#SUBTITLE:;
#ARTIST:Hybrid;
#TITLETRANSLIT:;
#SUBTITLETRANSLIT:;
#ARTISTTRANSLIT:;
#CREDIT:;
#BANNER:survive.png;
#BACKGROUND:survive-bg.png;
#LYRICSPATH:;
#CDTITLE:;
#MUSIC:survive.ogg;
#OFFSET:0.000;
#SAMPLESTART:69.492;
#SAMPLELENGTH:12.000;
#SELECTABLE:YES;
#BPMS:0.000=138.105;
#STOPS:;
#BGCHANGES:;

//---------------dance-single - Renard----------------
#NOTES:
     dance-single:
     Renard:
     Challenge:
     10:
     0.698,0.738,0.250,0.016,0.544:
0000
0000
0000
0000
,
0000
0000
0000
0000
,
0000
0000
0000
0000
,
0000
0000
0000
0000
,
0000
0000
0000
0000
,
0000
0000
0000
0000
,
0000
0000
0000
0000
,
0000
0000
0000
0000
,
0001
0100
0110
0010
1000
0100
0110
0010
,
0100
0000
1000
0000
0101
0000
0000
0010
0000
1000
0010
0000
1001
0000
1000
0000
,
0100
0010
0110
0100
1000
0001
0101
0100
,
0010
0000
1000
0000
0010
0000
1000
0001
0000
0100
0010
1000
0001
0100
0010
1000
,
0100
0000
0010
0000
0110
0000
0100
1000
0000
0001
0010
0000
0100
0000
1000
0000
,
0001
0000
0100
0000
0010
0000
0000
1010
0000
0000
1001
0000
1100
0000
0001
0000
,
0010
0000
0100
0000
0110
0000
0100
1000
0000
0001
0100
0000
0010
0000
1000
0000
,
0010
0000
0100
0000
0101
0000
0000
0110
0000
0000
1010
0000
0001
1000
0100
0010
,
0001
0010
0110
0100
1000
0001
0100
0010
,
1000
0000
0001
0000
1010
0000
1000
0001
0000
0100
0010
0000
1000
0000
0010
0000
,
1000
0100
1100
0100
0010
0001
0011
0010
,
0100
0000
1000
0000
1001
0000
1000
0010
0000
0100
0001
0000
0100
0000
0010
0000
,
1000
0100
0110
0010
0100
1000
1100
1000
,
0001
0000
0100
0000
0110
0000
0010
1000
0000
0001
0010
0000
0100
0000
1000
0000
,
0001
0010
0011
0010
0100
1000
1001
0000
,
0001
0100
0010
0000
1000
0000
0000
0000
0100
0010
0001
0000
0010
0100
1000
0001
,
1000
0001
0100
0010
0000
1000
0010
0100
,
0001
0000
0010
0000
0100
0000
1000
0000
0000
0000
0001
0000
0010
0000
0100
1000
,
0001
0100
0010
1000
0000
0001
0100
0001
,
1000
0000
0100
0000
0010
0000
0001
0000
0000
0000
0010
0100
1000
0000
0001
0010
,
0100
0000
1000
0000
0001
0000
0100
0000
0010
0000
1000
0000
0010
0000
0100
0001
,
0100
0000
0010
0000
1000
0000
0100
0000
0010
0000
0001
0000
0010
0000
0100
1000
,
0001
0000
0010
0000
0100
0000
1000
0001
1000
0000
0001
0000
1000
0000
0100
0010
,
0001
0000
0010
0100
1000
0000
0001
0100
0010
0000
1000
0010
0100
0001
0100
0000
,
0001
0100
0010
0000
1000
0000
0100
0010
0000
0001
0010
0000
0100
0000
1000
0000
,
0001
0100
0010
1000
0100
0000
0010
0001
0000
0010
0100
0000
0010
0000
0100
0000
,
1000
0001
0100
0000
0010
0000
1000
0010
0000
1000
0001
0000
1000
0000
0100
0000
,
0010
0001
0010
0000
0100
0000
1000
0001
0000
1000
0010
0000
1000
0000
0001
0000
,
0101
0000
0010
1000
0100
0000
0010
0001
0000
0010
0100
0000
1000
0000
0001
0000
,
0110
0000
0010
0000
1000
0000
0100
0010
0000
0001
0010
0000
0100
0000
1000
0000
,
1100
0000
0100
0000
0010
0000
0001
1000
0000
0001
0100
0000
0010
0000
1000
0000
,
1010
0000
1000
0000
1001
0000
0001
0000
0001
0010
0100
1000
0001
1000
0001
0000
,
100M
0000
0001
0000
0100
0000
0010
0000
100M
0000
0010
0100
0001
0000
0010
0100
,
1001
0000
0001
0000
0010
0000
0100
0000
100M
0000
0001
0000
0100
0000
0010
1000
,
001M
0000
0100
0000
0001
0000
0010
0000
M100
0000
1000
0001
1000
0000
0001
0100
,
M001
0000
0100
0000
0010
0000
1000
0000
010M
0000
0010
0000
0001
0000
0010
0100
,
100M
0000
0001
0000
0100
0000
0010
0000
100M
0000
0010
1000
0010
0000
1000
0001
,
01M0
0000
0001
0000
0100
0000
0010
0000
100M
0000
0100
0000
0010
0000
0001
0010
,
M100
0000
1000
0000
0001
0000
0100
0000
001M
0000
1000
0000
0001
0000
1000
0100
,
10M0
0000
0001
0010
0001
0000
1000
0100
100M
0000
0001
0010
0001
0000
1000
0000
,
0M10
0000
0100
0001
0100
0000
0010
1000
000M
0100
0010
0000
0001
0000
0010
0000
,
M100
0000
1000
0001
0100
0000
0010
1000
0M00
0001
1000
0000
0100
0000
0010
0000
,
0M01
0000
0010
0100
1000
0000
0001
0010
000M
0100
1000
0000
0001
0000
0100
0000
,
0M10
0000
1000
0010
0100
0000
0001
0100
000M
0010
1000
0000
0001
0000
0100
0000
,
M010
0000
1000
0100
0010
0000
0001
0010
000M
0100
1000
0000
0001
0000
0010
0000
,
M100
0000
1000
0001
0100
0000
0010
1000
0M00
0001
0100
0000
0010
0000
1000
0000
,
00M1
0000
0100
0010
1000
0000
0100
0010
M001
0000
0010
0100
1000
0000
0001
0000
,
M1M1
0000
0000
0000
0000
0000
0000
0000
0000
0000
0000
0000
0000
0000
0000
1000
0001
1000
0001
0000
0000
0110
0000
0000
,
100M
0000
0010
0000
M100
0000
0001
0100
000M
0010
1000
0000
M100
0000
0010
0000
,
M001
0010
0100
1000
0M01
0010
0100
1000
00M1
0100
0010
1000
010M
0010
0001
0010
,
M100
0000
1000
0000
00M1
0000
0100
0010
M000
0010
1000
0000
010M
0000
0010
0000
,
01M0
1000
0001
0010
010M
1000
0001
0100
001M
1000
0100
0010
M001
0010
0100
1000
,
00M1
0000
0100
0000
M010
0000
1000
0010
000M
0010
0100
0000
M001
0000
1000
0000
,
0M01
0010
0100
1000
00M1
1000
0010
0100
M001
0100
0010
1000
010M
0010
0001
0010
,
M100
0000
1000
0000
0M01
0000
0100
0010
M000
0010
1000
0000
00M1
0000
0010
0000
,
0M01
0010
0001
1000
010M
0010
0001
0010
010M
1000
0001
0100
001M
1000
0001
0100
,
M010
0000
0000
0000
0000
0000
0010
0000
0000
1000
0000
0000
0000
0000
0000
1000
0000
0000
0000
0000
0000
1000
0001
1000
,
0001
0000
0001
0100
0000
0100
0001
1000
,
0010
0000
0010
1000
0000
1000
0000
0000
,
0100
0000
0100
0010
0000
0010
0001
0000
,
1000
0000
0000
0000
0000
0000
1000
0000
0000
0001
0000
0000
0000
0000
0000
0001
0000
0000
0100
0000
0000
0100
0010
0100
,
0010
0000
0010
1000
0000
1000
0100
0000
,
0010
0000
0010
0001
0000
0001
1000
0000
,
0001
0000
0001
0100
0000
0100
0010
2000
,
0002
0000
0000
0000
0000
3003
0000
0000
;

//---------------dance-single - Renard----------------
#NOTES:
     dance-single:
     Renard:
     Hard:
     8:
     0.548,0.535,0.016,0.000,0.192:
0000
0000
0000
0000
,
0000
0000
0000
0000
,
0000
0000
0000
0000
,
0000
0000
0000
0000
,
0000
0000
0000
0000
,
0000
0000
0000
0000
,
0000
0000
0000
0000
,
0000
0000
0000
0000
,
1000
0001
0010
0001
0000
1000
0010
0000
,
0100
0000
0001
0000
1000
0000
0000
0100
0000
0000
0010
0000
0001
0000
1000
0000
,
0010
0100
0001
1000
0000
0001
0010
0000
,
0100
0000
1000
0000
0001
0000
0000
0110
0000
0000
0010
0000
1000
0000
0001
0000
,
0010
0100
1000
0001
0000
0100
0010
0000
,
1000
0000
0100
0000
0010
0000
0000
0001
0000
0000
1000
0000
0001
0000
0100
0000
,
0010
1000
0001
0100
0000
0010
1000
0100
,
0010
0000
0001
0000
1000
0000
0000
1001
0000
0000
0001
0000
0100
0000
0010
0000
,
1000
0000
0010
0000
0100
0000
0001
1000
0000
0001
0100
0000
0010
0000
1000
0000
,
0100
0000
0010
0000
0001
0000
1000
0100
0000
1000
0001
0000
1000
0000
0001
0000
,
0100
0000
0010
0000
1000
0000
0001
1000
0000
0010
1000
0000
0001
0000
1000
0000
,
0100
0000
0010
0000
0001
0000
1000
0001
0000
0100
0001
0000
1000
0000
0100
0000
,
0010
0000
0001
0000
1000
0000
0001
0100
0000
0010
1000
0000
0001
0000
0100
0000
,
0010
0000
1000
0000
0100
0000
1000
0001
0000
0100
0010
0000
1000
0000
0010
0000
,
0100
0000
0001
0000
1000
0000
0100
1000
0000
0001
0010
0000
0001
0000
1000
0000
,
0010
0100
0001
0000
0100
0010
1000
0000
,
0010
0100
0001
0100
0000
0010
1000
0100
,
0010
0001
0010
0100
0000
0100
1000
0010
,
0100
0001
0100
0010
0100
1000
0100
0010
,
0100
0001
1000
0100
1000
0001
1000
0010
,
0000
1000
0010
0100
0000
0001
0010
0100
,
0000
1000
0001
0100
0000
0001
1000
0010
,
0000
1000
0001
0010
0000
0100
1000
0001
,
0100
0010
0100
0010
1000
0001
0100
0010
,
1000
0010
0100
0001
0000
1000
0100
0010
,
0001
0000
1000
0000
0001
0000
0000
0100
0000
0000
0010
0000
1000
0000
0001
0000
,
0100
0010
1000
0001
0000
0010
0100
1000
,
0001
0000
0100
0000
0001
0000
0000
1000
0000
0000
0100
0000
0010
0000
0001
0000
,
0010
0100
1000
0010
0000
0100
0001
0100
,
0010
0000
1000
0000
0100
0000
0000
0010
0000
0000
0001
0000
0010
0000
0100
0000
,
1000
0001
0100
0010
0000
1000
0010
0100
,
0001
0000
0010
0000
0100
0000
0000
0000
1000
0000
0001
0000
0100
0001
0100
0000
,
0001
0000
1000
0000
0100
0000
0010
0001
0000
0000
0010
0000
0100
0000
1000
0000
,
0001
0000
0100
0000
0010
0000
1000
0010
0000
0000
1000
0000
0100
0000
0010
0000
,
0001
0000
1000
0000
0010
0000
0100
0001
0000
0000
0100
0000
0010
0000
1000
0000
,
0100
0000
0010
0000
0001
0000
1000
0100
0000
0000
1000
0000
0001
0000
0010
0000
,
0001
0000
1000
0000
0010
0000
0100
0010
0000
0000
0100
0000
0001
0000
0010
0000
,
0100
0000
1000
0000
0001
0000
0100
0001
0000
0000
1000
0000
0100
0000
0010
0000
,
0001
0000
1000
0000
0100
0000
1000
0010
0000
0000
1000
0000
0010
0000
0100
0000
,
0001
0000
1000
0000
0100
0000
0010
0000
0001
0000
1000
0001
1000
0000
0001
0000
,
0100
0000
0010
0000
1000
0000
0010
1000
0000
0010
1000
0000
0001
0000
0100
0000
,
0001
0000
0010
0000
0100
0000
1000
0001
0000
1000
0001
0000
1000
0000
0001
0000
,
0100
0000
0010
0000
1000
0000
0001
0010
0000
0001
0010
0000
0100
0000
1000
0000
,
0001
0000
0100
0000
0010
0000
1000
0001
0000
1000
0001
0000
1000
0000
0010
0000
,
0100
0000
0001
0000
0010
0000
0100
0010
0000
0100
0010
0000
0100
0000
1000
0000
,
0010
0000
0100
0000
0001
0000
1000
0100
0000
0010
0001
0000
1000
0000
0001
0000
,
0100
0010
1000
0100
0010
0001
0010
0100
,
1000
0000
0001
0100
0000
0000
0010
1000
,
0001
0000
0100
0000
0001
0000
1000
0100
1000
0000
0001
0000
0010
0000
0100
0000
,
1000
0000
0001
0000
0100
0000
0001
0100
0001
0000
0100
0000
0001
0000
0010
0000
,
0100
0000
1000
0000
0010
0000
0100
0010
0100
0000
0010
0000
1000
0000
0100
0000
,
0010
0000
0001
0000
1000
0000
0001
1000
0001
0000
1000
0000
0001
0000
0100
0000
,
0010
0000
1000
0000
0100
0000
1000
0100
1000
0000
0001
0000
0010
0000
0001
0000
,
1000
0000
0010
0000
0100
0000
0001
0100
0001
0000
0100
0000
0010
0000
1000
0000
,
0100
0000
0010
0000
0001
0000
1000
0100
1000
0000
0001
0000
0010
0000
0001
0000
,
1000
0010
0100
0001
0100
0010
1000
0100
,
0010
0001
0010
0100
0000
0100
1000
0010
,
0000
0010
0100
0001
0000
0001
0010
0100
,
0000
0100
1000
0010
0000
0010
0100
0001
,
0000
0001
1000
0100
0000
0100
0010
0001
,
1000
0010
0000
0100
0001
0010
0000
0100
,
1000
0001
0000
0100
0010
1000
0000
0100
,
0010
0001
0000
1000
0010
0100
0000
0001
,
0010
0100
0000
1000
0000
0010
0100
0001
,
1000
0000
0000
0000
;

//---------------dance-single - Renard----------------
#NOTES:
     dance-single:
     Renard:
     Medium:
     5:
     0.306,0.366,0.055,0.063,0.000:
0000
0000
0000
0000
,
0000
0000
0000
0000
,
0000
0000
0000
0000
,
0000
0000
0000
0000
,
0000
0000
0000
0000
,
0000
0000
0000
0000
,
0000
0000
0000
0000
,
0000
0000
0000
0000
,
1000
0000
0101
0000
0001
0010
0100
0000
,
1000
0000
0101
0000
0001
0010
0100
0000
,
1000
0000
0101
0000
0001
0010
0100
0000
,
1000
0000
0101
0000
0001
0010
0100
0000
,
0001
0000
1010
0000
0100
0001
0010
0000
,
0001
0000
1100
0000
1000
0010
0100
0000
,
0001
0000
1100
0000
1000
0010
0100
0000
,
0001
0100
0010
0000
1000
0010
0100
0000
,
0001
0000
1000
0000
0000
0001
1000
0000
,
0010
0100
0010
1000
,
0001
0000
0010
0000
0000
0100
1000
0000
,
0001
0100
0010
1000
,
0001
0000
0100
0000
0000
0010
1000
0000
,
0001
0100
0001
1000
,
0100
0000
0010
0000
0000
0001
1000
0000
,
0001
0100
0001
0100
,
0010
0000
0000
1000
,
0200
0000
0000
0000
,
0310
0000
0001
0000
1000
0000
0001
0100
,
0000
0000
0100
0000
,
0010
0000
1000
0000
0010
1000
0010
0000
,
1000
0001
0100
0001
,
0010
0100
0010
0001
,
1000
0000
0001
0000
0100
0010
0100
0000
,
0010
0000
1000
0000
0000
0001
0100
0000
,
0001
0000
0010
0000
0000
0100
1000
0000
,
0001
0000
0100
0000
0000
0010
1000
0000
,
0001
0100
0001
1000
,
0100
0000
0010
0000
0000
0001
1000
0000
,
0001
0100
0010
1000
,
0001
0000
1000
0000
0000
0100
0010
0000
,
0001
1000
0001
0100
,
0010
0000
1000
0000
0000
0001
1000
0000
,
0100
0010
0001
1000
,
0002
0000
0003
0100
0020
0000
0000
0000
,
0000
0000
0030
1000
0000
0100
0000
0010
,
0001
0000
1000
0000
0000
0001
0100
0000
,
0001
1000
0100
0010
,
0002
0000
0000
1003
0020
0000
0000
0000
,
0130
0001
0010
0100
,
1000
0000
0001
0000
0000
0100
0001
0000
,
1000
0100
0010
0001
,
1000
0000
0010
0100
0001
0000
0010
0000
,
0100
0000
1000
0001
0000
0100
0000
0001
,
1000
0100
0010
0001
,
1000
0000
0010
0000
0100
0001
0000
1000
,
0000
0100
0000
0010
0000
0001
0000
2000
,
0000
0000
3001
0200
0000
0000
0310
2000
,
0000
0000
0000
3010
,
0100
0001
0100
0010
,
1000
0000
0010
0000
0000
0100
0001
0000
,
1000
0100
0010
0001
,
1000
0000
0100
0000
0000
0010
0001
0000
,
1000
0001
0100
0010
,
1000
0000
0010
0000
0000
0100
0001
0000
,
1000
0100
0010
0001
,
1000
0001
0000
0010
0000
0100
0000
1000
,
0000
0100
0000
0010
0000
0001
0000
0001
,
0000
1000
0000
0100
0000
0010
0000
0001
,
0000
0010
0000
0100
0000
1000
0000
1000
,
0000
0001
0000
0100
0000
0010
0000
1000
,
0000
1000
0000
0010
0000
0100
0000
0001
,
0000
0001
0000
0100
0000
0010
0000
1000
,
0000
1000
0000
0001
0000
0100
0000
0010
,
0100
0000
0000
0000
;

//---------------dance-single - Renard----------------
#NOTES:
     dance-single:
     Renard:
     Easy:
     2:
     0.212,0.310,0.000,0.461,0.000: // measure 1
0000
0000
0000
0000
,  // measure 2
0000
0000
0000
0000
,  // measure 3
0000
0000
0000
0000
,  // measure 4
0000
0000
0000
0000
,  // measure 5
0000
0000
0000
0000
,  // measure 6
0000
0000
0000
0000
,  // measure 7
0000
0000
0000
0000
,  // measure 8
0000
0000
0000
0000
,  // measure 9
1000
0000
1000
0000
,  // measure 10
0001
0100
0001
0000
,  // measure 11
0001
0000
0001
0000
,  // measure 12
1000
0100
1000
0000
,  // measure 13
1000
0000
1000
0000
,  // measure 14
0010
1000
0010
0000
,  // measure 15
1000
0000
1000
0000
,  // measure 16
0001
0010
0001
0000
,  // measure 17
1000
0000
0001
0000
,  // measure 18
0200
0000
0010
0000
,  // measure 19
0310
0000
0100
0000
,  // measure 20
0002
0000
1000
0000
,  // measure 21
1003
0000
0100
0000
,  // measure 22
0020
0000
0001
0000
,  // measure 23
0031
0000
1000
0000
,  // measure 24
0020
0000
0100
0000
,  // measure 25
0130
0000
0000
0010
,  // measure 26
2000
0000
0000
0000
,  // measure 27
3010
0000
0000
0100
,  // measure 28
0002
0000
0023
0000
,  // measure 29
0230
0000
0000
0000
,  // measure 30
2300
0000
0010
0000
,  // measure 31
3020
0000
0230
0000
,  // measure 32
0302
0000
0023
0230
,  // measure 33
2300
0000
3010
0100
,  // measure 34
0002
0000
0000
0000
,  // measure 35
0203
0000
0301
1000
,  // measure 36
0200
0000
0320
0000
,  // measure 37
0032
0000
0000
1003
,  // measure 38
0020
0000
0130
0002
,  // measure 39
2003
0000
3200
0000
,  // measure 40
0320
0000
0032
0000
,  // measure 41
2003
0000
0000
3001
,  // measure 42
0200
0000
0000
0310
,  // measure 43
2000
0000
3200
0000
,  // measure 44
0320
0000
0032
0000
,  // measure 45
2003
0000
3002
0203
,  // measure 46
0320
0000
2030
0000
,  // measure 47
3020
0000
0230
0000
,  // measure 48
0000
0000
0301
0010
,  // measure 49
0200
0000
1000
0000
,  // measure 50
2300
0000
3002
0000
,  // measure 51
0203
0000
0010
0000
,  // measure 52
0320
0000
2030
0000
,  // measure 53
3002
0000
0100
0000
,  // measure 54
0203
0000
0320
0000
,  // measure 55
2030
0000
3200
0000
,  // measure 56
0320
0000
0032
0000
,  // measure 57
2000
0000
0003
0000
,  // measure 58
0010
0000
3020
0000
,  // measure 59
0200
0000
0000
0030
,  // measure 60
0001
0000
0002
0300
,  // measure 61
2000
0000
0000
0003
,  // measure 62
0010
0000
0010
0000
,  // measure 63
0002
0000
3000
0000
,  // measure 64
0200
0003
0000
0010
,  // measure 65
0310
0000
0010
0000
,  // measure 66
0100
0000
0100
0000
,  // measure 67
0001
0000
0001
0000
,  // measure 68
1000
0000
1000
0000
,  // measure 69
0001
0000
0001
0000
,  // measure 70
0100
0000
0100
0000
,  // measure 71
0001
0000
1000
0000
,  // measure 72
0100
0000
0010
0000
,  // measure 73
0001
0000
0000
0000
;
