#TITLE:Ice Cold 2;
#SUBTITLE:;
#ARTIST:Scott Brown;
#TITLETRANSLIT:;
#SUBTITLETRANSLIT:;
#ARTISTTRANSLIT:;
#CREDIT:;
#BANNER:ice.png;
#BACKGROUND:ice-bg.png;
#LYRICSPATH:;
#CDTITLE:;
#MUSIC:ice.ogg;
#OFFSET:0.000;
#SAMPLESTART:81.778;
#SAMPLELENGTH:12.000;
#SELECTABLE:YES;
#BPMS:0.000=175.978;
#STOPS:;
#BGCHANGES:4.000=lyrics=1.000=0=0=1,
5.000=lyrics2=1.000=0=0=1,
5.667=lyrics3=1.000=0=0=1,
7.000=flash1=0.900=0=0=1,
8.000=ice=1.000=1=0=1,
40.000=snowflakes=1.000=1=0=1,
72.000=flash1=1.000=0=0=1,
73.000=ice-bg.png=1.000=1=0=1,
84.000=lyrics=1.000=0=0=1,
85.000=lyrics2=1.000=0=0=1,
85.667=lyrics3=1.000=0=0=1,
87.000=flash1=1.000=0=0=1,
88.000=ice=1.000=1=0=1,
98.000=lyrics=0.500=1=0=1,
99.667=lyrics2=0.800=0=0=1,
100.667=lyrics3=0.600=0=0=1,
103.000=flash1=0.800=0=0=1,
104.000=kami=1.000=0=0=1,
112.000=kamiwing=1.000=0=0=1,
120.000=kami=1.000=0=0=1,
128.000=kamiwing=1.000=0=0=1,
136.000=kami=1.000=0=0=1,
144.000=kamiwing=1.000=0=0=1,
152.000=kami=1.000=0=0=1,
160.000=kami=1.000=0=0=1,
168.000=z=0.600=0=0=1,
172.000=lyrics=1.000=0=0=1,
173.000=lyrics2=1.000=0=0=1,
173.667=lyrics3=1.000=0=0=1,
175.000=z=1.000=0=0=1,
176.000=snowflakes=1.600=0=0=1,
208.000=z=1.000=0=0=1,
210.000=snowflakes=1.000=1=0=1,
224.000=z=1.000=0=0=1,
226.000=snowflakes=1.000=1=0=1,
232.000=ice-bg.png=0.100=1=0=1,
239.000=z=1.000=0=0=1,
240.000=zz=1.000=0=0=1,
248.000=zz2=1.000=0=0=1,
256.000=zz=1.000=0=0=1,
264.000=zz2=1.000=0=0=1,
272.000=zz=1.000=0=0=1,
280.000=zz2=1.000=0=0=1,
288.000=zz=1.000=0=0=1,
290.000=zz=1.000=0=0=1,
292.000=zz=1.000=0=0=1,
294.000=zz=1.000=0=0=1,
296.000=kamiwing=0.300=0=0=1,
303.000=z=1.000=0=0=1,
304.000=ice=1.600=1=0=1,
331.938=z=1.000=0=0=1,
332.000=ice-bg.png=1.000=1=0=1,
99999=-nosongbg-=1.000=0=0=0 // don't automatically add -songbackground-
;

//---------------dance-single - Renard----------------
#NOTES:
     dance-single:
     Renard:
     Hard:
     9:
     0.643,0.574,0.240,0.180,0.857:
0000
0000
0000
0000
,
0000
0000
0000
1001
,
0001
0000
0100
0010
0000
0000
1000
0000
0010
0100
0000
0000
,
0001
0000
1000
0100
0000
0010
0001
0000
0010
0100
0000
1000
,
0001
0000
0010
0100
0000
0000
1000
0000
0010
0100
0000
0000
,
0001
0000
0100
0010
0000
0000
1010
0000
1001
0000
1100
0000
,
0001
0000
1000
0010
0000
0000
0001
0000
0100
0010
0000
0000
,
1000
0000
0100
0010
0000
0000
0001
0000
0010
0100
0000
1000
,
0001
0000
1000
0010
0000
0000
0100
0000
0001
0100
0000
0000
,
0010
0000
1000
0010
0000
0000
1010
0000
1001
0000
1100
0000
,
0001
0000
0010
0000
0100
0000
1000
0000
0100
0000
0010
0000
,
0001
0000
0000
1000
0000
0000
0001
0000
0001
1000
0000
1000
,
0001
0000
0010
0000
0100
0000
1000
0000
0100
0000
0010
0000
,
0001
0000
0001
1000
0000
1000
0001
0000
0001
1000
0000
0000
,
1000
0000
0010
0000
0100
0000
0001
0000
0100
0000
0010
0000
,
1000
0000
1000
0001
0000
0001
1000
0000
1000
0001
0000
0001
,
1000
0000
0010
0000
0100
0000
0001
0000
0100
0000
0010
0000
,
1000
0001
1000
0001
,
1000
0000
0010
0000
0100
0000
0001
0000
0010
0000
0100
0000
,
1000
0000
0010
0000
0100
0000
0001
0000
0100
0000
0010
0000
,
1000
0000
0010
0000
0100
0000
0001
0000
0010
0200
0000
0000
,
2300
0000
0000
3002
0000
0200
0000
0000
0000
0313
0000
0000
,
0001
0000
0001
0100
0000
0000
1000
0000
1000
0100
0000
0000
,
0001
0000
0001
0100
0000
0100
1000
0000
0000
0100
0000
0000
,
0001
0000
0001
0010
0000
0000
1000
0000
1000
0010
0000
0000
,
0001
0000
0001
1000
0000
0000
0001
0000
0000
1001
0000
0000
,
0001
0000
0001
0100
0000
0100
0010
0000
0010
1000
0000
0010
,
0000
0000
0010
0100
0000
0001
0000
0000
1000
0001
0000
0000
,
0100
0000
0100
0010
0000
0010
1000
0000
0100
0000
0000
0010
,
0001
0000
0000
0010
0000
0100
0000
0000
1000
0000
0000
0001
,
0100
0000
0000
0010
0000
0000
1000
0000
0010
0100
0000
0001
,
0000
0000
1000
0010
0000
0100
0000
0000
0001
0100
0000
0000
,
0010
0000
0000
1000
0000
0001
1000
0000
0100
0000
0000
0010
,
0001
0000
0010
0100
0000
1000
0000
0000
0001
0010
0000
0100
,
1000
0000
0000
0001
0000
0000
0100
0000
0010
1000
0000
0010
,
0000
0000
1000
0001
0000
0100
0000
0000
0001
0010
0000
0000
,
1100
0000
0000
0001
0000
0010
0100
0000
1000
0000
0000
0001
,
0100
0000
0010
1000
0000
0010
0000
0000
0100
0000
0000
0001
,
1000
0000
0000
0010
0000
0100
0001
0000
0100
0010
0000
1000
,
0000
0000
0010
0100
0000
0001
0000
0000
0100
0010
0000
0000
,
1010
0000
0000
0010
0000
0100
0001
0000
0010
0000
0000
0100
,
1000
0000
0000
0001
0000
0010
0000
0000
0001
1000
0000
0001
,
0100
0000
0000
0020
,
2030
0000
0000
3200
0000
0020
0000
0000
0000
0331
0000
0000
,
0010
0000
0010
0001
0000
0000
0100
0000
0100
0010
0000
0010
,
1000
0000
1000
0010
0000
0000
0100
0000
0001
1000
0000
0100
,
0010
0000
0010
0001
0000
0000
1000
0000
1000
0001
0000
0001
,
0100
0000
0100
0010
0000
0000
1000
0000
0010
0100
0000
0001
,
1000
0000
1000
0001
0000
0000
1000
0000
1000
0100
0000
0100
,
0010
0000
0010
0001
0000
0000
0001
0000
0010
0100
0000
1000
,
0001
0000
0001
0010
0000
0000
0001
0000
0001
1000
0000
1000
,
0010
0000
0010
0100
0000
0000
0001
0000
0100
0010
0000
0100
,
0001
0000
0001
1000
0000
0000
0001
0000
1000
0010
0000
0100
,
0001
0000
0001
1000
0000
0000
0100
0000
1000
0001
0000
0010
,
0001
0000
0001
1000
0000
0000
0100
0000
1000
0001
0000
0010
,
0001
0000
0001
0100
0000
0000
0010
0000
1000
0001
0000
0100
,
0010
0000
0010
1000
0000
0000
0001
0000
0100
0001
0000
0100
,
0010
0000
1000
0001
0000
0000
0100
0000
0001
1000
0000
0100
,
0020
0000
0000
0000
,
0000
0000
0000
1031
,
0011
0000
0001
0100
0000
0000
0001
0000
0100
0010
0000
0000
,
1010
0000
1000
0100
0000
0000
1000
0000
0001
0100
0000
0000
,
0110
0000
1000
0010
0000
0000
0100
0000
0001
0100
0000
0000
,
0110
0000
0001
0100
0000
0000
0010
0000
1000
0001
0000
0000
,
0011
0000
0001
0100
0000
0000
0001
0000
0100
0010
0000
0000
,
1010
0000
1000
0100
0000
0000
1000
0000
0001
0100
0000
0000
,
0110
0000
1000
0010
0000
0000
0100
0000
0001
0100
0000
0000
,
0110
0000
0001
0100
0000
0000
0010
0000
1000
0001
0000
0000
,
1100
0000
1000
0010
0000
0000
1000
0000
0010
0100
0000
0000
,
0101
0000
0001
0010
0000
0000
0001
0000
1000
0010
0000
0000
,
0110
0000
0001
0100
0000
0000
0010
0000
1000
0010
0000
0000
,
0110
0000
1000
0010
0000
0000
0100
0000
0001
1000
0000
0000
,
2002
0000
0110
3003
,
0220
0000
1001
0330
,
0202
0000
0000
0003
,
0010
0000
0000
0000
0000
0000
1000
0000
0000
0000
0000
0000
0310
0000
0000
0000
2000
0000
0002
0000
0000
3003
0000
0000
,
1000
0000
0010
0100
0000
0000
0001
0000
0100
0010
0000
0000
,
1000
0000
0100
0010
0000
0000
0001
0000
0010
0100
0000
0000
,
1000
0000
0010
0100
0000
0000
0001
0000
0100
0010
0000
0000
,
1000
0000
0001
0100
0000
0000
0010
0000
1000
0000
0100
0000
,
0010
0000
0001
0010
0000
0000
0100
0000
1000
0001
0000
0000
,
0010
0000
0100
1000
0000
0000
0001
0000
0100
0010
0000
0000
,
1000
0000
0010
0100
0000
0000
0001
0000
0100
0010
0000
2000
,
0200
0000
3000
0020
0300
0002
0000
0000
0030
0003
0000
0000
;

//---------------dance-single - Renard----------------
#NOTES:
     dance-single:
     Renard:
     Challenge:
     9:
     0.756,0.789,0.343,0.129,1.000:
0000
0000
0000
0000
,
0000
0000
0000
1111
,
1000
0000
1000
0010
0000
0000
0100
0000
0100
0001
0000
0000
,
0010
0000
0010
0100
1000
0100
0010
0000
0010
0001
0000
0001
,
0010
0000
0010
0100
0000
0000
1000
0000
1000
0010
0000
0000
,
0100
0001
0100
0010
0000
0000
0010
1000
0010
0100
0000
0000
,
0001
0000
0001
0100
0000
0000
0010
0000
0010
1000
0000
0000
,
0100
0000
0010
0001
0000
0010
0100
0000
1000
0001
0000
0010
,
0100
0000
1000
0001
0000
0000
1000
0010
0100
0001
0000
0000
,
0100
0010
1000
0010
0000
0000
0110
0000
0101
0000
1010
0000
,
1100
0000
1100
0000
1100
0000
1100
0000
1100
0000
1100
0000
,
1000
0000
1000
0010
0000
0010
0100
0000
0100
0001
0010
0100
,
1000
0000
1100
0000
1100
0000
1100
0000
1100
0000
1100
0000
,
1000
0000
1000
0010
0000
0010
0100
0000
0100
0001
0010
0001
,
0010
0000
0011
0000
0011
0000
0011
0000
0011
0000
0011
0000
,
0001
0000
0001
0010
0000
0010
0100
0000
1000
0001
0010
0001
,
0010
0000
0011
0000
0011
0000
0011
0000
0011
0000
0011
0000
,
0001
0000
0001
0100
0000
0100
0010
1000
0010
0100
0001
1000
,
0010
0000
0100
0000
0001
0000
0010
0000
0100
0000
1000
0000
,
0010
0000
0100
0000
0001
0000
0010
0000
0100
0000
1000
0000
,
0001
0000
0100
0000
0010
0000
1000
0000
0000
0100
0000
0000
,
0020
0000
0000
0032
0000
2000
0000
0000
0000
3113
0000
0000
,
0001
0100
0000
0000
0000
0000
0001
0100
0000
0000
0000
0000
0010
0100
0000
0000
0000
0000
0010
0100
0000
0000
0000
0000
,
0010
1000
0000
0000
0000
0000
0010
1000
0000
0000
0000
0000
0100
1000
0000
0000
0000
0000
0100
1000
0000
0000
0000
0000
,
0001
0010
0000
0000
0000
0000
0001
0010
0000
0000
0000
0000
0001
0100
0000
0000
0000
0000
0001
0100
0000
0000
0000
0000
,
0010
0100
0000
0000
0000
0000
0010
0100
0000
0000
0000
0000
0010
1000
0000
0000
0000
0000
0010
1000
0000
0000
0000
0000
,
0001
0000
0100
0010
0000
1000
0100
0000
0010
0001
0000
1000
,
0001
0000
0010
0100
0000
1000
0001
0000
0100
0010
0000
0000
,
1010
0000
0010
0100
0000
0001
0010
0000
0100
1000
0000
0001
,
0010
0000
0100
1000
0000
0001
0100
0000
0010
1000
0000
0010
,
1010
0000
0010
0100
0000
0001
0010
0000
0100
1000
0000
0001
,
0010
0000
0001
1000
0000
0010
0100
0000
0001
1000
0000
0000
,
1001
0000
0000
0001
0000
0100
0010
0000
1000
0010
0000
0100
,
0001
0000
0010
0100
0000
1000
0001
0000
0010
0001
0000
1000
,
1001
0000
0001
0100
0000
0010
1000
0000
0001
0100
0000
0010
,
1000
0000
0100
0010
0000
0001
0010
0000
0100
1000
0000
0000
,
1100
0000
0000
0100
0000
0010
0001
0000
0010
0100
0000
1000
,
0001
0000
0100
0010
0000
1000
0001
0000
0100
0001
0000
1000
,
1001
0000
0001
1000
0000
0010
0100
0000
0001
0010
0000
0100
,
0010
0000
0001
1000
0000
0100
0010
0000
0100
1000
0000
0001
,
1001
0000
0001
0100
0000
0010
1000
0000
0010
0100
0000
0001
,
0010
0000
0100
1000
0000
0001
0100
0000
0020
0000
0000
0200
,
0000
0000
0000
0000
,
2000
0000
0000
0000
0000
0002
0000
0000
3333
1001
0000
0000
,
1000
0000
1000
0010
0000
0000
0100
0000
0001
0100
0000
0010
,
1000
0000
1000
0010
0000
0000
0100
0000
0001
0100
0000
0001
,
0010
0000
0010
0100
0000
0000
1000
0000
0100
0010
0000
0001
,
0010
0000
0010
0100
0000
0000
1000
0000
0100
0010
0000
0001
,
1000
0000
1000
0001
0000
0000
0100
0000
0010
1000
0000
0010
,
0100
0000
0100
0001
0000
0000
0010
0000
0100
1000
0000
0001
,
0010
0000
0100
0100
0000
0000
0100
0000
1000
0010
0000
0100
,
0001
0000
0001
0001
0000
0000
0100
0000
0010
1000
0000
0001
,
0100
0000
0010
0010
0000
0000
0010
0000
1000
0100
0000
0010
,
0001
0000
0010
0100
0000
0000
1000
0000
0100
0010
0000
0001
,
1000
0000
0001
0001
0000
0000
0100
0000
0010
1000
0000
0001
,
0100
0000
0010
1000
0000
0000
0100
0000
1000
0100
0000
0010
,
0001
0000
0010
0010
0000
0000
0100
0000
1000
0100
0000
0010
,
0001
0000
0010
0100
0000
0000
1000
0000
0001
0001
0000
0100
,
0020
0000
0000
0000
,
0200
0000
0000
1331
,
0001
0000
0100
0010
0000
0000
1000
0000
0010
0100
0000
0001
,
0010
0000
0100
1000
0000
0100
0010
0001
0010
0100
0000
1000
,
0100
0000
0100
1000
0000
0000
0010
0000
0100
0001
0000
0100
,
0010
0000
1000
0010
0000
0100
0001
0010
0100
1000
0100
0010
,
0001
0000
0001
1000
0000
1000
0001
0000
0100
0010
0000
1000
,
0000
0000
1000
0010
0000
0100
0001
0000
0100
0010
1000
0001
,
0100
0000
0100
0010
0000
1000
0100
0000
0010
0000
0000
0001
,
0010
0000
0100
1000
0000
0001
0000
0000
0010
0100
0000
1000
,
0001
0000
1000
0010
0000
0100
0001
0100
0010
1000
0000
0010
,
0000
0000
0010
0100
0000
0001
0000
0000
1000
0100
0010
0001
,
0010
0000
0010
0100
0000
1000
0001
0000
1000
0010
0000
0100
,
0001
0000
0100
0010
0000
1000
0000
0000
0010
0100
0000
0001
,
0100
0000
0000
0010
0000
1000
0010
0000
0100
0001
0000
0010
,
0100
0110
1100
1001
,
2002
0000
0000
0000
,
0000
0000
0000
3113
,
0001
0000
0100
0010
0000
0100
1000
0000
0100
0010
0000
0100
,
0001
0000
0100
0010
0000
0100
1000
0000
0100
0001
0000
0000
,
0010
0000
0100
0010
0000
1000
0010
0000
0001
0010
0000
0100
,
0010
0000
0001
0010
0000
0001
1000
0000
0010
1000
0000
0001
,
1000
0000
0100
1000
0000
0010
1000
0000
0001
1000
0000
0000
,
0001
0000
0010
0001
0000
0100
0001
0000
1000
0001
0000
0000
,
0001
0000
0100
1000
0000
0100
0001
0000
0010
0100
0000
2000
,
0200
0000
0000
0020
0000
0002
0000
0000
0000
3333
0000
0000
;

//---------------dance-single - Renard----------------
#NOTES:
     dance-single:
     Renard:
     Medium:
     6:
     0.319,0.322,0.043,0.009,0.253:
0000
0000
0000
0000
,
0000
0000
0000
1001
,
1000
0000
0001
1000
0000
0000
0001
0000
0000
1000
0000
0000
,
0001
1000
0001
0000
,
1000
0000
0001
1000
0000
0000
0001
0000
0000
1000
0000
0000
,
0001
0000
1000
0000
,
0001
0000
1000
0001
0000
0000
1000
0000
0000
0001
0000
0000
,
1000
0000
0001
0000
,
1000
0000
0001
1000
0000
0000
0001
0000
0000
1000
0000
0000
,
0001
0000
1000
0000
,
0010
0000
0010
0000
0010
0000
0010
0000
0010
0000
0010
0000
,
0010
0000
0000
0000
,
0100
0000
0100
0000
0100
0000
0100
0000
0100
0000
0100
0000
,
0100
0000
0000
0000
,
0001
0000
0001
0000
0001
0000
0001
0000
0001
0000
0001
0000
,
0001
0000
0000
0000
,
1000
0000
1000
0000
1000
0000
1000
0000
1000
0000
1000
0000
,
1000
0000
0000
0000
,
1001
0000
0000
0000
,
0000
0000
0000
0000
,
0000
0000
0000
0000
,
1000
0000
0000
0000
0000
0001
0000
0000
0000
0100
0000
0000
,
0010
0010
0100
0100
,
0010
0010
0100
0100
,
0010
0010
0100
0100
,
0010
0010
0100
0100
,
0001
0000
0000
1000
0000
0000
0100
0000
0010
0000
0000
0001
,
0000
0000
0000
0000
0000
0010
0000
0000
0000
0100
0000
0000
,
1000
0010
0100
0000
,
0001
0000
0000
0000
1000
0000
0000
0100
0000
0000
0000
0010
,
0000
0001
0010
0100
,
1000
0000
0000
0000
0000
0010
0000
0000
0000
0100
0000
0000
,
0001
0000
1000
0000
,
0100
0000
0000
0000
0010
0000
0000
0001
0000
0000
1000
0000
,
0000
0000
0000
0000
0000
0000
0000
0000
0001
0000
0000
0100
,
0000
0000
0000
0000
0000
0010
0000
0000
0000
1000
0000
0000
,
0010
0000
0100
0000
,
0001
0000
0000
0000
1000
0000
0000
0000
0100
0000
0000
0010
,
0000
0000
0000
0000
0000
0000
0000
0000
0001
0000
0000
0010
,
0000
0000
0000
0000
0000
0100
0000
0000
0000
1000
0000
0000
,
0010
0100
0001
0000
,
1000
0000
0000
0000
0000
0001
0000
0000
0100
0000
0000
0010
,
0000
0000
0000
0000
,
0000
0000
0000
0110
,
0010
0010
1000
1000
,
0010
0010
1000
1000
,
0001
0001
0100
0100
,
0001
0001
0100
0100
,
0010
0010
1000
1000
,
0010
0010
1000
1000
,
0001
0001
0100
0100
,
0001
0001
0100
0100
,
0010
0000
0010
1000
0000
0000
0000
0000
0000
0000
0000
0000
,
0010
0000
0010
1000
0000
0000
0000
0000
0000
0000
0000
0000
,
0001
0000
0001
0100
0000
0000
0000
0000
0000
0000
0000
0000
,
0001
0000
0001
0100
0000
0000
0000
0000
0000
0000
0000
0000
,
0010
0000
0010
1000
0000
0000
0000
0000
0000
0000
0000
0000
,
0010
0000
0010
1000
0000
0000
0000
0000
0000
0000
0000
0000
,
0110
0000
0000
0000
,
0000
0000
0000
1001
,
1000
0000
1000
0100
0000
0000
0010
0000
0000
0001
0000
0000
,
1000
0000
0001
0000
,
1000
0000
1000
0001
0000
0000
0100
0000
0000
0010
0000
0000
,
1000
0000
0001
0000
,
1000
0000
1000
0100
0000
0000
0010
0000
0000
0001
0000
0000
,
1000
0000
0001
0000
,
0010
0000
0010
0100
0000
0000
1000
0000
0000
0010
0000
0000
,
0100
0000
0001
0000
,
1000
0000
1000
0001
0000
0000
1000
0000
0000
0000
0000
0000
,
0001
0000
0100
0000
,
0010
0000
0010
1000
0000
0000
0010
0000
0000
0000
0000
0000
,
0100
0000
0001
0000
,
1000
1000
0001
0000
,
0100
0100
0010
1000
,
0002
0000
0000
0000
,
0000
0000
0000
1003
,
0001
0000
0001
0100
0000
0000
0001
0000
0000
1000
0000
0000
,
0100
0000
1000
0000
,
0001
0000
0001
0010
0000
0000
0100
0000
0000
1000
0000
0000
,
0010
0000
0100
0000
,
0001
0000
0001
1000
0000
0000
0100
0000
0000
0010
0000
0000
,
0001
0000
1000
0000
,
0010
0100
0001
0100
,
0010
0000
0000
1000
0000
0010
0000
0000
0000
0000
0000
0000
;

//---------------dance-single - Renard----------------
#NOTES:
     dance-single:
     Renard:
     Easy:
     2:
     0.274,0.358,0.111,0.077,0.000: // measure 1
0000
0000
0000
0000
,  // measure 2
0000
0000
0000
0000
,  // measure 3
1000
0000
1000
0000
,  // measure 4
0002
0000
0103
0000
,  // measure 5
0100
0000
0010
0000
,  // measure 6
2000
0000
3001
0000
,  // measure 7
0010
0000
0010
0000
,  // measure 8
0200
0000
1300
0000
,  // measure 9
1000
0000
0001
0000
,  // measure 10
0200
0000
0310
0000
,  // measure 11
1000
1000
1000
1000
,  // measure 12
1000
0000
1000
0000
,  // measure 13
0001
0001
0001
0001
,  // measure 14
0001
0000
0001
0000
,  // measure 15
0100
0100
0100
0100
,  // measure 16
0100
0000
0100
0000
,  // measure 17
0010
0010
0010
0010
,  // measure 18
0010
0000
0010
0000
,  // measure 19
2002
0000
0000
0000
,  // measure 20
0000
0000
0000
0000
,  // measure 21
3003
0000
0000
0000
,  // measure 22
0000
0000
0000
0110
,  // measure 23
0010
0010
0100
0000
,  // measure 24
0010
0010
0100
0000
,  // measure 25
0001
0001
1000
0000
,  // measure 26
0001
0001
1000
0000
,  // measure 27
0001
0001
0100
0100
,  // measure 28
0001
0000
0100
0000
,  // measure 29
0010
0010
1000
1000
,  // measure 30
0010
0000
1000
0000
,  // measure 31
0100
0100
1000
1000
,  // measure 32
0100
0000
1000
0000
,  // measure 33
0001
0001
0010
0010
,  // measure 34
0001
0000
0010
0000
,  // measure 35
0001
0001
0100
0100
,  // measure 36
0001
0000
0100
0000
,  // measure 37
0010
0010
1000
1000
,  // measure 38
0010
0000
1000
0000
,  // measure 39
0100
0100
1000
1000
,  // measure 40
0100
0000
1000
0000
,  // measure 41
0001
0001
0010
0010
,  // measure 42
0001
0000
0010
0000
,  // measure 43
1001
0000
0000
0000
,  // measure 44
0000
0000
0000
0110
,  // measure 45
0010
0000
0010
0100
,  // measure 46
0001
0000
0001
1000
,  // measure 47
0100
0000
0100
1000
,  // measure 48
0001
0000
0001
0010
,  // measure 49
0100
0000
0100
1000
,  // measure 50
0010
0000
0010
0100
,  // measure 51
0001
0000
0001
1000
,  // measure 52
0100
0000
0100
1000
,  // measure 53
0001
0000
0001
0010
,  // measure 54
0010
0000
0010
0100
,  // measure 55
0100
0000
0100
1000
,  // measure 56
1000
0000
1000
0010
,  // measure 57
0010
0000
0010
0100
,  // measure 58
0100
0000
0100
0002
,  // measure 59
2000
0000
0000
0000
,  // measure 60
3003
0000
0000
0110
,  // measure 61
0010
0000
0010
0000
,  // measure 62
0100
0000
0100
0000
,  // measure 63
0001
0000
0001
0000
,  // measure 64
1000
0000
1000
1000
,  // measure 65
0001
0000
0001
0000
,  // measure 66
0100
0000
0100
0000
,  // measure 67
0010
0000
0010
0000
,  // measure 68
1000
0010
1000
0000
,  // measure 69
0010
0000
1010
0000
,  // measure 70
0100
0000
0101
0000
,  // measure 71
0010
0001
0010
0000
,  // measure 72
0100
1000
0100
0000
,  // measure 73
1001
0000
0110
0000
,  // measure 74
1001
0000
0110
0000
,  // measure 75
1001
0000
0000
0000
,  // measure 76
0000
0000
0000
0110
,  // measure 77
0010
0000
0010
0000
,  // measure 78
0100
0000
0001
0001
,  // measure 79
1000
0000
1000
0000
,  // measure 80
0100
0000
0010
0010
,  // measure 81
0001
0000
0001
0000
,  // measure 82
1000
0000
0010
0010
,  // measure 83
0100
0000
0100
0001
,  // measure 84
2000
0000
3001
0000
;
