#TITLE:I'll Get You;
#SUBTITLE:;
#ARTIST:Scott Brown;
#TITLETRANSLIT:;
#SUBTITLETRANSLIT:;
#ARTISTTRANSLIT:;
#CREDIT:;
#BANNER:get.png;
#BACKGROUND:get-bg.png;
#LYRICSPATH:;
#CDTITLE:;
#MUSIC:get.ogg;
#OFFSET:0.000;
#SAMPLESTART:32.000;
#SAMPLELENGTH:12.000;
#SELECTABLE:YES;
#BPMS:0.000=180.000;
#STOPS:;
#BGCHANGES:;

//---------------dance-single - Renard----------------
#NOTES:
     dance-single:
     Renard:
     Hard:
     9:
     0.616,0.654,0.656,0.081,0.550:
0000
0000
0000
0000
,
0000
0000
0000
0000
,
0000
0000
0000
0000
,
0000
0000
0000
0000
,
1000
0000
0000
1000
0000
0000
1000
0000
0001
0100
0000
0010
,
1000
0000
0000
1000
0000
0000
1000
0000
0100
0010
0000
0001
,
0010
0000
0000
0010
0000
0000
0010
0000
0100
1000
0000
0001
,
0100
0000
0010
0000
0000
0110
0000
0000
0000
0000
0000
0000
,
0010
0000
0010
1000
0000
0000
1100
0000
0000
1000
0000
0000
,
0001
0000
0010
0001
0000
0000
0011
0000
0000
0010
0000
0000
,
0100
0000
1000
0001
0000
0000
1001
0000
0000
0001
0000
0000
,
0100
0000
0010
0000
0000
1000
0100
0000
0000
1100
0000
0000
,
1000
0000
0100
0010
0000
0000
0011
0000
0000
0010
0000
0000
,
0100
0000
1000
0001
0000
0000
1001
0000
0000
0001
0000
0000
,
0100
0000
0010
1000
0000
0000
1010
0000
0000
1000
0000
0000
,
0100
0000
0010
0000
0000
0011
0000
0000
0000
1000
0100
0010
,
0001
0000
0000
0001
0000
0000
0010
0000
0100
0000
0000
0000
,
1000
0000
0000
1000
0000
0000
1000
0000
0010
1000
0000
0010
,
1000
0000
0000
0001
0000
0000
0100
0000
0001
0000
0000
0000
,
0100
0000
0000
0100
0000
0010
0100
0000
0010
0100
0000
0010
,
1000
0000
0000
1000
0000
0000
1000
0000
0001
0100
0000
0010
,
1000
0000
0000
1000
0000
0000
1000
0000
0010
0100
0000
0001
,
0100
0000
0000
0100
0000
0000
0100
0000
0010
1000
0000
0100
,
0010
0000
0002
0000
0000
2000
0000
0000
0000
3013
0000
0000
,
1001
0000
0000
1001
0000
0000
0001
0000
1000
0010
0000
0000
,
0100
0110
0101
1001
,
1100
0000
0000
0110
0000
0000
0010
0000
0001
0010
0000
0000
,
0100
0000
0000
1000
0000
0000
0010
0000
0100
0001
0000
0100
,
0010
0000
0000
1000
0000
0000
0010
0000
1000
0001
0000
0000
,
1100
0000
0000
0011
0000
0000
1100
0000
0000
1000
0000
0001
,
0100
0110
1010
1001
,
1000
0000
0100
0000
0000
0010
0001
0000
0000
0010
0100
0010
,
0100
0000
0000
1000
0000
0000
0010
0000
1000
0001
0000
0000
,
0101
0110
1100
0110
,
1010
0000
0000
1001
0000
0000
1000
0000
0100
0010
0000
0000
,
0001
0000
0000
0010
0000
0000
0100
0000
1000
0001
0000
1000
,
0001
0000
0000
0100
0000
0000
0010
0000
1000
0000
0000
0000
,
0001
0000
1000
0100
0000
0010
0001
0000
0000
0010
0000
0000
,
0110
0000
0000
1100
0000
0000
0011
0000
0000
0010
0000
0100
,
1000
0000
0010
0000
0000
2002
0000
0000
0000
0000
0000
3003
,
1001
1001
0110
0110
,
0000
0000
0110
0000
0000
0010
1000
0000
0000
0001
0000
0000
,
0000
0000
0100
0001
0000
0000
1001
0000
0000
1100
0000
0000
,
0011
1100
1001
1001
,
0101
0101
0110
0110
,
0000
0000
1010
0000
0000
1000
0100
0000
0000
0011
0000
0000
,
0000
0000
0010
0100
0000
0000
1100
0000
0000
1001
0000
0000
,
0101
0000
0000
0110
0000
0000
1010
0000
0000
1000
0100
1000
,
0100
1000
0001
0010
,
0000
0000
0011
0000
0000
0010
0100
0000
0000
1000
0000
0000
,
0010
0000
0100
0001
0000
0000
0110
0000
0000
1100
0000
0000
,
1000
0000
0100
0010
0000
0000
0101
0000
0100
0010
0000
0000
,
0110
0000
0000
1010
0000
0000
1001
0000
1000
0100
0000
0000
,
0010
0000
0001
0000
0000
0010
0100
0000
0000
0010
0000
0000
,
0110
0000
0100
1000
0000
0000
1010
0000
0000
1001
0000
0000
,
1002
0000
0000
2000
0000
0000
3013
0000
0000
0001
1000
0001
,
1000
0000
0000
1000
0000
0000
1000
0000
1000
0100
0000
0100
,
0010
0000
0000
0010
0000
0000
0010
0000
0010
0001
0000
0001
,
0010
0000
0000
0010
0000
0000
0010
0000
0010
0100
0000
0100
,
1000
0000
0000
1000
0000
0010
1000
0000
0010
1000
0000
0010
,
1000
0000
0000
1000
0000
0000
1000
0000
1000
0001
0000
0001
,
0100
0000
0000
0100
0000
0000
0100
0000
0100
0010
0000
0010
,
1000
0000
0000
1000
0000
0000
1000
0000
1000
0100
0000
0100
,
0010
0000
0000
0010
0000
0001
1000
0000
0001
1000
0000
0001
,
0100
0000
0000
0100
0000
0000
0100
0000
0010
0100
0000
0010
,
0100
0000
0000
0100
0000
0000
0001
0000
1000
0001
0000
1000
,
0001
0000
0000
0001
0000
0000
0001
0000
1000
0100
0000
0010
,
0001
0000
0000
0010
0000
0100
1000
0000
0001
0010
0000
0100
,
1000
0000
0000
1000
0000
0000
1000
0000
0001
0100
0000
0010
,
1000
0000
0000
1000
0000
0000
1000
0000
0010
0100
0000
0001
,
1000
0000
0000
1000
0000
0000
0100
0000
0010
0001
0000
0010
,
0100
0000
2000
0000
0000
0002
0000
0000
0000
0000
0000
0000
,
3003
0000
0000
0000
;

//---------------dance-single - Renard----------------
#NOTES:
     dance-single:
     Renard:
     Medium:
     6:
     0.379,0.360,0.061,0.000,0.146:
0000
0000
0000
0000
,
0000
0000
0000
0000
,
0000
0000
0000
0000
,
0000
0000
0000
0000
,
1000
1000
1000
1000
,
0001
0001
0001
0001
,
0100
0100
0100
0010
,
1000
0000
0010
0000
0000
0100
0000
0000
0000
0000
0000
0000
,
0001
0001
1000
1000
,
0001
0001
1000
1000
,
0010
0010
0100
0100
,
0010
1000
0001
1001
,
1000
1000
0100
0100
,
0010
0010
0001
1000
,
0001
1000
0001
0100
,
0010
0000
1000
0000
0000
1010
0000
0000
0000
0000
0000
0000
,
1000
0010
1000
0010
,
0000
0000
0000
0000
,
0100
0001
0100
0001
,
0000
0000
0000
0000
,
0010
0001
0010
0001
,
1000
0100
1000
0100
,
1000
0010
0100
0001
,
1000
0000
0010
0000
0000
1010
0000
0000
0000
0000
0000
0000
,
1000
0000
0000
0010
0000
0000
0010
0000
1000
0000
0000
0000
,
0010
0100
0001
1000
,
0100
0000
0000
0010
0000
0000
0001
0000
0010
0000
0000
0000
,
0001
0010
0100
1000
,
0010
0000
0000
0100
0000
0000
0001
0000
0100
0000
0000
0000
,
0010
1000
0100
0010
,
0001
0000
0000
1000
0000
0000
0100
0000
1000
0000
0000
0000
,
0010
0100
0010
0110
,
0010
0000
0000
0100
0000
0000
0001
0000
1000
0000
0000
0000
,
0001
1000
0100
0010
,
0001
0000
0000
1000
0000
0000
0001
0000
1000
0000
0000
0000
,
0010
0100
0001
1000
,
0100
0000
0000
0010
0000
0000
0001
0000
1000
0000
0000
0000
,
0001
0010
0100
1000
,
0010
0000
0000
0100
0000
0000
0001
0000
0100
0000
0000
0000
,
0010
0000
0100
0000
0000
0110
0000
0000
0000
0000
0000
0000
,
0010
0010
0100
0100
,
0000
0000
0001
0000
0000
0001
1000
0000
0000
0100
0000
0000
,
0000
0010
0001
1000
,
0010
0010
0100
0100
,
0001
0001
1000
1000
,
0000
0000
0100
0000
0000
0100
0010
0000
0000
0001
0000
0000
,
0000
1000
0010
0100
,
0001
1000
0001
0000
,
0100
0001
1000
0100
,
0000
0000
0010
0000
0000
0010
0001
0000
0000
0010
0000
0000
,
0000
0100
1000
0010
,
0100
0001
0100
0010
,
1000
1000
0010
0010
,
0000
0000
0100
0000
0000
0100
0001
0000
0000
0100
0000
0000
,
0000
0010
1000
0100
,
0010
0001
0010
0100
,
1000
1000
0001
0001
,
0100
0100
0010
0010
,
0100
0100
0001
0001
,
1000
0001
0100
0100
,
0001
1000
0001
1000
,
0010
0010
1000
1000
,
0001
1000
0001
1000
,
0100
0100
0010
0010
,
0001
1000
0001
1000
,
0010
0000
0000
1000
0000
0000
0001
0000
0000
1000
0000
0001
,
1000
0010
0100
0001
,
1000
0000
0000
0100
0000
0000
0010
0000
0000
0001
0000
1000
,
0001
1000
0010
0100
,
0001
0000
0000
1000
0000
0000
0100
0000
0000
1000
0000
0001
,
0100
0010
1000
0100
,
0010
0000
0001
0000
0000
0011
0000
0000
0000
0000
0000
0000
;

//---------------dance-single - Renard----------------
#NOTES:
     dance-single:
     Renard:
     Easy:
     2:
     0.274,0.323,0.000,0.010,0.000: // measure 1
0000
0000
0000
0000
,  // measure 2
0000
0000
0000
0000
,  // measure 3
0000
0000
0000
0000
,  // measure 4
0000
0000
0000
0000
,  // measure 5
1000
1000
1000
1000
,  // measure 6
0001
0001
0001
0001
,  // measure 7
1000
0001
1000
0001
,  // measure 8
1000
0000
0000
0000
,  // measure 9
0010
0100
0001
0000
,  // measure 10
1000
0100
0010
0000
,  // measure 11
0001
0010
0100
0000
,  // measure 12
1000
0001
1000
0001
,  // measure 13
0100
0010
1000
0000
,  // measure 14
0001
0100
0010
0000
,  // measure 15
1000
0010
0100
0001
,  // measure 16
1000
0001
0100
0001
,  // measure 17
1000
0100
0010
0000
,  // measure 18
0000
0000
0000
0000
,  // measure 19
0001
0010
0100
0000
,  // measure 20
0000
0000
0000
0000
,  // measure 21
1000
0010
0100
0000
,  // measure 22
0000
0000
0000
0000
,  // measure 23
0001
0100
0010
1000
,  // measure 24
0002
0000
0000
0000
,  // measure 25
1003
0001
1000
0001
,  // measure 26
0100
0100
0100
0000
,  // measure 27
0001
1000
0001
1000
,  // measure 28
0010
0010
0010
0000
,  // measure 29
0001
1000
0001
1000
,  // measure 30
0100
0100
0100
0000
,  // measure 31
1000
0001
1000
0001
,  // measure 32
0010
0001
1000
0001
,  // measure 33
1000
0010
1000
0010
,  // measure 34
0100
0000
0100
0000
,  // measure 35
0001
0010
0001
0010
,  // measure 36
0100
0000
0100
0000
,  // measure 37
1000
0100
1000
0100
,  // measure 38
0010
0000
0010
0000
,  // measure 39
0001
0100
0001
0100
,  // measure 40
0010
0000
0000
0000
,  // measure 41
0010
0000
0010
0000
,  // measure 42
1000
0000
1000
0010
,  // measure 43
0100
0000
0100
0000
,  // measure 44
0001
0010
0001
0010
,  // measure 45
0100
0000
0100
0000
,  // measure 46
1000
0000
0001
0000
,  // measure 47
0100
0000
0010
1000
,  // measure 48
0001
0100
0001
1000
,  // measure 49
0100
0100
0010
0010
,  // measure 50
0000
0001
1000
0001
,  // measure 51
0000
0100
0010
0100
,  // measure 52
0001
1000
0001
1000
,  // measure 53
0100
0100
0010
0010
,  // measure 54
0000
0001
1000
0001
,  // measure 55
0000
0100
0010
0100
,  // measure 56
0010
0000
0010
0000
,  // measure 57
1000
0000
1000
0000
,  // measure 58
0010
0000
0010
0000
,  // measure 59
0100
0000
0100
0000
,  // measure 60
0001
0000
1000
0001
,  // measure 61
1000
0000
1000
0000
,  // measure 62
0001
0000
0001
0000
,  // measure 63
0010
0000
0010
0000
,  // measure 64
0100
0000
1000
0100
,  // measure 65
1000
0000
1000
0000
,  // measure 66
0001
0000
0001
0000
,  // measure 67
0100
0000
0100
0000
,  // measure 68
0010
0100
0010
0000
,  // measure 69
0010
0000
1000
0000
,  // measure 70
0010
0000
0100
0000
,  // measure 71
0001
0000
1000
0100
,  // measure 72
0010
0000
0000
0000
;
