#TITLE:I Wish;
#SUBTITLE:;
#ARTIST:Infected Mushroom;
#TITLETRANSLIT:;
#SUBTITLETRANSLIT:;
#ARTISTTRANSLIT:;
#CREDIT:;
#BANNER:wish.png;
#BACKGROUND:wish-bg.png;
#LYRICSPATH:;
#CDTITLE:;
#MUSIC:wish.ogg;
#OFFSET:0.000;
#SAMPLESTART:31.862;
#SAMPLELENGTH:12.000;
#SELECTABLE:YES;
#BPMS:0.000=145.000;
#STOPS:;
#BGCHANGES:;

//---------------dance-single - Renard----------------
#NOTES:
     dance-single:
     Renard:
     Hard:
     8:
     0.586,0.571,0.207,0.038,0.164:
0000
0000
0000
0000
,
0000
0000
0000
0000
,
0000
0000
0000
0000
,
0000
0000
0000
0000
0000
1000
1000
1000
,
0001
0000
0000
0100
0000
0000
0010
0000
0000
1000
0000
0000
0100
0000
0000
0010
,
0000
0001
0000
0000
0010
0100
1000
0010
,
0100
0000
0000
0100
0000
0000
0100
0000
0000
0000
0110
0000
0000
0000
0010
0000
,
1000
0100
0010
0001
0010
0100
1000
0001
,
0100
0000
0000
0001
0000
0000
1000
0000
0000
0100
0000
0000
0010
0000
0000
0001
,
0000
0000
0010
0000
0000
0000
0100
0000
1000
0000
0000
0000
0010
0000
0100
0001
,
0100
0000
0000
0001
0000
0000
1000
0000
0000
0000
0100
1000
0100
0000
1000
0000
,
0001
0010
0100
1000
0001
0100
0010
1000
,
0100
0010
0000
0001
0010
0100
1000
0000
,
0001
0001
0010
0010
0100
1000
0000
0010
,
0000
0000
0100
0010
0000
0010
1000
0100
,
0010
0000
0001
0000
0010
0000
0001
1000
0001
0000
0100
0000
0010
0000
1000
0000
,
0100
0000
0000
1000
0000
0000
0010
0000
0000
0000
0100
0000
0001
0000
0010
0000
,
0001
1000
0001
0100
0010
1000
0100
0010
,
0001
0000
1000
0001
1000
0000
0001
0000
0100
0000
0000
0010
0000
0000
1000
0000
,
0000
0010
0100
0001
0010
0000
1001
0000
,
0001
0000
0100
0001
0100
0000
0001
0000
1000
0000
0100
0000
0010
0000
0001
0000
,
1000
0000
0100
1000
0100
0000
1000
0000
0001
0000
0010
0000
0001
0000
1000
0000
,
0010
0000
0100
0010
0100
0000
0010
0000
1000
0000
0100
0000
0010
0000
0001
0000
,
1000
0000
0001
1000
0001
0000
1000
0000
0001
0000
0100
0000
0010
0000
1000
0000
,
0010
1000
0000
1100
0000
1000
0100
0010
,
0001
0000
1000
0001
1000
0000
0001
0000
0100
0000
0010
0000
1000
0000
0100
0000
,
0010
0000
0001
0010
0001
0000
0010
0000
0100
0000
1000
0000
0000
0000
1001
0000
,
0000
0001
0100
0010
1000
0010
1000
0001
,
1000
0000
0000
0000
0001
0000
0100
0000
0010
0000
0100
0010
0100
0000
0010
0000
,
1000
0100
0010
0001
0010
0100
0000
0110
,
0000
1100
0000
0011
0000
0110
0000
0100
,
1000
0010
0100
0001
0010
0001
1000
0001
,
0100
0010
0000
0110
0000
0010
1000
0100
,
1000
0000
0001
0010
0001
1000
0001
0100
,
0010
0000
1000
0010
1000
0000
0001
0000
0100
0000
0001
0000
0000
0000
0010
0000
,
0000
0100
1000
0000
0002
0000
0200
0000
,
0020
0000
0000
0000
,
0333
0000
0000
0000
0000
0001
0001
0001
,
0100
0000
0000
0010
1000
0000
0010
0000
0000
0000
0100
0000
0001
0000
0000
0010
,
0100
1000
0000
1000
0001
0000
0100
0001
,
1000
0001
1000
0000
0000
0000
0101
0000
0000
0000
0001
0000
0100
0000
0010
0000
,
1000
0100
0010
0001
1000
0001
0100
0010
,
1000
0000
1000
0100
0000
0000
0010
0000
0010
0001
0000
0000
0010
0000
0000
0000
,
0001
0010
0100
1000
0010
0100
0001
0010
,
0001
0000
1000
0001
1000
0000
0001
0000
0100
0000
0010
0000
0000
0000
1010
0000
,
0000
1000
0100
0010
0001
1000
0001
0100
,
0000
0001
0100
0010
1000
0100
0000
1100
,
0000
1000
0100
0010
0001
1000
0000
1001
,
0000
0001
0100
0010
1000
0100
0000
1100
,
0000
1000
0001
0100
0010
0100
0000
0110
,
0000
0010
1000
0100
0010
0001
0010
0100
,
1000
0000
0001
0100
0001
0000
0100
0000
0010
0000
1000
0000
0100
0000
0010
0000
,
0001
0000
1000
0100
1000
0000
0001
0000
0100
0000
0010
0000
1000
0000
0001
0000
,
0100
0000
0001
0001
1000
1000
0110
0000
,
1001
0000
0000
0000
0001
0000
0100
0010
0100
0000
0010
0000
1000
0000
0100
0000
,
0010
0000
0000
0000
0010
0000
0100
0000
1000
0000
0010
1000
0010
0000
0100
0000
,
0000
0101
0000
0110
0000
1100
0000
1000
,
0100
0000
0010
0000
1000
0000
0100
0000
0010
0000
0001
0000
0010
0000
0100
0010
,
0100
0010
0000
0110
0000
0100
1000
0010
,
0100
0001
1000
0001
0100
0010
1000
0100
,
0010
0000
0000
0000
0001
0000
0000
0010
0100
0000
1000
0000
0000
0000
0010
0000
,
0000
0000
0100
0001
0100
0000
0010
0000
1000
0000
0100
0000
0010
0000
0002
0000
,
1000
0003
0000
0000
0000
0000
0101
0000
0000
0000
0000
0000
0001
0000
0100
0000
,
0010
0000
0010
1000
0000
0100
0010
0001
,
0010
0000
0000
0000
;

//---------------dance-single - Renard----------------
#NOTES:
     dance-single:
     Renard:
     Medium:
     5:
     0.433,0.481,0.357,0.028,0.000:
0000
0000
0000
0000
,
0000
0000
0000
0000
,
0000
0000
0000
0000
,
0000
0000
0000
0000
,
1000
0000
0101
0000
0010
0000
1000
0100
,
1000
0000
0011
0000
0100
0000
1000
0001
,
1000
0000
0101
0000
0100
0000
0010
1000
,
0010
0000
1001
0000
1000
0000
0100
0010
,
0100
0000
0110
0000
0100
0000
1000
0001
,
1000
0000
1001
0000
0001
0000
0100
0010
,
0100
0000
0110
0000
0010
1000
0001
0000
,
1000
0000
0001
0000
0100
0001
1000
0001
,
1000
0001
1000
0000
0100
0000
1000
0000
,
0001
0010
0001
0010
0001
0010
0001
0010
,
0001
0001
1000
1000
,
0010
0010
0100
0100
,
0001
0000
1000
0100
1000
0000
1001
0000
,
1000
0000
0001
0100
0001
0000
1001
0000
,
0201
0000
0010
0010
,
0310
0000
0010
0100
0010
0000
0110
0000
,
0010
0000
0010
0000
1000
0000
1000
0001
,
0100
0000
0100
0001
1000
0000
0100
0000
,
1000
0001
0010
0100
,
1000
0000
0001
0100
0001
1000
0001
1000
,
0100
1000
0001
0010
,
0001
0000
1000
0000
0001
0000
0100
0010
,
1000
0000
1000
0000
0010
0100
0000
0001
,
0000
0000
0100
0010
0100
0010
0100
0010
,
0000
1000
0010
1000
,
0100
0000
0010
0001
0010
0100
0000
1000
,
0000
1000
0000
1000
0000
0001
0000
0000
,
0100
0000
0010
1000
0010
1000
0001
1000
,
0001
1000
0000
0001
0000
0000
0100
0000
,
0001
0000
1000
0000
0100
0000
0010
0001
,
0010
0000
0100
0000
1000
0001
0000
1001
,
0000
0001
0100
0000
0010
0000
1000
0000
,
2002
0000
0000
0000
,
3003
0000
0000
0000
0000
1000
1000
1000
,
0001
0110
0000
0110
,
1000
0110
0000
0110
,
0001
0110
1000
0110
,
0001
0110
1000
0110
,
0010
1001
0000
1001
,
0100
1001
0000
1001
,
0010
1001
0100
1001
,
0010
1001
0001
1000
,
0100
1000
0001
0000
1000
0000
0001
0000
,
0100
0010
0100
0000
0010
0000
1000
0000
,
0001
1000
0001
0000
0100
0000
0001
0000
,
1000
0100
1000
0000
0001
0000
0010
0000
,
0001
1000
0001
0000
0100
0001
0100
0000
,
0010
1000
0100
0010
0001
0000
1000
0000
,
0001
0100
0001
0100
0001
1000
0001
1000
,
0100
0000
1000
0001
1000
0000
1001
0000
,
0110
0000
0010
0000
1000
0010
1000
0000
,
0001
0101
0001
1001
,
1000
0000
0100
0000
0010
0001
1000
0000
,
0100
1100
1000
1010
,
1001
0000
0001
0000
0100
0010
0100
0000
,
0010
1010
1000
1001
,
0001
0000
0100
0000
0001
1000
0000
1001
,
0000
0000
1000
0000
0100
1000
0001
0000
,
1000
0000
1000
0001
0000
0001
0100
0000
,
0001
0000
1000
0100
0000
0100
1000
0000
,
0001
0000
0000
0000
;

//---------------dance-single - Renard----------------
#NOTES:
     dance-single:
     Renard:
     Easy:
     2:
     0.189,0.270,0.000,0.019,0.000: // measure 1
0000
0000
0000
0000
,  // measure 2
0000
0000
0000
0000
,  // measure 3
0000
0000
0000
0000
,  // measure 4
0000
0000
0000
0000
,  // measure 5
1000
0000
1000
0000
,  // measure 6
0001
0000
0001
0000
,  // measure 7
0100
0000
0000
0100
0000
0000
0100
0000
,  // measure 8
0100
0000
0100
0000
,  // measure 9
0010
0000
0010
0000
,  // measure 10
1000
0000
1000
0000
,  // measure 11
0001
0000
0000
0001
0000
0000
0001
0000
,  // measure 12
0001
0000
0001
0000
,  // measure 13
0100
0100
0100
0000
,  // measure 14
0100
0000
0100
0000
,  // measure 15
0010
0010
0010
0000
,  // measure 16
0010
0000
0010
0000
,  // measure 17
1000
1000
1000
0000
,  // measure 18
0001
0001
0001
0000
,  // measure 19
1000
0000
0001
0000
,  // measure 20
0100
0000
0010
0000
,  // measure 21
0100
0000
0100
0100
,  // measure 22
0001
0000
0000
0000
,  // measure 23
1000
0000
1000
1000
,  // measure 24
0100
0000
0000
0000
,  // measure 25
0010
0000
0010
0010
,  // measure 26
0001
0000
0001
0000
,  // measure 27
1000
0000
0000
0000
0001
0000
0000
0100
,  // measure 28
0000
0000
0010
0000
,  // measure 29
1000
0000
0001
0000
,  // measure 30
1000
0000
0001
0000
,  // measure 31
0100
0000
0010
0000
,  // measure 32
0100
0000
0010
0000
,  // measure 33
1000
0000
0001
0000
,  // measure 34
0100
0000
0010
0000
,  // measure 35
1000
0000
0000
0000
0001
0000
0000
0100
,  // measure 36
0000
0100
0100
0200
,  // measure 37
0020
0000
0000
0000
,  // measure 38
0330
0000
0000
0010
,  // measure 39
0100
0000
0000
0100
0000
0000
0001
0000
,  // measure 40
0000
0001
0000
0000
1000
0000
0100
0000
,  // measure 41
0010
0000
0000
0001
0000
0000
0000
0000
,  // measure 42
0010
0000
0010
0000
,  // measure 43
0100
0000
0000
1000
0000
0000
0001
0000
,  // measure 44
0000
0100
0000
0100
,  // measure 45
0001
0000
0001
0000
0001
0000
0000
1000
,  // measure 46
0000
0000
0001
0000
,  // measure 47
0100
0000
0010
0000
,  // measure 48
1000
0000
0100
0010
,  // measure 49
0001
0000
1000
0000
,  // measure 50
0001
0000
0100
0010
,  // measure 51
0100
0000
0100
0000
,  // measure 52
0001
0000
0001
0000
,  // measure 53
1000
1000
1000
1000
,  // measure 54
0001
0001
0001
0001
,  // measure 55
0100
0000
0100
0000
,  // measure 56
0010
0000
0000
0000
0010
0000
0000
0100
,  // measure 57
0000
0010
0000
0100
0000
0000
0000
0000
,  // measure 58
0010
0000
1000
0000
,  // measure 59
0001
0000
0000
0000
,  // measure 60
1000
0000
0100
0000
,  // measure 61
1000
0000
0000
0000
0001
0000
0000
1000
,  // measure 62
0000
0000
0001
0000
,  // measure 63
0100
0000
0100
0000
,  // measure 64
0010
0000
0010
1000
,  // measure 65
0001
0000
0000
0000
;
