#TITLE:I Wish (Skazi Remix);
#SUBTITLE:;
#ARTIST:Infected Mushroom;
#TITLETRANSLIT:;
#SUBTITLETRANSLIT:;
#ARTISTTRANSLIT:;
#CREDIT:;
#BANNER:wish.png;
#BACKGROUND:wish-bg.png;
#LYRICSPATH:;
#CDTITLE:;
#MUSIC:wish.ogg;
#OFFSET:0.000;
#SAMPLESTART:47.891;
#SAMPLELENGTH:12.000;
#SELECTABLE:YES;
#BPMS:0.000=145.000;
#STOPS:;
#BGCHANGES:;

//---------------dance-single - Renard----------------
#NOTES:
     dance-single:
     Renard:
     Challenge:
     10:
     0.706,0.743,0.157,0.099,0.588:
0000
0000
0000
0000
,
0000
0000
0000
0000
,
0000
0000
0000
0000
,
0000
0000
0000
0000
,
1000
0001
0000
0101
0000
0000
0000
0000
,
0001
1000
0000
1100
0000
0000
0010
0001
,
1000
0001
0000
0202
0000
0000
0000
0000
,
0000
0000
0000
0000
0000
0000
0000
0303
,
0001
0000
0001
0100
0010
0000
0010
1000
0100
0000
0100
0010
0001
0000
0001
0010
,
0100
0000
0100
1000
0010
0000
0010
0100
0001
0000
0001
0010
0100
0000
0100
1000
,
0001
0000
0001
0100
0010
0000
0010
1000
0100
0000
0100
0010
0001
0000
0001
0010
,
0100
0000
0100
1000
0001
0000
0001
0100
0010
0000
0010
1000
0100
0000
0100
0010
,
0001
0010
1100
0000
0001
0100
1010
0000
,
1000
0100
0011
0000
0100
1000
0101
0000
,
0010
1000
0011
0000
0010
0100
1001
0000
,
0200
0000
0000
0000
0310
0000
0000
2000
3001
0000
0000
0000
0000
0000
0000
0000
,
0100
0000
0010
0000
1000
0100
0010
0001
0100
0000
0010
0000
1000
0100
0010
0001
,
0100
0000
0010
0000
1000
0100
0010
0001
0100
0000
0010
0000
1000
0100
0010
0001
,
1000
0000
1000
0000
0001
0000
0001
0000
0100
0010
1000
0001
0100
0010
1001
0000
,
0100
0000
0010
0000
1000
0000
0001
0000
0100
0000
0100
0000
0100
0000
0000
0100
,
0001
0000
0010
0000
0100
1000
0001
0010
0100
0000
1000
0000
0001
0100
0010
1000
,
0100
0000
0010
0000
0001
0010
0100
1000
0001
0000
0100
0000
0010
1000
0100
0010
,
0001
0000
0010
0000
0100
1000
0001
0100
0010
0000
1000
0000
0001
0010
0100
1000
,
0001
0000
0100
0000
0010
1000
0100
0010
0001
0000
0010
0000
0100
1000
0001
0100
,
0010
0000
1000
0000
0100
0010
0001
0010
0100
0000
1000
0000
0001
0100
0010
1000
,
0100
0000
0010
0000
0100
1000
0010
0100
0001
0000
0100
0000
0010
1000
0100
1000
,
0001
0000
1000
0000
0001
0100
0010
1000
0001
0000
0100
0000
0001
0000
0010
0000
,
0200
0000
2000
0300
0002
0000
3013
0000
,
1000
0000
0000
1000
0001
0000
0100
0000
0000
0000
0001
0000
1000
0000
0100
0000
,
0010
0000
0000
0010
0001
0000
0010
0000
0000
0000
0100
1000
0100
0000
1000
0000
,
0001
0000
0000
0001
0100
0000
0001
0000
0000
0000
0010
0000
0100
0000
1000
0000
,
0010
0000
0000
0010
0100
0000
0001
0000
0000
0000
0010
0001
0010
0000
0100
0000
,
1000
0000
0000
1000
0001
0000
0100
0000
0000
0000
0010
0000
1000
0000
0100
0000
,
0010
0000
0000
0010
0001
0000
1000
0000
0000
0000
0001
0100
0001
0000
0100
0000
,
0010
0000
0000
0010
1000
0000
0100
0000
0010
0000
0001
0000
0010
0000
0100
0000
,
2002
0000
0000
0000
0000
0000
0000
3003
,
0100
0000
0001
0000
1000
0000
0100
0000
0010
0000
0001
0000
0010
0100
1000
0001
,
0010
0100
1000
0001
0100
0010
1000
0010
,
0100
0000
0001
0000
0010
0000
0100
0000
1000
0000
0100
0000
0010
0001
0010
0001
,
0010
0000
0100
0000
0000
1000
0000
0000
0001
0000
0000
0001
0100
0000
0010
0000
,
1000
0000
0000
0000
0100
0000
0010
0000
0001
0000
0010
0000
0100
1000
0100
1000
,
0000
0000
0001
0010
0000
0000
0001
1000
0000
0000
0001
0100
0000
0000
0010
0100
,
0010
0000
1000
0100
0010
0001
0010
0100
,
1000
0001
0011
0000
1011
0000
0000
0000
,
1000
0000
0010
0000
0100
0000
0001
0000
0010
0000
0100
0000
0010
0100
0010
0000
,
0100
0000
1000
0000
0010
0000
0100
0000
0001
0000
0010
0000
0001
0010
0001
0000
,
1000
0100
1000
0000
0000
0001
0000
0000
0100
0000
0000
0010
0000
0000
1000
0000
,
0100
0000
0010
0000
0001
0000
0010
0000
0100
0000
0000
0100
1000
0000
0001
0000
,
0100
0000
0000
0100
0010
0000
1000
0000
0100
0000
0010
0000
0001
1000
0001
0000
,
1000
0000
0001
0100
0001
0000
0100
0000
0010
0000
1000
0000
0100
0000
0010
0000
,
0001
0000
0010
0100
1000
0001
1000
0010
,
0200
0000
0000
0000
0301
0000
0001
0100
0001
0000
0110
0000
1001
0000
0110
0000
,
0010
1000
0010
1000
0001
0100
0001
0100
0001
0010
0001
0010
0100
0010
0100
0010
,
0100
1000
0010
0100
0001
0010
0100
1000
,
0001
0100
0001
0100
0010
1000
0010
1000
0100
1000
0100
1000
0001
0010
0001
0010
,
0001
1000
0010
0100
0001
0010
0000
0110
,
0000
0100
1000
0001
0100
0010
1000
0100
,
1000
0001
1000
0001
0100
0010
0100
0010
1000
0010
1000
0010
0100
0001
0100
0001
,
1000
0100
0010
0001
0010
0100
1000
0001
,
0100
0000
0001
0000
1000
0100
0010
0001
0000
0000
0000
0000
1000
0100
0010
0001
,
1000
0000
0100
0000
0000
0010
0000
0000
0001
0000
0000
1000
0001
0100
0001
0100
,
0000
0000
0001
0000
1000
0000
0100
0000
0010
0000
0001
0000
1000
0001
1000
0001
,
1000
0100
1000
0100
0010
0001
0010
0001
1000
0001
1000
0001
0100
0001
0100
0001
,
0100
0000
0000
0100
0010
0000
1000
0000
0100
0000
0010
0000
0000
0000
1001
0000
,
0000
0000
0001
0000
0100
0000
0010
0000
1000
0000
0100
0000
0010
0100
0010
0100
,
0000
0000
1000
0000
0010
0000
0100
0000
0001
0000
0010
0000
0001
0100
0001
0100
,
0010
1000
0010
1000
0001
0100
0001
0100
0001
0010
0001
0010
0100
1000
0100
1000
,
0001
0100
0010
1000
0100
0010
0001
1000
,
0220
0000
0000
0000
,
0330
0000
0000
0000
;

//---------------dance-single - Renard----------------
#NOTES:
     dance-single:
     Renard:
     Hard:
     9:
     0.571,0.591,0.182,0.075,0.203:
0000
0000
0000
0000
,
0000
0000
0000
0000
,
0000
0000
0000
0000
,
0000
0000
0000
0000
,
0001
0010
0000
0110
0000
0000
0000
0000
,
0100
1000
0000
0110
0000
0000
0001
0010
,
0100
1000
0000
0220
0000
0000
0000
0000
,
0000
0000
0000
0000
0000
0000
0000
0330
,
0010
1000
0100
0010
0001
0100
0010
1000
,
0100
0000
0010
0000
0001
0000
0100
0000
0010
0000
1000
0000
0100
0000
0010
0001
,
0010
0100
1000
0001
0100
0010
1000
0100
,
0010
0000
0001
0000
1000
0000
0001
0000
0100
0000
0010
0100
0010
0000
0100
0000
,
1000
0010
0100
0001
0010
0100
0010
0001
,
1000
0100
0010
0100
1000
0010
0100
0001
,
0010
0100
1000
0001
0100
0010
1000
0001
,
0100
0000
0000
0000
1001
0000
0000
1000
0001
0000
0000
0000
0000
0000
0000
0000
,
0010
0000
0010
0000
0100
0001
0100
0000
0010
0000
0010
0000
0100
0001
0100
0000
,
0010
0000
0010
0000
0100
0001
0100
0000
0010
0000
0010
0000
0100
0001
0100
0000
,
0010
0000
0010
0000
0100
0001
0100
0000
0010
0000
0010
0000
0100
0001
0100
0000
,
0010
0000
1000
0000
0100
0000
0010
0000
0001
0000
0010
0000
0001
0000
0000
0010
,
0001
0000
0100
0000
0010
1000
0010
0000
1000
0000
0100
0000
0010
0000
0001
0000
,
1000
0000
0100
0000
0010
0001
0010
0000
0100
0000
1000
0000
0001
0000
0100
0000
,
0010
0000
1000
0000
0001
1000
0001
0000
1000
0000
0100
0000
0010
0000
0001
0000
,
1000
0000
0010
0000
0100
0010
0100
0000
0010
0000
1000
0000
0001
1000
0001
0000
,
1000
0000
0100
0000
0010
0001
0010
0000
0100
0000
1000
0000
0001
0100
0001
0000
,
0100
0000
0010
0000
1000
0100
1000
0000
0100
0000
0010
0000
0001
0010
0001
0000
,
1000
0000
0010
0000
0100
0010
0100
0000
0010
0000
1000
0000
0100
0000
0010
0000
,
0002
0200
0020
1333
,
0001
0000
0000
0001
0100
0000
0010
0000
1000
0000
0000
1000
0100
0000
0010
0000
,
0001
1000
0001
0100
0000
0010
1000
0100
,
0010
0001
0010
0100
0000
0100
1000
0010
,
0100
0001
1000
0001
0000
0100
0010
1000
,
0100
0010
0001
1000
0000
0000
0001
0100
,
0010
1000
0100
0010
0000
0010
0100
1000
,
0001
0100
0010
1000
0000
0100
0010
0000
,
2002
0000
0000
3003
,
0001
0000
0000
0000
0100
0000
0010
0000
1000
0000
0000
0000
0100
0010
0100
0000
,
0010
0100
1000
0010
0100
0001
0010
0001
,
1000
0000
0000
0000
0001
0000
0100
0000
0010
0000
0000
0000
1000
0100
1000
0000
,
0001
0010
0100
1000
0001
0000
0110
0000
,
1001
0000
0000
0000
1000
0000
0100
0000
0010
0000
0001
0000
1000
0001
1000
0000
,
0001
0100
0010
1000
0100
0010
0001
0010
,
0100
0000
1000
0010
0100
0001
0000
1001
,
0110
0000
1001
0000
,
1000
0000
0100
0000
0010
0000
0001
0000
0010
0000
0100
0000
1000
0100
1000
0000
,
0001
0000
0010
0000
0100
0000
1000
0000
0100
0000
0010
0000
0001
0010
0001
0000
,
0010
0000
0100
0000
1000
0000
0001
0000
0010
0000
0100
0000
1000
0100
1000
0000
,
0100
0010
0001
1000
0010
0000
0001
1000
,
0100
0000
0010
0000
0000
0000
0011
0000
0000
0000
0010
0000
0100
1000
0100
0000
,
0010
0001
1000
0010
0100
0001
1000
0100
,
0010
0000
0010
0001
1000
0010
0000
0100
,
1001
0000
0000
0000
0010
0000
0100
0001
0000
0000
1000
0000
0100
0000
0010
0000
,
0001
0000
0000
0000
0001
0000
0000
1000
0010
0000
0100
0000
0001
0000
0010
0000
,
0100
0000
0000
0000
1000
0000
0000
0010
0100
0000
0001
0000
1000
0000
0000
0000
,
0100
0000
0000
0000
0010
0000
0000
0001
1000
0000
0010
0000
0100
0000
0001
0000
,
0010
0000
0100
1000
0001
0100
0000
1010
,
0000
0101
0000
1001
0000
1000
0100
0010
,
0001
0000
0000
0000
0010
0000
0100
0000
1000
0000
0001
0000
0100
0001
0100
0000
,
0001
0000
0000
0000
0100
0000
0000
0010
1000
0000
0100
0000
0010
0000
0002
0000
,
0020
0000
0000
0000
0000
0000
0000
0000
0000
0000
0033
0000
1000
0100
1000
0100
,
0010
0000
0001
0000
0000
0100
0000
0000
0010
0000
0000
1000
0000
0000
0100
0000
,
0010
0000
0001
0000
1000
0000
0010
0000
0100
0000
0001
0000
0010
0000
0000
0010
,
0100
0000
0000
0100
1000
0000
0000
1000
0001
0000
0000
0001
0100
0000
0000
0100
,
0010
0000
1000
0100
0010
0001
0000
1001
,
0000
0000
0110
0000
0000
1001
0000
0000
0110
0000
0000
1010
0000
0000
0101
0000
,
0000
0000
1000
0000
0100
0000
0010
0000
0001
0000
0000
0000
0100
0010
0000
0010
,
0100
1000
0010
0100
0001
1000
0001
0100
,
0010
0000
0010
0000
0010
0000
0000
1000
0100
0000
0010
0000
0001
0000
1000
0000
,
0110
0000
0000
0000
;

//---------------dance-single - Renard----------------
#NOTES:
     dance-single:
     Renard:
     Medium:
     5:
     0.308,0.338,0.041,0.066,0.000:
0000
0000
0000
0000
,
0000
0000
0000
0000
,
0000
0000
0000
0000
,
0000
0000
0000
0000
,
1000
0001
0000
0100
0000
0000
0000
0000
,
0010
1000
0000
0001
0000
0000
0100
0001
,
0100
0001
0000
1000
0000
0000
0000
0000
,
0000
0000
0000
0000
,
0100
0000
0100
0000
0100
0010
0001
1000
,
0001
0001
0100
0000
,
0010
0000
0010
0000
1000
0001
0100
0010
,
1000
1000
0001
0000
,
1000
0000
0100
0000
0010
0001
0010
0100
,
1000
0001
0100
0000
,
0001
0000
1000
0000
0001
0100
0001
1000
,
0100
0000
1001
0000
,
0001
0001
0100
0100
,
0001
0001
1000
1000
,
0001
1000
0001
1000
0001
1000
0010
0100
,
0001
0000
0000
0000
0000
1000
1000
0000
,
0001
0100
0010
0000
1000
0010
0100
0000
,
0001
0100
0010
0000
1000
0000
0000
0000
,
0001
0100
0010
0000
1000
0010
0100
0000
,
0001
0100
0010
0000
1000
0000
0000
0000
,
1000
0100
0010
0000
0001
0010
0100
0000
,
1000
0100
0010
0000
0001
0000
0000
0000
,
0010
0100
1000
0000
0001
0010
0100
0000
,
0020
0000
0032
0000
,
1003
0000
1000
0000
,
0001
0000
0000
0000
0001
0000
0100
0010
,
0100
0000
0100
0000
,
0010
0000
0000
0000
0010
0000
1000
0010
,
1000
0000
0001
0000
,
0100
0000
0001
0000
,
0010
0100
1000
0001
,
0100
0010
2000
0000
,
3001
0000
0100
0000
0001
0000
1000
0100
,
0010
0001
1000
0001
,
0100
0000
0010
0000
1000
0000
0100
1000
,
0001
0100
0001
0010
,
0100
0000
1000
0000
0001
0000
0100
0010
,
1000
0001
0100
0010
,
2000
0000
3200
0000
,
0320
0000
0000
0031
,
0001
0010
0100
1000
,
0001
0001
1000
1000
,
0010
0100
0001
1000
,
0001
0000
0100
0010
0100
0000
1001
0000
,
0110
0000
0010
0000
,
1000
0000
0100
0000
0010
0000
0001
1000
,
0001
0000
0000
0000
0100
0010
0000
2000
,
0000
0000
0001
0010
,
0200
0000
0000
3300
0000
0000
0000
0000
,
1000
0000
0100
0000
0010
0001
0010
0000
,
1001
0000
0000
0000
,
0001
0000
0100
0000
0010
1000
0000
0100
,
0000
1000
0000
0001
0000
0100
0001
0000
,
1000
0100
0010
0001
,
1000
0000
0010
0000
0100
0000
0001
0010
,
0001
0000
0000
0000
,
0010
0010
0100
0100
,
1000
0001
0100
0010
,
1000
1000
0001
0001
,
0010
0100
1000
0001
,
0100
0000
0001
0000
0010
0000
0100
0010
,
0000
0100
0000
1000
0010
0000
0100
0000
,
0001
0000
0010
0000
0001
1000
0000
0001
,
0000
0100
0010
1000
,
1001
0000
0000
0000
;

//---------------dance-single - Renard----------------
#NOTES:
     dance-single:
     Renard:
     Easy:
     2:
     0.202,0.253,0.008,0.041,0.000: // measure 1
0000
0000
0000
0000
,  // measure 2
0000
0000
0000
0000
,  // measure 3
0000
0000
0000
0000
,  // measure 4
0000
0000
0000
0000
,  // measure 5
1000
0000
0000
0000
,  // measure 6
0001
0000
0000
0100
,  // measure 7
0010
0000
0000
0000
,  // measure 8
0000
0000
0000
0000
,  // measure 9
0010
0010
0000
0010
,  // measure 10
0100
0100
0000
0100
,  // measure 11
0001
0001
0000
0001
,  // measure 12
1000
1000
0000
1000
,  // measure 13
0001
0100
0001
0100
,  // measure 14
0001
0100
0001
0100
,  // measure 15
0001
1000
0001
0010
,  // measure 16
0001
0000
1000
0000
,  // measure 17
0001
0001
1000
1000
,  // measure 18
0001
0001
1000
1000
,  // measure 19
0001
1000
0001
1000
,  // measure 20
0020
0000
0000
0030
,  // measure 21
0100
0000
0100
0001
,  // measure 22
0010
0000
0100
1000
,  // measure 23
0010
0000
0100
0001
,  // measure 24
1000
0100
0010
0001
,  // measure 25
1000
0000
0001
0100
,  // measure 26
0010
0000
1000
0100
,  // measure 27
0010
0000
0001
1000
,  // measure 28
0002
0000
0203
0000
,  // measure 29
0310
0000
0010
0000
,  // measure 30
1000
0000
1000
0001
,  // measure 31
0100
0000
0100
0000
,  // measure 32
0001
0000
0001
0010
,  // measure 33
0100
0000
0100
0000
,  // measure 34
1000
0000
1000
0010
,  // measure 35
0100
0000
0100
0000
,  // measure 36
0001
0000
0000
0000
,  // measure 37
0010
0000
0010
0000
,  // measure 38
0001
0000
1000
0001
,  // measure 39
0100
0000
0100
0000
,  // measure 40
0010
1000
0100
1000
,  // measure 41
0001
0000
0001
0000
,  // measure 42
0100
0000
0100
0010
,  // measure 43
1000
0000
0001
0000
,  // measure 44
0100
0000
0010
0000
,  // measure 45
0100
0000
0001
0000
,  // measure 46
1000
0100
0010
0001
,  // measure 47
1000
0001
0200
0000
,  // measure 48
0310
1000
0001
0100
,  // measure 49
0001
0000
0001
0000
,  // measure 50
1000
0000
1000
0000
,  // measure 51
0001
0000
0001
0000
,  // measure 52
0200
0000
0000
0000
,  // measure 53
0310
0000
0010
1000
,  // measure 54
0100
0000
0100
0000
,  // measure 55
0010
0000
0010
0000
,  // measure 56
0001
1000
0001
0100
,  // measure 57
0010
0000
0010
0000
,  // measure 58
1000
0000
1000
0000
,  // measure 59
0001
0000
0100
0000
,  // measure 60
0010
0000
0000
0000
,  // measure 61
1000
0000
1000
0000
,  // measure 62
0001
0100
0010
0000
,  // measure 63
0100
0000
0100
0000
,  // measure 64
0001
0010
0001
1000
,  // measure 65
0001
0000
0001
0000
,  // measure 66
0100
0000
0100
0010
,  // measure 67
1000
0000
0001
0000
,  // measure 68
0100
0000
0001
0010
,  // measure 69
1001
0000
0000
0000
;
