#TITLE:Hyperbass Anthem;
#SUBTITLE:;
#ARTIST:Hyperbass;
#TITLETRANSLIT:;
#SUBTITLETRANSLIT:;
#ARTISTTRANSLIT:;
#CREDIT:;
#BANNER:hyperbass.png;
#BACKGROUND:hyperbass-bg.png;
#LYRICSPATH:;
#CDTITLE:;
#MUSIC:hyperbass.ogg;
#OFFSET:0.000;
#SAMPLESTART:33.868;
#SAMPLELENGTH:12.000;
#SELECTABLE:YES;
#BPMS:0.000=160.000,60.000=190.000;
#STOPS:;
#BGCHANGES:;

//---------------dance-single - Renard----------------
#NOTES:
     dance-single:
     Renard:
     Challenge:
     10:
     0.916,0.976,1.000,0.023,0.190:
0000
0000
0000
0000
,
0000
0000
0000
0000
,
0000
0000
0000
0000
,
0000
0000
0000
0000
,
0001
1000
0100
1000
0010
0100
0001
0000
,
1001
0001
0100
0010
1000
0100
1000
0000
,
0001
0010
0100
1000
0010
0100
0001
0000
,
0101
0100
0010
1000
0100
1000
0001
0000
,
1000
0000
0001
0000
0100
0000
0010
1000
0000
0010
1000
0000
0001
0000
1000
0000
,
0100
0000
0010
0000
0001
0000
1000
0100
1000
0000
0001
0000
1000
0000
0001
0000
,
0100
0000
0010
1000
0010
0000
1000
0100
0000
1000
0001
0000
0010
0000
0001
0000
,
1000
0000
0001
0100
0001
0000
0100
0010
0000
1000
0001
0000
1000
0000
0100
0000
,
0010
0000
0001
0010
0001
0000
0010
0100
0000
1000
0001
0000
0100
0000
0010
0000
,
1000
0000
0001
0100
0001
0000
0100
0001
0000
1000
0100
0000
1000
0000
0001
0000
,
0010
0000
0001
0010
0001
0000
1000
0100
0000
1000
0001
0000
1000
0000
0001
0000
,
2002
0000
0000
0000
0000
0000
0000
3003
,
0011
0010
0000
0110
0000
1100
0000
1010
,
0000
1001
0000
0101
0100
0110
0010
1010
,
1000
1001
0000
1100
0000
1001
0000
0011
,
0000
0110
0000
1100
1100
0000
1010
0000
,
1001
1001
0000
1100
0000
1001
0000
1010
,
0000
1001
0000
1100
0100
0110
0010
0011
,
0011
0110
0000
0110
0000
1100
0000
1001
,
0000
0101
0000
0101
0110
1100
0110
0000
,
0001
0100
0001
0000
0100
0000
0010
0100
0010
0000
0100
0000
0010
1000
0010
0000
,
1000
0000
0100
1000
0100
0000
1000
0000
0001
0000
0010
0000
0100
0000
0000
0000
,
1000
0100
1000
0000
0100
0000
0010
0100
0010
0000
0100
0000
0010
0001
0010
0000
,
0001
0000
0010
0100
1000
0000
0100
0000
1000
0000
0001
0000
1000
0000
0000
0000
,
0001
0100
0001
0000
0100
0000
0010
0100
0010
0000
0100
0000
0010
1000
0010
0000
,
1000
0000
0100
1000
0100
0000
1000
0000
0001
0000
0010
0000
0100
0000
0000
0000
,
1000
0100
1000
0000
0100
0000
1000
0001
1000
0000
0001
0000
1000
0000
1001
0000
,
0001
0000
0100
0001
0100
0000
0001
0000
0100
0000
0010
0000
1000
0000
0000
0000
,
1001
0000
0001
0101
0000
0100
0110
0000
,
1010
0000
1000
1100
0000
0100
0110
0000
,
0011
0000
0010
0110
0000
0100
1100
0000
,
1010
0000
0010
0110
0000
0100
0101
0000
,
1001
0000
1000
1100
0000
1000
1010
0000
,
0110
0000
0100
0101
0000
0001
1001
0000
,
1100
0000
1000
1001
0000
0001
0011
0000
,
0011
0000
0010
0110
0000
0100
1100
0000
,
1100
0010
0001
0101
0010
1000
1100
1000
,
1001
0001
0100
0110
0010
1000
1001
1000
,
1100
0010
0001
0101
0010
1000
0101
0010
,
1100
0010
0001
1100
0010
0100
1010
0100
,
0101
0010
1000
1010
1000
0001
0101
0001
,
0110
1000
0010
0101
0010
1000
0101
0010
,
0110
0100
0001
1010
1000
0100
0011
0100
,
1010
0100
0001
0101
0100
0010
1010
0000
,
0101
0101
0000
0110
0000
1010
0000
1100
,
0000
0011
0000
0011
0010
0100
1000
0010
,
0110
0101
0000
0100
0000
1010
0000
1001
,
0000
1100
0000
0011
0010
0000
0100
0000
,
1000
0010
0000
1010
0000
1001
0000
1100
,
0000
1001
0000
1010
0010
0000
0110
0000
,
0101
0100
0000
0110
0000
1001
0000
1100
,
0000
0011
0000
1100
1001
0000
1010
0000
,
1010
0101
0010
1100
0010
1100
0010
0011
,
0010
0011
0001
0101
0110
0010
1010
1000
,
1001
1100
0010
0011
0001
0101
0100
0110
,
0010
1010
1000
1001
0101
0001
1100
0010
,
0011
0011
0001
1100
1000
1010
0010
0110
,
0100
0101
0001
1010
0101
0001
0011
0010
,
0110
1100
1000
1010
1000
0101
0010
0011
;

//---------------dance-single - Renard----------------
#NOTES:
     dance-single:
     Renard:
     Hard:
     8:
     0.647,0.614,0.333,0.011,0.000:
0000
0000
0000
0000
,
0000
0000
0000
0000
,
0000
0000
0000
0000
,
0000
0000
0000
0000
,
0001
0010
0001
0100
0001
0100
0001
1000
,
0100
1000
0100
1000
0001
1000
0010
1000
,
0001
0100
0001
0100
0001
0010
0001
1000
,
0100
1000
0100
1000
0010
1000
0001
1000
,
0100
1000
0100
0010
0001
0010
0001
1000
,
0001
0100
0001
1000
0010
1000
0100
1000
,
0001
0010
0001
1000
0010
1000
0001
0100
,
0001
1000
0100
1000
0001
0010
0001
1000
,
0010
1000
0001
0100
0001
1000
0100
1000
,
0001
0010
0001
1000
0010
1000
0001
0100
,
0001
1000
0100
1000
0001
0010
0001
1000
,
0020
0000
0000
0000
,
0130
0001
0000
0101
0000
1001
0000
1100
,
0000
1001
0000
1000
0100
0010
0001
1000
,
0010
0100
0000
0110
0000
1010
0000
0101
,
0000
1001
0000
1000
0100
0010
0001
1000
,
0010
0100
0000
0101
0000
0110
0000
1100
,
0000
0110
0000
0100
0001
0010
0100
1000
,
0001
1000
0000
1100
0000
0110
0000
0101
,
0000
0110
0000
0100
1000
0010
0100
0001
,
1000
0010
0000
0010
0000
0100
0000
0001
,
0010
0100
1000
0100
0010
0001
1000
0010
,
0100
0001
0000
0100
0000
0010
0000
1000
,
0100
0010
0001
0010
0100
1000
0001
0100
,
0010
1000
0000
0001
0000
0100
0000
0001
,
1000
0100
0010
0100
1000
0001
0010
0100
,
0010
0001
0000
1000
0000
0010
0000
0100
,
0000
0001
1000
0100
0010
0001
0010
0100
,
1000
0000
1000
0001
0000
0001
0100
0000
,
0110
0000
0010
1000
0000
1000
0100
0000
,
0110
0000
0010
0001
0000
1000
0010
0000
,
0110
0000
0100
0001
0000
0010
0100
0000
,
0110
0000
0100
1000
0000
0010
0100
0000
,
0101
0000
0100
0010
0000
1000
0100
0000
,
0110
0000
0010
0001
0000
1000
0010
0000
,
0110
0000
0100
0001
0000
1000
0100
0000
,
0010
0001
0000
0011
0000
0010
0000
0100
,
1000
0010
0000
0110
0000
0100
0000
0001
,
0010
0100
0000
0110
0000
0100
0000
1000
,
0010
0100
0000
0001
1000
0100
0000
0010
,
0001
1000
0000
1001
0000
0001
0000
0100
,
0010
1000
0000
1001
0000
1000
0000
0100
,
0010
0001
0000
1001
0000
0001
0000
0100
,
0010
1000
0000
0100
0010
0001
0000
0010
,
0100
1000
0000
0010
0000
0100
0000
0001
,
0000
0100
0000
0010
1000
0100
0010
0001
,
0010
0100
0000
1000
0000
0010
0000
0100
,
0000
0001
0000
0100
0010
1000
0100
1000
,
0001
0010
0000
0001
0000
1000
0000
0010
,
0000
0100
0000
0001
1000
0100
1000
0001
,
0010
0001
0000
1000
0000
0010
0000
0100
,
0000
0001
0100
0010
1000
0100
0010
0001
,
1000
0100
1000
0100
1000
0001
1000
0001
,
1000
0010
1000
0001
0100
0010
1000
0100
,
0010
0001
1000
0001
1000
0001
0100
0001
,
0100
0001
0010
0001
0010
0100
1000
0001
,
0100
0010
0100
0010
0100
0001
0100
0001
,
1000
0100
1000
0001
1000
0100
0010
0001
,
0010
0100
0000
1000
0000
0010
0000
0100
;

//---------------dance-single - Renard----------------
#NOTES:
     dance-single:
     Renard:
     Medium:
     6:
     0.419,0.398,0.000,0.011,0.000:
0000
0000
0000
0000
,
0000
0000
0000
0000
,
0000
0000
0000
0000
,
0000
0000
0000
0000
,
1000
0000
1000
0010
0000
0010
0100
0000
,
0001
0000
0001
0010
0000
0010
0100
0000
,
1000
0000
1000
0010
0000
0010
0100
0000
,
0001
0000
0001
0010
0000
0010
0100
0000
,
1000
0100
1000
0000
0001
0000
1000
0000
,
0001
0100
0001
0000
1000
0000
0001
0000
,
0010
0001
0010
0000
0001
0000
1000
0000
,
0010
0100
0010
0000
0100
0000
0001
0000
,
1000
0100
1000
0000
0001
0000
0010
0000
,
0001
1000
0001
0000
1000
0000
0010
0000
,
0100
0001
1000
0000
0100
0000
0010
0000
,
0002
0000
0000
0000
,
1003
0001
0000
0100
0000
0010
0000
1000
,
0000
0100
0000
0010
0001
0000
1000
0000
,
0001
0100
0000
0001
0000
1000
0000
0100
,
0000
0010
0000
0001
1000
0000
0001
0000
,
0100
0010
0000
1000
0000
0100
0000
0010
,
0000
0001
0000
1000
0010
0000
1000
0000
,
0010
0100
0000
0001
0000
1000
0000
0100
,
0000
0010
0000
0001
1000
0000
0001
0000
,
0100
0010
0000
1000
0000
0001
0000
0100
,
0000
0010
0000
1000
0100
0000
0010
0000
,
0001
1000
0000
0010
0000
0100
0000
0001
,
0000
1000
0000
0100
0010
0000
0001
0000
,
1000
0010
0000
0100
0000
0001
0000
0100
,
0000
0010
0000
1000
0001
0000
0010
0000
,
0100
1000
0000
0001
0000
0010
0000
0001
,
0000
1000
0000
0010
0100
0000
0001
0000
,
0100
0000
0000
0010
0000
0000
1000
0000
,
0010
0000
0000
0100
0000
0000
0001
0000
,
0010
0000
0000
0100
0000
0000
1000
0000
,
0001
0000
0000
0010
0000
0000
0100
0000
,
0010
0000
0000
0001
0000
0000
1000
0000
,
0010
0000
0000
0100
0000
0000
0001
0000
,
1000
0000
0000
0100
0000
0000
0010
0000
,
0001
0001
1000
1000
,
0001
0000
0001
0100
0000
0000
0001
0000
,
1000
0000
1000
0100
0000
0000
1000
0000
,
0001
0000
0001
0010
0000
0000
0001
0000
,
1000
0000
1000
0010
0000
0000
1000
0000
,
0001
0000
0001
0100
0000
0000
0001
0000
,
1000
0000
1000
0100
0000
0000
1000
0000
,
0001
0000
0001
0010
0000
0000
0001
0000
,
1000
0000
1000
0010
0000
0010
1000
0000
,
0010
0100
0000
0010
0000
0100
0000
0010
,
0000
0100
0000
0010
0100
0000
0001
0000
,
1000
0100
0000
1000
0000
0100
0000
1000
,
0000
0100
0000
1000
0100
0000
0010
0000
,
0001
1000
0000
0001
0000
1000
0000
0001
,
0000
1000
0000
0001
0100
0000
0010
0000
,
1000
0010
0000
1000
0000
0010
0000
0100
,
0000
0001
0000
1000
0100
0000
1000
0000
,
0001
0010
0000
0001
0000
0010
0000
0001
,
0000
1000
0000
0100
1000
0000
0100
0000
,
1000
0010
0000
1000
0000
0010
0000
0100
,
0000
0001
0000
1000
0100
0000
1000
0000
,
0001
0010
0000
0001
0000
1000
0000
0010
,
0000
0100
0000
0001
1000
0000
0001
0000
,
1000
0100
0000
1000
0000
0001
0000
0010
;

//---------------dance-single - Renard----------------
#NOTES:
     dance-single:
     Renard:
     Easy:
     2:
     0.299,0.325,0.000,0.092,0.000: // measure 1
0000
0000
0000
0000
,  // measure 2
0000
0000
0000
0000
,  // measure 3
0000
0000
0000
0000
,  // measure 4
0000
0000
0000
0000
,  // measure 5
2000
0000
0000
0000
,  // measure 6
3020
0000
0000
0000
,  // measure 7
0230
0000
0000
0000
,  // measure 8
0302
0000
0000
0000
,  // measure 9
1003
1000
0100
0100
,  // measure 10
1000
1000
0100
0100
,  // measure 11
0010
0010
0001
0001
,  // measure 12
0010
0010
0001
0001
,  // measure 13
1000
1000
0010
0010
,  // measure 14
1000
1000
0010
0010
,  // measure 15
0100
0100
0001
0001
,  // measure 16
0200
0000
0000
0000
,  // measure 17
0310
0010
0100
0000
,  // measure 18
0010
0010
0100
0000
,  // measure 19
0001
0001
1000
0000
,  // measure 20
0001
0001
1000
0000
,  // measure 21
0100
0100
1000
0010
,  // measure 22
1000
0001
1000
0000
,  // measure 23
0001
0001
1000
0001
,  // measure 24
0100
0001
0010
0001
,  // measure 25
1000
0000
0001
0000
,  // measure 26
0100
0010
0100
0000
,  // measure 27
0010
0000
1000
0000
,  // measure 28
0001
0100
0001
0000
,  // measure 29
1000
0000
0100
0000
,  // measure 30
0010
0001
1000
0000
,  // measure 31
0001
0000
0100
0000
,  // measure 32
0010
1000
0010
0000
,  // measure 33
0100
0000
0100
0000
,  // measure 34
0010
0000
0010
0000
,  // measure 35
0100
0000
0100
0000
,  // measure 36
0010
0000
0010
0000
,  // measure 37
1000
0000
1000
0000
,  // measure 38
0001
0000
0001
0000
,  // measure 39
1000
0000
1000
0000
,  // measure 40
0001
1000
0001
1000
,  // measure 41
0010
0010
0010
0100
,  // measure 42
0010
0010
0010
0100
,  // measure 43
0001
0001
0001
1000
,  // measure 44
0001
0001
0001
1000
,  // measure 45
0100
0100
0100
0010
,  // measure 46
0100
0100
0100
0010
,  // measure 47
0001
0001
0001
1000
,  // measure 48
0001
0001
1000
0001
,  // measure 49
1000
0000
1000
0000
,  // measure 50
2000
0000
0000
0000
,  // measure 51
3001
0000
0001
0000
,  // measure 52
0002
0000
0000
0000
,  // measure 53
0103
0010
0000
0010
,  // measure 54
0100
0010
0000
0010
,  // measure 55
1000
0001
0000
0001
,  // measure 56
2000
0000
0000
0000
,  // measure 57
3001
0100
0001
0100
,  // measure 58
0001
1000
0100
0010
,  // measure 59
0001
1000
0010
0100
,  // measure 60
0001
1000
0100
0010
,  // measure 61
0001
1000
0010
0100
,  // measure 62
0001
1000
0100
0010
,  // measure 63
0001
0000
0000
1000
0000
0001
0000
1000
;
