#TITLE:Hype the Core;
#SUBTITLE:;
#ARTIST:DJ Chucky;
#TITLETRANSLIT:;
#SUBTITLETRANSLIT:;
#ARTISTTRANSLIT:;
#CREDIT:;
#BANNER:hype.png;
#BACKGROUND:hype-bg.png;
#LYRICSPATH:;
#CDTITLE:;
#MUSIC:hype.ogg;
#OFFSET:0.000;
#SAMPLESTART:21.454;
#SAMPLELENGTH:12.000;
#SELECTABLE:YES;
#BPMS:0.000=190.000;
#STOPS:;
#BGCHANGES:;

//---------------dance-single - Renard----------------
#NOTES:
     dance-single:
     Renard:
     Challenge:
     11:
     0.978,0.964,0.410,0.070,0.556:
0000
0000
0000
0000
,
0000
0000
0000
0000
,
0000
0000
0000
0000
0000
0000
0000
0000
0000
0000
0000
0000
0000
0000
0000
1000
,
0001
0000
0101
0000
0110
0000
0010
1000
,
1010
0000
0000
0000
1000
0000
1100
0000
0000
0000
0010
0000
0000
0001
0010
0001
,
0010
0000
1000
0000
0010
0000
1000
0000
0010
0000
1000
0000
0010
0000
1000
0010
,
0100
0000
0000
0000
1100
0000
1000
0000
0000
0000
1010
0000
0010
0000
0100
0010
,
0100
0001
0100
0010
1000
0100
0010
0001
,
1001
0000
0000
0000
0110
0000
1001
0000
0000
0000
0001
1000
0001
0000
0000
0000
,
1100
0010
0001
1000
0100
1000
0001
0010
,
0100
1000
0001
0010
0001
1000
0100
0000
,
0100
1000
0001
0010
0001
1000
0100
0010
,
0100
1000
0001
0010
0100
0010
0001
0000
,
1100
0000
0110
0000
0011
0000
0001
0010
,
0100
1000
0001
0000
1001
0000
0110
0000
,
1010
0000
0101
0000
1001
0000
1000
0100
,
0020
0000
0000
0000
0000
0000
0000
0000
0031
0010
0001
0010
0001
0010
0001
0000
,
1000
0000
0100
1000
0100
0000
0010
0000
0001
0000
0100
0000
0001
0000
0100
0000
,
0010
0000
1000
0010
1000
0000
0001
0000
0010
0000
0001
0000
0200
0000
0000
0000
,
0310
0000
1000
0100
1000
0000
0001
0000
0010
0000
0001
0000
0100
0000
0010
0000
,
1000
0000
0001
0010
0001
0000
0100
0000
0010
0000
1000
0000
0002
0000
0000
0000
,
0103
0000
0001
0100
0001
0000
1000
0000
0100
0000
1000
0000
0010
0000
1000
0000
,
0001
0000
0010
0100
0010
0000
0100
0000
1000
0000
0001
0000
0100
0000
0000
0000
,
0010
0000
1000
0010
1000
0000
0001
0000
0100
0000
0001
0000
0010
0000
0100
0000
,
1000
0000
0001
0100
0001
0000
1000
0000
0100
1000
0100
1000
0100
1000
0100
0000
,
0010
0001
0010
0000
0100
0010
0100
0000
1000
0100
1000
0000
0010
0100
0010
0000
,
0100
0001
0100
0000
0010
1000
0010
0000
1000
0010
1000
0000
0001
0000
0000
0000
,
0100
0010
0100
0000
0010
1000
0010
0000
1000
0100
1000
0000
0100
0010
0100
0000
,
0010
0001
0010
0000
0100
0010
0100
0000
1000
0001
1000
0000
0010
0000
0000
0000
,
0100
0010
0100
0000
0001
0100
0001
0000
0100
0010
1000
0000
0010
1000
0010
0000
,
1000
0100
1000
0000
0100
0010
0100
0000
0010
0001
0010
0000
0100
0000
0000
0000
,
1000
0100
1000
0000
0001
1000
0001
0000
1000
0010
1000
0000
0010
0100
0010
0000
,
0200
0000
0000
0000
0000
0000
0000
0000
0301
0100
0010
1000
0010
0100
0001
1000
,
0001
0100
0010
1000
0010
0100
0001
0010
,
0100
0000
1000
0000
0001
0000
0010
0000
0001
0000
1000
0000
0010
0000
0100
0010
,
0100
0010
1000
0100
0010
0001
0010
0100
,
1000
0000
0001
0000
0100
0000
0010
0000
1000
0000
0001
0000
1000
0100
1000
0100
,
1000
0100
0010
0001
0010
0100
1000
0001
,
0100
0000
0010
0000
1000
0000
0010
0000
0100
0000
0001
0000
0100
0000
0010
0100
,
0010
1000
0100
0010
0001
0010
0100
1000
,
0001
0000
1000
0000
0010
0000
0100
0000
0001
0000
0100
0000
0010
0100
0010
0100
,
0010
1000
0010
0100
0001
0100
0010
1000
,
0100
0000
0010
0000
0001
0000
0010
0000
0100
0000
1000
0000
0100
1000
0100
1000
,
0100
1000
0010
0100
0001
0100
0010
1000
,
0001
0100
0010
1000
1010
0000
0101
0000
,
1001
0000
0000
0000
1000
0000
0100
0010
0001
0000
0010
0100
1000
0000
0001
1000
,
0010
1000
0001
0100
0010
1000
1010
0000
,
0010
0000
0100
0001
0100
0000
0010
1000
0010
0000
1000
0100
1000
0000
0100
0010
,
0100
0010
0001
1000
0100
1000
0001
0100
,
0110
0000
0100
0001
0100
0010
1000
0100
,
1100
0000
0100
0010
0001
0010
0100
0010
,
0110
0000
0100
1000
0010
0100
0001
0100
,
0101
0000
0000
0000
0100
0000
0010
0000
1000
0000
0010
0000
1000
0001
1000
0001
,
1001
0000
1010
0000
0101
0000
0100
0010
,
1000
0010
1010
0000
1000
0100
0010
0001
,
0010
0000
0100
0000
0110
0000
0100
1000
,
2020
0000
3030
0000
,
0001
0100
0010
0000
1000
0010
0100
0000
0001
0100
0010
0000
1000
0000
0100
0000
,
0010
0001
0010
0000
0100
1000
0001
0000
1000
0010
1000
0000
0001
0000
0100
0000
,
0010
1000
0010
0000
1000
0001
0100
0000
0010
0100
0010
0000
1000
0000
0100
0000
,
0010
0001
0010
0000
0100
1000
0001
0000
0010
0000
0100
0000
1000
0000
0000
0000
,
0001
0100
0010
0000
1000
0010
0100
0000
0001
0100
0010
0000
1000
0000
0100
0000
,
0010
0001
0010
0000
0100
1000
0001
0000
1000
0010
0100
0000
0001
0000
0100
0000
,
0010
1000
0100
0000
1000
0001
0010
0000
0100
0010
0100
0000
1000
0000
0001
0000
,
0100
0010
0100
0000
0010
1000
0010
0000
0100
0000
0001
0000
0100
0000
0000
0000
,
0010
1000
0100
0000
0010
0001
0010
0000
0100
1000
0001
0000
0010
0000
0100
0000
,
1000
0001
0100
0000
0010
1000
0010
0000
0100
0001
0100
0000
0010
0000
1000
0000
,
0100
0010
0001
0000
0010
0100
1000
0000
0001
0100
0010
0000
1000
0000
0010
0000
,
0100
0001
0100
0000
0010
1000
0100
0000
0010
0001
0010
0000
0100
0000
0010
0000
,
0001
0010
0100
0000
0010
0100
1000
0000
0100
0000
1000
0000
0010
0000
0100
0000
,
0001
0100
0010
0000
0100
0010
1000
0000
0010
0000
0100
0000
0001
0000
0100
0000
,
0010
1000
0010
0000
0100
0001
0100
0000
0010
1000
0010
0000
1000
0000
0100
0000
,
0010
0001
0010
0001
0010
0001
0010
0001
0020
0000
0000
0000
0000
0000
0000
0030
,
1001
0000
0101
0000
0110
0000
1010
1000
,
0100
0010
0011
0000
0010
0100
1000
0001
,
1001
0000
1010
0000
0110
0000
0100
0001
,
0100
0010
1000
0100
1000
0100
0010
0001
,
0011
0000
0000
0000
;

//---------------dance-single - Renard----------------
#NOTES:
     dance-single:
     Renard:
     Hard:
     9:
     0.695,0.694,0.120,0.060,0.060:
0000
0000
0000
0000
,
0000
0000
0000
0000
,
0000
0000
0000
0000
,
0000
0000
0000
0000
,
0000
0000
0000
0000
,
0010
0010
0100
0100
,
0001
0000
1000
0100
0000
0010
0001
0000
,
1000
0001
0100
0010
,
1000
0001
0100
0010
0000
1000
0010
0000
,
1000
0010
1000
0010
1000
0100
1000
0100
,
1000
0001
1000
0001
1000
0010
1000
0000
,
0001
1000
0001
1000
0001
0100
0001
0100
,
0001
0010
0001
1000
0001
0100
0001
0000
,
1000
0000
0001
0000
1001
0000
0010
0100
,
0001
1000
0001
0000
1000
0100
0010
0001
,
1000
0000
0001
0000
0101
0000
0001
1000
,
0200
0000
0000
0000
0000
0000
0000
0000
0000
0000
0000
0000
0000
0000
0000
0300
,
1000
0000
0100
1000
0100
0000
1000
0000
0001
0000
0010
0000
0100
0000
1000
0000
,
0001
0100
0010
1000
0100
0010
0001
0000
,
1000
0000
0001
0100
0001
0000
0100
0000
0010
0000
1000
0000
0100
0000
0010
0000
,
0001
0100
0010
1000
0100
1000
0001
0000
,
1000
0000
0001
1000
0001
0000
1000
0000
0001
0000
0100
0000
0010
0000
1000
0000
,
0100
0010
0001
1000
0100
0010
0001
0000
,
1000
0000
0100
1000
0100
0000
1000
0000
0001
0000
0010
0000
0100
0000
1000
0000
,
0001
0100
0010
1000
0020
0000
0000
0030
,
0100
0000
0001
0100
0001
0000
0100
0000
0010
0000
1000
0000
0100
0000
0010
0000
,
0001
0000
1000
0100
1000
0000
0100
0000
1000
0000
0001
0000
0010
0000
0000
0000
,
0001
0000
1000
0010
1000
0000
0010
0000
0100
0000
0001
0000
0010
0000
0100
0000
,
1000
0000
0001
0100
0001
0000
0100
0000
0010
0000
1000
0000
0001
0000
0000
0000
,
1000
0000
0100
0010
0100
0000
0010
0000
0001
0000
0010
0000
0100
0000
1000
0000
,
0001
0000
0100
0001
0100
0000
0010
0000
1000
0000
0100
0000
0010
0000
0000
0000
,
0100
0000
1000
0100
1000
0000
0001
0000
0100
0000
0010
0000
1000
0000
0100
0000
,
0020
0000
0000
0000
,
0031
0000
0001
1000
0000
1000
0010
0000
,
0100
0000
0100
0001
0000
0001
1000
0000
,
0100
0000
0100
0010
0000
0010
0001
0000
,
1000
0000
1000
0010
0000
0010
0100
0000
,
0001
0000
0001
1000
0000
1000
0100
0000
,
0010
0000
0010
0001
0000
0001
1000
0000
,
0010
0000
0010
0100
0000
0100
0001
0000
,
1000
0000
0100
0000
0010
0001
0010
0100
,
1000
0000
0100
0010
0000
0001
1000
0010
,
0100
0001
0010
0000
0110
0000
0110
0000
,
0100
0000
1000
0010
0000
0100
0001
0100
,
0010
1000
0100
0010
0001
0000
1001
0000
,
0001
0000
0100
0010
0000
1000
0100
0010
,
0001
0000
1000
0000
0010
0000
0100
0000
0001
0000
0000
0000
1001
0000
0000
0001
,
1000
0000
0100
0010
0000
0001
0010
0000
,
1001
0000
0010
0100
0001
1000
0100
0000
,
1000
0000
0100
0010
0001
0010
0100
1000
,
0100
0000
0010
0001
0010
0100
1000
0100
,
0010
0000
0001
0010
0100
1000
0100
0010
,
0001
0000
1000
0100
0010
0001
0010
0000
,
0200
0000
1300
0000
1100
0000
1000
0001
,
0010
0001
1000
0000
0001
0100
0010
1000
,
0100
0000
1100
0000
1001
0000
0001
0100
,
0020
0000
0000
0000
,
0130
0001
0100
0010
0100
1000
0100
0010
,
0100
0001
0100
0010
0100
0001
0100
0010
,
0100
0001
0010
0100
0010
1000
0010
0100
,
0010
0001
0010
0100
1000
0001
1000
0000
,
0001
1000
0010
1000
0100
1000
0001
0000
,
0001
1000
0001
0100
0001
0010
0001
0000
,
0001
0100
1000
0100
0001
0010
0100
0010
,
0100
0010
0100
1000
0010
1000
0001
0000
,
1000
0100
0001
0100
1000
0010
0001
0010
,
1000
0100
0001
0100
1000
0010
0001
0010
,
1000
0100
0001
0100
1000
0010
0001
0010
,
1000
0100
0001
0100
1000
0010
0001
0000
,
0001
0010
1000
0100
0001
0100
1000
0010
,
0001
0010
1000
0100
0001
0100
1000
0010
,
0001
0010
1000
0100
0001
0100
1000
0010
,
0100
0100
0001
0001
2000
0000
0000
0000
,
3100
0000
0010
0000
0011
0000
0010
0100
,
1000
0001
0100
0000
0010
1000
0001
0100
,
0010
0000
1000
0000
1010
0000
1000
0100
,
0010
0001
1000
0000
0001
0100
0010
1000
,
0001
0000
0000
0000
;

//---------------dance-single - Renard----------------
#NOTES:
     dance-single:
     Renard:
     Medium:
     6:
     0.453,0.501,0.060,0.130,0.000:
0000
0000
0000
0000
,
0000
0000
0000
0000
,
0000
0000
0000
0000
,
0000
0000
0000
0000
,
0000
0000
0000
0000
,
1000
1000
1000
1000
,
0001
0000
0000
0100
0000
0000
0001
0000
,
1000
1000
1000
1000
,
0100
0000
0000
0010
0000
0000
0001
0000
,
1000
0000
1000
0000
0001
0100
0001
0000
,
1000
0000
1000
0000
0001
0100
0001
0000
,
1000
0000
1000
0000
0001
0100
0001
0000
,
1000
0000
1000
0000
0001
0100
0001
0000
,
0001
0000
0001
0000
1000
0100
1000
0000
,
0001
0000
0001
0000
1000
0100
1000
0000
,
0001
0000
0001
0000
1000
0100
1000
0000
,
0020
0000
0000
0000
,
0130
0000
0001
0000
0100
0010
0100
0000
,
0010
0000
1000
0000
0100
1000
0100
0000
,
1000
0000
0001
0000
0010
0001
0010
0000
,
0001
0000
1000
0000
0010
0100
0010
0000
,
0100
0000
0001
0000
1000
0100
1000
0000
,
0001
0000
0010
0000
0001
1000
0001
0000
,
0100
0000
0010
0000
1000
0001
1000
0000
,
0100
0010
0002
0000
,
1003
0000
0001
0000
0100
0010
0100
0010
,
0100
0010
1000
0001
,
0100
0000
0010
0000
1000
0001
1000
0001
,
1000
0100
0010
0001
,
1000
0000
0010
0000
0100
0010
0100
0010
,
0100
0001
0010
0100
,
1000
0000
0001
0000
0100
0001
0100
0001
,
0200
0000
0000
0000
,
0310
0000
0010
0000
,
0010
0000
0010
0000
,
2000
0000
3002
0000
,
0203
0000
0000
0000
,
0320
0000
0000
0000
,
0000
0000
0000
0000
,
2030
0000
3200
0000
,
0310
0001
1000
0001
,
0100
0000
0100
0001
0000
0001
1000
0000
,
0100
0010
0110
0110
,
0100
0000
0100
1000
0000
1000
0001
0000
,
0100
0010
0110
0110
,
0010
1000
0001
0100
,
0010
1000
0001
1001
,
1000
0100
0010
0001
,
1000
0010
0100
0010
,
1000
1000
0001
0001
,
1000
1000
0001
0001
,
1000
1000
0001
0001
,
1000
1000
0002
0000
,
0103
0000
0100
0000
0010
1000
0010
1000
,
0010
0010
0100
0010
,
0100
0000
0001
0000
0100
0001
0100
0001
,
0200
0000
0000
0000
,
0301
0001
1000
1000
,
0100
0100
0010
0010
,
0001
0001
1000
0100
,
0010
0001
0010
0200
,
1300
0010
0100
0001
,
0100
0010
1000
0001
,
0010
0100
1000
0001
,
0100
0000
0010
0000
1000
0020
0000
0000
,
0130
0000
0001
0000
0100
0010
0100
0010
,
0100
0010
1000
0100
,
0010
0000
0001
0000
1000
0100
1000
0100
,
1000
0001
0010
0001
,
1000
0000
0010
0000
0100
0001
0100
0001
,
0100
0000
0010
0000
1000
0010
1000
0010
,
1000
0000
0100
0000
0010
0001
0010
0001
,
0010
0100
1000
0000
,
0001
0000
0100
0000
0001
0000
1000
0100
,
1000
0100
1000
0000
0001
0000
1000
0000
,
0001
0000
0100
0000
0010
0000
1000
0001
,
0000
0100
0010
0000
1000
0000
0001
0000
,
0110
0000
0000
0000
;

//---------------dance-single - Renard----------------
#NOTES:
     dance-single:
     Renard:
     Easy:
     3:
     0.346,0.385,0.050,0.180,0.000: // measure 1
0000
0000
0000
0000
,  // measure 2
0000
0000
0000
0000
,  // measure 3
0000
0000
0000
0000
,  // measure 4
0000
0000
0000
0000
,  // measure 5
0000
0000
0000
0000
,  // measure 6
1000
0000
1000
0000
,  // measure 7
0001
0001
0001
0000
,  // measure 8
0100
0000
0100
0000
,  // measure 9
0010
0010
0010
0000
,  // measure 10
1000
0010
1000
0010
,  // measure 11
0100
0001
0100
0001
,  // measure 12
1000
0100
1000
0100
,  // measure 13
0010
0001
0010
0001
,  // measure 14
1000
0000
1010
0000
,  // measure 15
0100
0001
0010
0001
,  // measure 16
1000
0000
0101
0000
,  // measure 17
0001
0000
0000
0000
,  // measure 18
0010
0100
0010
0100
,  // measure 19
1000
0100
1000
0000
,  // measure 20
0001
0100
0001
0100
,  // measure 21
0001
0010
0001
0000
,  // measure 22
1000
0100
1000
0010
,  // measure 23
1000
0001
0100
0000
,  // measure 24
0001
1000
0100
1000
,  // measure 25
0001
0010
0002
0000
,  // measure 26
1003
0010
1000
0010
,  // measure 27
0100
0001
0100
0001
,  // measure 28
1000
0001
1000
0001
,  // measure 29
1000
0100
1000
0100
,  // measure 30
0010
0001
0010
0001
,  // measure 31
1000
0010
1000
0010
,  // measure 32
0100
0001
0100
0001
,  // measure 33
2000
0000
0000
0000
,  // measure 34
3200
0000
0000
0000
,  // measure 35
0000
0000
0000
0000
,  // measure 36
0320
0000
0032
0000
,  // measure 37
0000
0000
0000
0000
,  // measure 38
2003
0000
0000
0000
,  // measure 39
0000
0000
0000
0000
,  // measure 40
3020
0000
0230
0000
,  // measure 41
0000
0000
0000
0301
,  // measure 42
0100
0001
0100
0001
,  // measure 43
0100
0100
0010
0010
,  // measure 44
1000
0100
1000
0001
,  // measure 45
1000
0010
0100
0100
,  // measure 46
0010
0100
0001
0010
,  // measure 47
0100
1000
0001
0001
,  // measure 48
0010
0100
1000
0010
,  // measure 49
0100
0001
0100
0100
,  // measure 50
0020
0000
0000
0000
,  // measure 51
2030
0000
0000
0000
,  // measure 52
3200
0000
0320
0000
,  // measure 53
0031
0020
0230
0000
,  // measure 54
2300
0000
3010
0100
,  // measure 55
0001
0200
0000
0000
,  // measure 56
0310
0000
1000
0100
,  // measure 57
0020
0000
0000
0000
,  // measure 58
0031
0001
0010
0010
,  // measure 59
0100
0100
1000
0010
,  // measure 60
0100
0100
0001
0001
,  // measure 61
1000
0100
0010
0000
,  // measure 62
0001
0001
0010
0010
,  // measure 63
0100
0100
1000
1000
,  // measure 64
0010
0100
0001
0100
,  // measure 65
0010
1000
0002
0000
,  // measure 66
1003
1000
0100
1000
,  // measure 67
0100
0100
0010
0100
,  // measure 68
0010
0010
0001
0010
,  // measure 69
0001
0001
1000
0001
,  // measure 70
1000
1000
0100
1000
,  // measure 71
0100
0100
0010
0100
,  // measure 72
0010
0010
0001
0010
,  // measure 73
0001
0000
1000
0000
,  // measure 74
0010
0000
0110
0000
,  // measure 75
0010
0100
0001
1000
,  // measure 76
0100
0000
1100
0000
,  // measure 77
1000
0100
0010
0000
,  // measure 78
0110
0000
0000
0000
;
