#TITLE:How Many Sukkas? (Plus System Remix);
#SUBTITLE:;
#ARTIST:Scott Brown;
#TITLETRANSLIT:;
#SUBTITLETRANSLIT:;
#ARTISTTRANSLIT:;
#CREDIT:;
#BANNER:sukkas.png;
#BACKGROUND:sukkas-bg.png;
#LYRICSPATH:;
#CDTITLE:;
#MUSIC:sukkas.ogg;
#OFFSET:0.000;
#SAMPLESTART:43.290;
#SAMPLELENGTH:12.000;
#SELECTABLE:YES;
#BPMS:0.000=177.410;
#STOPS:;
#BGCHANGES:;

//---------------dance-single - Renard----------------
#NOTES:
     dance-single:
     Renard:
     Challenge:
     11:
     0.843,1.000,0.198,0.000,0.440:
0000
0000
0000
0000
,
0000
0000
0000
0000
,
0000
0000
0000
0000
,
0000
0000
0000
0000
,
0001
0100
0010
1000
0100
0010
0001
0010
0100
1000
0001
0100
0010
1000
0010
0000
,
1000
0010
1000
0000
0001
1000
0001
0000
1000
0100
1000
0000
0001
0010
0001
0000
,
0010
0100
1000
0001
0010
0100
1000
0001
0100
0010
1000
0100
0010
0001
0010
0000
,
0100
0010
0100
0000
1000
0100
1000
0000
0001
1000
0001
1000
0001
1000
0001
0000
,
1000
0100
0010
0001
1000
0000
0001
0000
0100
0000
0010
0000
1000
0000
0100
0000
,
1000
0100
1000
0000
0001
0000
0010
0000
0001
0100
0001
0000
0100
0000
0010
0000
,
1000
0100
0010
0001
1000
0000
0001
0000
0100
0000
0001
0000
0100
0000
0010
0000
,
1000
0010
1000
0000
0100
0000
0010
0000
0001
0100
0001
0000
0010
0000
0100
0000
,
1000
0010
0100
0001
0100
0000
0001
0000
1000
0100
1000
0000
0001
0010
0001
0000
,
0100
0000
0010
0100
0010
0000
0010
0000
0100
0000
0010
0100
0010
0000
0010
0000
,
1000
0100
0010
0001
1000
0000
0001
0000
0100
0000
0001
0000
1000
0100
0010
0000
,
0001
0010
0001
0000
0010
0100
0010
0000
0100
1000
0100
1000
0100
1000
0100
0000
,
1000
0000
1000
0001
0000
0001
0100
0000
,
0100
0010
0000
1000
0000
0100
0000
0010
,
0001
0000
0001
0010
0000
0010
0100
0000
,
0100
1000
0000
0001
0000
0100
0000
0001
,
1000
0000
1000
0100
0000
0100
0010
0000
,
0010
0001
0000
1000
0000
0010
0000
0100
,
0001
0000
0001
1000
0000
1000
0001
0000
,
0001
0010
0000
0100
0000
1000
0000
0001
,
0100
0001
0100
1000
0100
0010
0100
0001
,
0000
0001
0000
0101
0000
0101
0000
0001
,
0010
0100
1000
0100
0000
1100
0000
1000
,
0100
0010
0001
0010
0000
0011
0000
0001
,
0010
0100
0010
1000
0010
0100
0010
0001
,
0000
0011
0000
0010
0000
0110
0000
0100
,
1000
0010
0001
0010
0000
0011
0000
0010
,
0001
0010
0100
0000
1000
0100
0010
0000
0001
0010
0100
1000
0001
0010
0100
0000
,
1000
0100
0001
0100
0010
0001
0010
1000
,
0010
0100
1000
0010
0001
0010
0100
1000
,
0100
0001
1000
0100
0001
0100
0010
1000
,
0010
0001
0010
0100
0001
0100
1000
0010
,
0100
0001
0100
1000
0100
1000
0001
0010
,
1000
0100
0001
1000
0010
0001
0010
1000
,
0010
0001
0010
0100
0001
0100
1000
0100
,
0001
0100
1000
0010
0100
0010
0001
0010
,
1000
0100
0010
0001
0010
1000
0010
0100
,
0001
0100
1000
0010
0100
0001
0100
1000
,
0001
0010
1000
0100
0010
0001
0010
0100
,
1000
0010
1000
0001
0100
0001
0010
1000
,
0010
0100
0001
0100
1000
0010
0100
0001
,
0100
1000
0001
0010
1000
0100
0010
1000
,
0010
0001
0010
0100
0001
0100
1000
0010
,
0100
0000
0001
0100
0000
1001
0000
0100
,
0001
0100
0010
1000
0100
0010
0001
0010
,
0100
0000
1000
0100
1000
0000
0100
0000
0010
0000
0001
0010
0001
0000
0010
0000
,
0001
0000
0100
0000
0010
0000
1000
0000
0100
0000
0010
0001
0010
0000
0100
0000
,
1000
0000
0001
0100
0001
0000
0100
0000
0010
0000
1000
0010
1000
0000
0010
0000
,
1000
0000
0100
0010
0100
0000
1000
0000
0001
0000
0010
0000
0100
0000
1000
0000
,
0001
0100
0001
0000
0100
0000
0100
0000
0010
1000
0010
0000
1000
0000
1000
0000
,
0100
0010
0001
0000
1000
0000
0100
0000
1000
0000
0001
0010
0100
0000
1000
0000
,
0001
0010
0001
0000
1000
0100
1000
0000
0001
0100
0010
1000
0100
0010
0001
0000
,
0101
0000
0101
0000
0001
0100
0010
1000
,
0000
1010
0000
1001
0000
1100
0000
1000
,
0100
0010
0001
0010
0000
1010
0000
1000
,
0010
0001
0010
0100
0000
0110
0000
0100
,
0001
0100
1000
0010
0100
0010
0001
0010
,
0000
0011
0000
1010
0000
0110
0000
0100
,
0001
0100
1000
0100
0000
1100
0000
0100
,
0010
1000
0100
0010
0001
0010
0001
0010
,
0001
0010
0001
0010
0100
1000
0100
1000
0001
0000
0100
0001
0100
0001
0100
0000
,
0010
1000
0010
0000
1000
0000
1000
0000
0001
0100
0001
0000
1000
0000
1000
0000
,
0100
0010
0100
0010
0100
0000
0001
0000
0100
0000
1000
0000
0010
0000
0001
0000
,
0010
0100
0010
0000
0100
0000
0001
0000
1000
0001
1000
0000
0001
0000
1000
0000
,
1000
0100
1000
0100
0010
0001
0010
0001
1000
0000
0010
1000
0010
1000
0010
0000
,
0100
0001
0100
0000
0001
0000
0001
0000
1000
0010
1000
0000
0001
0000
0001
0000
,
0010
0100
0010
0100
0010
0000
1000
0000
0010
0000
0001
0000
0100
0000
1000
0000
,
0100
0010
0100
0000
0010
0000
1000
0000
0001
1000
0001
0000
1000
0000
0001
0000
,
1001
0000
0000
0000
;

//---------------dance-single - Renard----------------
#NOTES:
     dance-single:
     Renard:
     Hard:
     9:
     0.636,0.604,0.386,0.000,0.000:
0000
0000
0000
0000
,
0000
0000
0000
0000
,
0000
0000
0000
0000
,
0000
0000
0000
0000
,
0001
0010
0100
1000
0010
0100
0001
0010
,
0100
0010
0001
0010
0100
1000
0010
0100
,
0001
0010
0100
1000
0010
0100
0001
0010
,
0100
0100
0100
0100
0010
0010
0010
0010
,
0001
1000
0001
1000
0010
1000
0010
1000
,
0100
1000
0100
1000
0001
1000
0001
1000
,
0001
1000
0001
1000
0001
0100
0001
0100
,
0001
0010
0001
0010
0001
1000
0001
1000
,
0001
0100
0001
0100
0010
0100
0010
0100
,
0010
1000
0010
1000
0100
1000
0100
1000
,
0100
0010
0100
0010
0001
0010
0001
0010
,
0001
1000
0010
0100
0001
1000
0100
0010
,
0001
0000
1001
0000
0001
0100
0010
0000
,
1000
0000
1100
0000
1000
0010
0100
0000
,
0001
0000
1001
0000
1000
0100
0010
0000
,
0001
0000
1001
0000
0001
0100
0010
1000
,
0010
0000
1010
0000
1000
0100
0010
0000
,
0001
0000
0011
0000
0010
0100
1000
0000
,
0001
0000
0110
0000
0010
1000
0100
0000
,
0010
0000
0011
0000
0010
0100
1000
0001
,
0100
0001
0100
0000
0010
0000
1000
0100
,
0000
1100
0000
1000
0100
0010
0001
1000
,
0001
0000
0001
0100
0000
0110
0000
0010
,
1000
0100
0010
0001
0000
0011
0000
0010
,
0100
1000
0001
0100
0010
0000
0010
1000
,
0000
0001
1000
0100
1000
0001
1000
0010
,
1000
0100
1000
0001
0000
1001
0000
0001
,
0100
0010
1000
0010
1000
0010
1000
0010
,
1000
0100
1000
0100
0010
0000
0001
0010
,
0000
0110
0000
0100
1000
0001
0100
0010
,
1000
0001
0100
0010
0000
0110
0000
0010
,
1000
0100
0010
0001
0000
0011
0000
0010
,
0100
1000
0001
0100
0010
0000
1000
0001
,
0000
1001
0000
0001
0100
0010
1000
0001
,
1000
0100
0010
0001
0000
0011
0000
0010
,
0100
1000
0001
0100
0000
0110
0000
0010
,
1000
0001
0100
0010
1000
0001
0100
0001
,
0000
1001
0000
1100
0000
0011
0000
0001
,
1000
0010
0100
0001
0000
0101
0000
0010
,
1000
0100
0010
0001
0000
1100
0000
1000
,
0010
0100
0001
0000
0001
0000
1000
0100
,
0000
0011
0000
1100
0000
0011
0000
0001
,
0010
0100
1000
0001
0000
0110
0000
0010
,
1000
0100
0010
0001
0000
1001
0000
0001
,
0100
0000
0100
0000
0100
0000
0100
0010
,
0000
0110
0000
0010
0000
0010
0000
0010
,
0100
0000
0001
1000
0000
1001
0000
1000
,
0001
0000
1000
0001
0000
1001
0000
1000
,
0001
0000
0100
0000
0100
0000
0010
0100
,
0000
0110
0000
0100
0000
0010
0000
1000
,
0010
0000
1000
0001
0000
1001
0000
0001
,
1000
0000
0100
0010
0000
0001
0000
0001
,
0010
0000
0010
0000
0100
0000
1000
0001
,
0000
1001
0000
0001
0000
1000
0000
0001
,
0100
0000
0010
0100
0000
0110
0000
0010
,
0100
0000
0010
0100
0000
0110
0000
0010
,
1000
0001
1000
1001
,
1000
0100
0010
0110
,
0010
0000
0010
0001
0000
1001
0000
0001
,
0100
0010
1000
0010
,
0100
0100
0001
0001
,
1000
0100
1000
0100
0010
0001
0010
0001
,
1000
0010
0100
0001
,
1000
0100
1000
0100
0010
0100
0010
0100
,
0010
0001
0010
0001
0010
0001
0010
0001
,
0100
0100
0010
0010
,
1000
0100
1000
0100
1000
0100
1000
0100
,
0010
0001
0010
0001
1000
0001
0100
0010
;

//---------------dance-single - Renard----------------
#NOTES:
     dance-single:
     Renard:
     Medium:
     6:
     0.451,0.390,0.000,0.020,0.000:
0000
0000
0000
0000
,
0000
0000
0000
0000
,
0000
0000
0000
0000
,
0000
0000
0000
0000
,
1000
1000
1000
1000
,
0001
0100
0001
0000
0001
0100
0001
0000
,
1000
1000
1000
1000
,
0001
0100
0001
0000
0001
0100
0001
0000
,
1000
0000
1000
0001
0000
0001
0100
0000
,
0100
0010
0000
1000
0000
0010
0000
0100
,
0001
0000
0001
1000
0000
1000
0100
0000
,
0100
0010
0000
0001
0000
1000
0000
0001
,
0100
0000
0100
0001
0001
0000
1000
0000
,
1000
0100
0000
0010
0000
0001
0000
1000
,
0001
0000
0001
0100
0000
0100
0010
0000
,
0010
1000
0000
0010
0000
0100
0000
0001
,
1000
0000
1000
0100
0000
0100
0010
0000
,
0001
1000
0000
0001
0000
1000
0000
0010
,
0100
0000
0100
0001
0000
0001
1000
0000
,
0100
0010
0000
0001
0000
1000
0000
0001
,
0100
0000
0001
1000
0000
1000
0010
0000
,
0010
0100
0000
0001
0000
1000
0000
0100
,
0010
0000
0010
0001
0000
0001
1000
0000
,
0001
0100
0000
0010
0000
1000
0000
0001
,
0100
0000
0100
0000
0100
0000
0010
1000
,
0000
0001
0000
0100
0000
0001
0000
1000
,
0100
0000
0010
0001
0000
1000
0000
0100
,
0010
0000
0001
1000
0000
0100
0000
0010
,
0001
0000
1000
0000
0010
0000
0100
0001
,
0000
1000
0000
0010
0000
0100
0000
0001
,
1000
0000
0100
0010
0000
0001
0000
2000
,
0002
0000
0000
3003
,
1000
0000
1000
0000
1000
0000
0001
1000
,
0000
0001
0000
1000
0000
0001
0000
1000
,
0010
0000
0100
0010
0000
0100
0000
0010
,
0100
0000
0010
0100
0000
0010
0000
0100
,
0010
0000
1000
0000
0001
0000
1000
0001
,
0000
1000
0000
0001
0000
1000
0000
0001
,
0100
0000
0010
0100
0000
0010
0000
0100
,
0010
0000
0100
0010
0000
0100
0000
0010
,
0100
0000
0001
0000
1000
0000
0001
1000
,
0000
0001
0000
1000
0000
0001
0000
1000
,
0010
0000
0100
0010
0000
0100
0000
0010
,
0100
0000
0010
0100
0000
0010
0000
0100
,
0001
0000
1000
0000
0001
0000
1000
0001
,
0000
1000
0000
0001
0000
1000
0000
0001
,
0100
0000
0010
0100
0000
0010
0000
0100
,
0010
0100
0010
0100
,
0010
0000
0010
0000
1000
0000
1000
0001
,
0000
0100
0000
0001
0000
1000
0000
0100
,
1000
1000
0001
0001
,
0100
0100
0001
0001
,
1000
0000
0100
0000
0010
0000
0001
1000
,
0000
0001
0000
0100
0000
0010
0000
1000
,
0010
0100
0001
1000
,
0100
0010
0001
1000
,
0010
0000
0100
0000
0001
0000
1000
0100
,
0000
0010
0000
0001
0000
1000
0000
0010
,
0100
0001
1000
0100
,
0010
0001
1000
0001
,
0100
0000
0001
0000
1000
0000
0001
0010
,
0000
0001
0000
1000
0000
0010
0000
0100
,
0010
1000
0001
0100
,
0010
0010
0100
0100
,
0001
0001
1000
1000
,
0001
1000
0001
0000
1000
0001
1000
0000
,
0010
0010
0100
0100
,
0001
1000
0001
0000
1000
0001
1000
0000
,
0010
0010
0100
0100
,
0001
1000
0001
0000
1000
0001
1000
0000
,
0010
0010
0100
0100
,
0001
1000
0001
0000
1000
0001
1000
0000
;

//---------------dance-single - Renard----------------
#NOTES:
     dance-single:
     Renard:
     Easy:
     2:
     0.227,0.248,0.000,0.020,0.000: // measure 1
0000
0000
0000
0000
,  // measure 2
0000
0000
0000
0000
,  // measure 3
0000
0000
0000
0000
,  // measure 4
0000
0000
0000
0000
,  // measure 5
1000
0000
1000
0000
,  // measure 6
0001
0000
0001
0000
,  // measure 7
0100
0000
0100
0000
,  // measure 8
0010
0010
0010
0010
,  // measure 9
1000
0000
1000
0010
,  // measure 10
0100
0000
0100
0001
,  // measure 11
0010
0000
0010
0000
,  // measure 12
0001
0000
0001
0000
,  // measure 13
1000
0000
1000
0001
,  // measure 14
0100
0000
0001
0000
,  // measure 15
1000
0000
0100
0000
,  // measure 16
0010
0000
0001
1000
,  // measure 17
0001
0000
0001
0000
,  // measure 18
0100
0000
0100
0000
,  // measure 19
0010
0000
0010
0000
,  // measure 20
1000
0000
1000
0000
,  // measure 21
0010
0000
0010
0000
,  // measure 22
0100
0000
0100
0000
,  // measure 23
0001
0000
0001
0000
,  // measure 24
1000
0000
1000
0000
,  // measure 25
0100
0000
0100
0000
,  // measure 26
0010
0000
0000
0000
,  // measure 27
0001
0000
0001
0000
,  // measure 28
1000
0000
0000
0000
,  // measure 29
0010
0000
0010
0000
,  // measure 30
0100
0000
0000
0000
,  // measure 31
0001
0000
0001
0000
,  // measure 32
2000
0000
0000
0000
,  // measure 33
3001
0100
0001
0000
,  // measure 34
1000
0000
1000
0000
,  // measure 35
0100
1000
0100
0000
,  // measure 36
1000
0000
1000
0000
,  // measure 37
0001
0010
0001
0000
,  // measure 38
1000
0000
1000
0000
,  // measure 39
0010
1000
0010
0000
,  // measure 40
1000
0000
0001
0000
,  // measure 41
0100
0000
0100
0010
,  // measure 42
0100
0000
0010
0000
,  // measure 43
1000
0000
0001
1000
,  // measure 44
0001
0000
1000
0000
,  // measure 45
0010
0000
0100
0010
,  // measure 46
0100
0000
0001
0000
,  // measure 47
1000
0000
0100
0000
,  // measure 48
0010
0010
0010
0010
,  // measure 49
0001
0000
1000
0000
,  // measure 50
0010
0100
0001
1000
,  // measure 51
0100
0000
0010
0000
,  // measure 52
0001
0000
1000
0001
,  // measure 53
0100
0000
0001
0000
,  // measure 54
1000
0100
0010
0001
,  // measure 55
1000
0000
0001
0000
,  // measure 56
1000
0000
0010
0000
,  // measure 57
0100
0000
0001
0000
,  // measure 58
1000
0100
1000
0001
,  // measure 59
0010
0000
0001
0000
,  // measure 60
1000
0000
0010
0000
,  // measure 61
0100
0000
0001
1000
,  // measure 62
0100
0000
1000
0000
,  // measure 63
0001
0000
0010
0000
,  // measure 64
0200
0000
0000
0000
,  // measure 65
1300
0000
1000
0000
,  // measure 66
0001
0000
0100
0100
,  // measure 67
0010
0000
1000
0000
,  // measure 68
0001
0000
0010
0010
,  // measure 69
0001
0000
1000
0000
,  // measure 70
0010
0000
0100
0100
,  // measure 71
0001
0000
1000
0000
,  // measure 72
0100
1000
0100
1000
;
