#TITLE:Holiday Rap;
#SUBTITLE:;
#ARTIST:Partypimpz feat Miker & Sven;
#TITLETRANSLIT:;
#SUBTITLETRANSLIT:;
#ARTISTTRANSLIT:;
#CREDIT:;
#BANNER:holiday.png;
#BACKGROUND:holiday-bg.png;
#LYRICSPATH:;
#CDTITLE:;
#MUSIC:rap.ogg;
#OFFSET:0.000;
#SAMPLESTART:67.273;
#SAMPLELENGTH:12.000;
#SELECTABLE:YES;
#BPMS:0.000=132.000;
#STOPS:;
#BGCHANGES:;

//---------------dance-single - Renard----------------
#NOTES:
     dance-single:
     Renard:
     Challenge:
     10:
     0.687,0.703,0.177,0.000,0.767:
0000
0000
0000
0000
,
0000
0000
0000
0000
,
0000
0000
0000
0000
,
0000
0000
0000
0000
,
0000
0000
0000
0000
,
1000
0000
0001
0001
0100
0000
0010
0000
1000
0000
0100
0000
0010
0000
0001
0000
,
0010
0000
0100
0100
1000
0000
0010
0000
0100
0000
0001
0000
0100
0000
0010
0000
,
1000
0000
0100
0100
0010
0000
0001
0000
0010
0000
0100
0000
1000
0000
0001
0000
,
0100
0000
0010
0010
1000
0000
0100
0000
1000
0000
0001
0000
0010
0000
0001
0000
,
0100
0000
0001
0001
1000
0000
0100
0000
0010
0000
0001
0000
0010
0000
0100
0000
,
1000
0000
0010
0010
0100
0000
0001
0000
0010
0000
0100
0000
1000
0000
0001
0000
,
1000
0000
0010
0010
0100
0000
0001
0000
0010
0000
0100
0000
1000
0000
0001
0000
,
1000
0000
0001
0001
1000
0000
0010
0000
0100
0000
0001
0000
0010
0000
0100
0000
,
1000
0001
0100
0010
1000
0000
0100
0010
0001
0010
0000
0100
0000
0000
0000
0000
,
0000
0000
0000
0000
,
0100
1000
0001
0100
0010
0000
1000
0100
0010
0001
0000
0010
0000
0000
0000
0000
,
0000
0000
0000
0000
,
0100
1000
0001
0100
0010
0000
1000
0100
0010
0001
0000
0010
0000
0000
0000
0000
,
0000
0000
0000
0000
,
0010
0100
1000
0001
0100
0000
0010
1000
0010
1000
0000
1001
0000
0000
0000
0000
,
0000
0000
0000
0010
1001
0100
1001
0000
,
0001
0000
0100
0000
0010
1000
0010
0100
0000
0000
0001
0010
0100
1000
0001
0000
,
0010
0000
0100
1000
0001
0000
0100
0000
0010
0000
0000
0000
1000
0000
0000
0010
,
0100
0001
0000
0010
0100
1000
0000
0001
0010
0100
0000
1000
0001
0000
0100
0000
,
0010
1000
0010
0100
0001
0100
0010
1000
0100
0000
0000
0000
1001
0000
0000
0000
,
0001
0000
1000
0000
0100
0010
0001
0010
0000
0000
0100
1000
0001
0010
0100
0000
,
1000
0000
0001
0100
0010
0000
1000
0000
0010
0000
0000
0000
0100
0000
0000
0001
,
0100
0010
0000
1000
0100
0010
0000
0001
0010
0100
0000
1000
0001
0000
1000
0000
,
0010
0100
0001
0100
0010
1000
0100
0010
0001
0000
0000
0000
0011
0000
0000
0000
,
0001
0000
0010
0000
0100
1000
0001
0010
0000
0000
0100
1000
0001
0010
0100
0000
,
1000
0000
0001
0000
0010
0100
1000
0001
0010
0000
0000
0000
0100
0000
0000
0000
,
1000
0001
0000
0100
0010
1000
0000
0010
0100
0001
0000
0010
0100
0000
0000
0000
,
1000
0010
0100
0001
0010
0100
1000
0100
0010
0000
0000
0000
1001
0000
0000
0000
,
1000
0000
0100
0000
0010
0001
1000
0100
0000
0000
0010
0001
1000
0100
0010
0000
,
0001
0000
1000
0000
0100
0010
0001
1000
0100
0000
0000
0000
0010
0000
0000
0000
,
0001
1000
0000
0010
0100
0001
0000
0100
0010
1000
0000
0100
0010
0000
0000
0000
,
0001
0100
0010
1000
0100
0010
0001
0010
0100
0000
0010
0000
1001
0000
0100
0000
,
0001
0000
0100
0010
1000
0000
0100
0010
0001
0000
0010
0100
1000
0000
0001
0100
,
0010
0000
1000
0100
0010
0000
0001
0010
0100
0000
1000
0001
0100
0010
1000
0000
,
0100
0000
0010
0001
0010
0000
0100
1000
0001
0000
0100
0010
1000
0000
0100
0010
,
0001
0000
0010
0100
1000
0000
0001
0100
0010
0000
0000
0000
1M11
0000
0000
0000
,
1000
0000
0010
0100
0001
0000
0010
0100
1000
0000
0100
0010
0001
0000
1000
0010
,
0100
0000
0001
0010
0100
0000
1000
0100
0010
0000
0001
1000
0010
0100
0001
0000
,
0010
0000
0100
1000
0100
0000
0010
0001
1000
0000
0010
0100
0001
0000
0010
0100
,
1000
0000
0100
0010
0001
0000
1000
0010
0100
0000
0000
0000
11M1
0000
0000
0000
,
1000
0000
1000
0001
0000
0001
0100
0000
0010
0000
0010
1000
0000
1000
0100
0000
,
0010
0000
0010
0001
0000
0001
0010
0000
0100
0000
0100
1000
0000
1000
0001
0000
,
1001
0000
0110
0000
1000
0010
0100
0001
0000
0000
0010
0100
1000
0001
0010
0000
,
0100
1000
0001
0100
0010
0000
1000
0000
0001
0000
0000
0000
1001
0000
0000
0000
,
0001
0100
0001
0000
1000
0100
1000
0000
0001
0010
0001
0000
1000
0010
1000
0000
,
0001
0100
0010
1000
0100
0010
0001
1000
0001
0000
0000
0000
1001
0000
0000
0000
,
1001
0000
0110
0000
0001
0100
0010
1000
0000
0000
0100
0010
0001
1000
0100
0000
,
0010
0001
1000
0010
0100
0000
0001
0000
1000
0000
0000
0000
1001
0000
0000
0000
,
1000
0010
1000
0000
0001
0010
0001
0000
1000
0100
1000
0000
0001
0100
0001
0000
,
1000
0010
0100
0001
0010
0100
1000
0001
1000
0000
0010
0000
1001
0000
0100
0000
,
1001
0000
0000
0000
;

//---------------dance-single - Renard----------------
#NOTES:
     dance-single:
     Renard:
     Hard:
     8:
     0.551,0.568,0.187,0.000,0.280:
0000
0000
0000
0000
,
0000
0000
0000
0000
,
1000
0000
0001
0100
0001
0000
1000
0000
0100
0000
1000
0100
1000
0000
0001
0000
,
0010
0000
0001
1000
0001
0000
0100
0000
0000
0000
0000
0000
0000
0000
0000
0000
,
0000
0000
0000
0000
,
0001
1000
0001
0100
0010
1000
0010
1000
,
0100
1000
0001
0010
0001
1000
0001
1000
,
0001
0100
0010
1000
0001
1000
0001
1000
,
0100
1000
0001
0010
0001
1000
0001
1000
,
0001
0100
0010
1000
0100
0010
0001
1000
,
0001
0100
0010
1000
0100
0010
0001
1000
,
0001
0100
0010
1000
0100
0010
0001
1000
,
0001
0100
0010
1000
0100
0000
1000
0000
,
0001
0000
0100
0000
0001
0000
1000
0000
0100
1000
0000
1100
0000
0000
0000
0000
,
0000
0000
0000
0000
0000
0000
0000
1000
,
0100
0000
0010
0000
0001
0000
1000
0000
0001
0100
0000
0101
0000
0000
0000
0000
,
0000
0000
0000
0000
0000
0000
0000
0001
,
1000
0000
0100
0000
0010
0000
0001
0000
1000
0001
0000
1001
0000
0000
0000
0000
,
0000
0000
0000
0000
0000
0000
0000
0001
,
0100
0000
0010
0000
1000
0000
0100
0000
0010
0100
0000
0110
0000
0000
0000
0000
,
0000
0000
0000
0100
1000
0010
0110
0000
,
0010
0000
0100
0000
0001
0000
1000
0001
0000
0000
1000
0000
0100
0000
0010
0000
,
0001
1000
0010
1000
1001
0000
0000
0000
,
1000
0100
0000
0000
0010
0001
0000
0000
1000
0010
0000
0100
0001
0000
0000
0000
,
1000
0100
0010
0001
1000
0000
1001
0000
,
0001
0000
0100
0000
0010
0000
1000
0001
0000
0000
0100
0000
0010
0000
1000
0000
,
0100
0010
0001
0010
0100
0000
0110
0000
,
0100
1000
0000
0000
0001
0010
0000
0000
0100
1000
0000
1000
0001
0000
0000
0000
,
0100
0010
1000
0100
0010
0000
0110
0000
,
0100
0000
1000
0000
0001
0100
0001
0100
0000
0000
0001
0000
1000
0000
0100
0000
,
0010
0000
0001
0000
1000
0100
1000
0100
1000
0000
0000
0000
0000
0000
0000
0000
,
1000
0001
0010
0001
1000
0010
0100
0001
,
1000
0000
0001
0000
0100
0000
0010
0100
0010
0000
0000
0000
0100
0000
0000
0000
,
0010
0000
1000
0000
0001
0100
0001
0100
0000
0000
0001
0000
0010
0000
0100
0000
,
1000
0000
0001
0000
0010
0001
0010
0001
0010
0000
0000
0000
0001
0000
0010
0000
,
0100
1000
0001
0100
0010
1000
0001
0100
,
0010
1000
0100
0010
0001
1001
1001
1001
,
0001
0000
0100
0000
0010
0100
0010
0100
0000
0000
0010
0000
1000
0000
0100
0000
,
0010
0000
0001
0000
1000
0000
0001
0000
0100
0000
0010
0100
0010
0100
0010
0000
,
0100
0010
1000
0100
0010
0001
1000
0100
,
0010
0001
1000
0010
0100
0000
0110
0000
,
0010
0000
1000
0000
0100
0010
0100
0010
0000
0000
0100
0000
0010
0000
0001
0000
,
1000
0000
0001
0000
0100
0000
0010
0000
1000
0000
0001
1000
0001
1000
0001
0000
,
1000
0001
0100
0010
1000
0100
0010
0001
,
1000
0001
1000
0000
0001
0000
0100
0000
0010
0000
0000
0000
1001
0000
0000
0000
,
1000
0000
0000
1000
0000
0000
1000
0000
0100
0000
0000
0100
0000
0000
0100
0000
,
0010
0000
0000
0010
0000
0000
0010
0000
0001
0000
0000
0001
0000
0000
0001
0000
,
1000
0000
0001
0000
0100
0000
0010
0100
0000
0000
0010
0000
1000
0000
0100
0000
,
0010
0001
0010
0000
0001
0000
0010
0000
0100
0000
0000
0000
0110
0000
0000
0000
,
0100
1000
0000
0000
0001
0010
0000
0000
0100
1000
0000
1000
0100
0000
0000
0000
,
1000
0010
0100
0001
1000
0000
1001
0000
,
0001
0000
0100
0000
0010
1000
0010
1000
0000
0000
0100
0000
0010
0000
0001
0000
,
1000
0001
0100
0010
0110
0000
0010
0000
,
1000
0100
0000
0000
0010
0001
0000
0000
1000
0100
0000
0100
0010
0000
0001
0000
,
1000
0000
0001
0000
0100
0010
0100
0010
0100
0000
0000
0000
1001
0000
0000
0000
,
0110
0000
0000
0000
;

//---------------dance-single - Renard----------------
#NOTES:
     dance-single:
     Renard:
     Medium:
     6:
     0.371,0.406,0.088,0.000,0.000:
0000
0000
0000
0000
,
0000
0000
0000
0000
,
0000
0000
0000
0000
,
0000
0000
0000
0000
,
0000
0000
0000
0000
,
1000
0000
1000
0000
1000
0001
1000
0001
,
1000
0000
1000
0000
0001
1000
0001
0000
,
0001
0000
0001
0000
0001
1000
0001
1000
,
0001
0000
0001
0000
0001
1000
0001
0000
,
0100
0000
0100
0000
0100
0010
0100
0010
,
0100
0000
0100
0000
0100
0010
0100
0000
,
0010
0000
0010
0000
0010
0100
0010
0100
,
0010
0010
0100
0010
,
0010
1000
0100
0010
0001
0000
1000
0000
,
0000
0000
0000
0000
,
0001
0010
0100
1000
0001
0000
1000
0000
,
0000
0000
0000
0000
,
0010
0100
0001
1000
0100
0000
1000
0000
,
0000
0000
0000
0000
,
0001
0010
0100
1000
0001
0000
0100
0000
,
0000
0000
0000
0010
1000
0010
1000
0000
,
0010
0100
0001
1000
0000
0001
1000
0001
,
1000
0010
1000
0010
1000
0000
0000
0000
,
0001
0100
0001
1000
,
0100
1000
0001
1000
0001
0000
1001
0000
,
0001
0100
0001
1000
0000
0001
0010
0001
,
1000
0001
0100
0001
1000
0000
0000
0000
,
1000
0100
0010
0001
0010
0100
1000
0000
,
0001
1000
0001
1000
0010
0000
1001
0000
,
1000
0001
1000
0001
0000
0100
0010
0100
,
0010
1000
0001
0100
0001
0000
0000
0000
,
1000
1000
0001
0001
,
0100
0010
0100
0010
0100
0000
0000
0000
,
0010
1000
0001
1000
0000
0001
0100
0001
,
1000
0100
0010
0001
1000
0000
0000
0000
,
0001
0100
0010
1000
0001
1000
0001
0000
,
1000
0100
0010
0001
1000
0000
1001
0000
,
0001
0000
0001
0000
0000
0100
0010
0000
,
1000
0000
1000
0000
0000
0010
0100
0010
,
0100
0100
0001
0001
,
0010
0100
0010
0000
0100
0000
1000
0000
,
0001
0000
0100
0000
0000
0010
1000
0000
,
0010
0000
0100
0000
0001
1000
0100
0000
,
1000
0001
0010
0100
,
1000
0001
1000
0001
0100
0000
0110
0000
,
0010
0010
0100
0100
,
0001
0001
1000
1000
,
0001
0100
0001
0100
0000
0001
1000
0001
,
1000
0100
1000
0001
1000
0000
1001
0000
,
0001
0010
0001
0000
1000
0010
1000
0000
,
0001
0100
0010
1001
,
1000
0100
1000
0000
0001
0010
0001
0000
,
1000
0010
1000
0001
0100
0000
1001
0000
,
0001
0100
0010
1000
,
0001
1000
0100
0010
0001
0000
1001
0000
,
0101
0000
0000
0000
;

//---------------dance-single - Renard----------------
#NOTES:
     dance-single:
     Renard:
     Easy:
     2:
     0.277,0.352,0.118,0.246,0.000: // measure 1
0000
0000
0000
0000
,  // measure 2
0000
0000
0000
0000
,  // measure 3
0000
0000
0000
0000
,  // measure 4
0000
0000
0000
0000
,  // measure 5
0000
0000
0000
0000
,  // measure 6
1000
1000
1000
1000
,  // measure 7
0001
0001
0001
0001
,  // measure 8
0100
0100
0100
0100
,  // measure 9
0010
0010
0010
0010
,  // measure 10
1000
0001
1000
0001
,  // measure 11
0100
0010
0100
0010
,  // measure 12
1000
0010
1000
0010
,  // measure 13
0100
0001
0100
0001
,  // measure 14
2000
0000
0000
0000
,  // measure 15
3200
0000
0320
0000
,  // measure 16
0032
0000
0000
0000
,  // measure 17
0203
0000
0320
0000
,  // measure 18
2030
0000
0000
0000
,  // measure 19
3200
0000
0320
0000
,  // measure 20
0032
0000
0000
0000
,  // measure 21
0203
0000
0320
1030
,  // measure 22
1000
0010
0000
0100
,  // measure 23
0001
0010
0100
0000
,  // measure 24
1000
1000
0001
0001
,  // measure 25
0100
0010
0100
1001
,  // measure 26
1000
0001
0000
0100
,  // measure 27
0001
1000
0100
0000
,  // measure 28
0010
0001
1000
0001
,  // measure 29
0100
0100
0010
1001
,  // measure 30
1000
0100
0000
0010
,  // measure 31
0001
1000
0002
0000
,  // measure 32
0203
0320
2030
3200
,  // measure 33
0320
0032
0023
0000
,  // measure 34
0130
1000
0000
0010
,  // measure 35
0100
0001
0200
0000
,  // measure 36
0320
2030
3200
0320
,  // measure 37
0031
1000
0001
0110
,  // measure 38
0010
1010
0000
0101
,  // measure 39
0001
1000
0100
0010
,  // measure 40
0001
0010
0001
0010
,  // measure 41
0100
1000
0001
1001
,  // measure 42
0001
0100
0000
0010
,  // measure 43
1000
0001
0100
0000
,  // measure 44
0100
0010
1000
0100
,  // measure 45
0010
0001
1000
1001
,  // measure 46
0001
0000
0100
0000
,  // measure 47
0010
0000
1000
0100
,  // measure 48
0010
0001
0000
0011
,  // measure 49
0010
0100
0010
0000
,  // measure 50
0100
1000
0000
1100
,  // measure 51
1000
0010
1000
0000
,  // measure 52
0001
0100
0000
0101
,  // measure 53
0001
0010
0100
0000
,  // measure 54
1000
0100
0000
1100
,  // measure 55
0100
1000
0010
0100
,  // measure 56
1001
0000
0000
0000
;
