#TITLE:Here I Am;
#SUBTITLE:;
#ARTIST:Special D;
#TITLETRANSLIT:;
#SUBTITLETRANSLIT:;
#ARTISTTRANSLIT:;
#CREDIT:;
#BANNER:here.img;
#BACKGROUND:here-bg.img;
#LYRICSPATH:;
#CDTITLE:;
#MUSIC:here.ogg;
#OFFSET:0.000;
#SAMPLESTART:75.567;
#SAMPLELENGTH:12.000;
#SELECTABLE:YES;
#BPMS:0.000=139.673,172.000=279.346,178.000=139.673;
#STOPS:;
#BGCHANGES:;
#GENRE:Eurodance;

//---------------dance-single - Renard----------------
#NOTES:
     dance-single:
     Renard:
     Challenge:
     10:
     0.759,0.714,0.291,0.113,1.000:
0000
0000
0000
0000
,
0000
0000
0000
0000
,
0000
0000
0000
0000
,
1000
0000
0001
0000
0100
0000
0001
0000
1000
0000
0100
0000
1000
0001
1000
0000
,
0101
0000
0000
0000
0010
0000
1000
0000
0100
0010
0001
0010
0100
0000
1000
0000
,
1100
0000
0000
0000
1000
0000
0010
0000
0100
0000
0001
0010
0100
1000
0001
0000
,
1001
0000
0000
0000
0001
0100
0010
0000
0110
0000
0000
0000
0010
1000
0100
0000
,
1100
0000
0110
0000
0011
0000
0000
0001
0000
0010
0100
0000
1000
0000
0001
0000
,
1001
0000
0000
0000
,
0000
2000
3002
0203
2300
3020
0002
0030
,
0103
0000
0001
0100
0000
0000
0110
0000
0010
0000
1000
0000
0100
0000
0000
0000
,
1000
0000
0010
0000
0110
0000
0000
0010
0000
1000
0001
0000
0101
0000
0001
1000
,
0100
0000
1000
0000
1001
0000
0000
0001
0000
0100
0001
0000
1001
0000
1000
0000
,
1001
0000
0000
0000
0000
0000
0110
0000
1001
0000
0000
1100
0000
0000
0011
0000
,
0001
0000
0010
0000
0110
0000
0000
0100
0000
1000
0001
0000
1001
0000
0000
0001
,
0100
0000
0010
0000
1000
0000
0000
0001
0000
1000
0001
0000
0100
0001
0000
1000
,
0100
0000
1000
0000
1001
0000
0000
0001
0000
0100
0001
0000
1000
0000
0001
0000
,
0100
0001
0100
0001
0100
0010
0100
0010
1000
0010
1000
0010
1000
0001
1000
0000
,
0001
0000
1000
0000
0001
0000
0100
0000
0001
0000
0010
0000
0001
0000
1000
0001
,
1000
0000
0001
0000
0100
0000
0001
0000
1000
0000
0001
0000
1000
0000
0100
1000
,
0100
0000
1000
0000
0010
0000
1000
0000
0001
0000
1000
0000
0001
0000
1000
0001
,
0100
0000
0001
0000
0010
0000
0001
1000
0001
0000
1000
0000
0010
0000
1000
0000
,
0001
0000
1000
0000
0001
0000
0100
0001
0000
1000
0100
0000
1000
0000
0001
0000
,
0100
0000
0001
0000
0010
0000
0100
1000
0000
0001
0100
0000
0010
0000
1000
0000
,
1010
0000
1000
0000
0100
0000
0010
0001
0000
0010
0100
0000
1000
0000
0001
0000
,
2002
0000
0000
0000
0000
3003
0110
1001
,
1001
0000
0000
0000
1001
0000
0000
0000
0001
1000
0000
1000
0001
0000
1000
0000
,
0001
0100
0001
0100
0001
1000
0001
1000
0001
0000
1000
0000
0010
0000
0100
0000
,
0001
0000
0100
0001
0000
0000
0010
0000
0001
1000
0000
0100
0000
1000
0001
1000
,
0001
0100
0000
0001
0000
0100
0000
0010
0000
1000
0000
0100
0000
1000
0000
0010
,
0100
0001
0000
0100
0000
0010
0000
1000
0000
0100
0000
0010
0000
0001
0010
0100
,
1000
0000
0001
1000
0000
0010
0000
0100
0000
0001
0000
0100
0000
0010
1000
0010
,
1000
0000
0001
1000
0000
0000
0100
0000
0010
0001
0000
0010
0000
0100
1000
0001
,
0010
0100
0000
1000
0000
0001
0000
0100
0000
0010
0000
1000
0000
0010
0000
1000
,
0001
1000
0000
0100
0000
1000
0000
0001
0000
0010
0000
0001
0000
0100
0001
1000
,
0001
0000
1000
0010
0000
0100
0000
0001
0000
0100
0000
0010
0000
1000
0100
0000
,
1000
0000
0010
1000
0000
0000
0100
0000
1000
0001
0000
0010
0000
0001
1000
0001
,
1000
0000
0001
0000
0101
0000
0001
1000
0100
0010
0001
0000
0011
0000
0010
0100
,
1000
0001
0000
0100
0000
0010
0000
1000
0000
0100
0000
0010
0000
0001
0010
0200
,
2000
0000
0000
0000
0000
0000
0000
0000
0000
0000
0000
3000
1300
0010
1000
0010
,
1000
0000
0001
1000
0000
0000
0100
0000
0010
0001
0000
0010
0000
0100
1000
0001
,
1000
0000
0001
1000
0000
0000
0100
0000
0010
0001
0000
0010
0000
0100
1000
0001
,
1000
0000
0001
1000
0000
0000
0100
0000
1000
0000
0001
1000
0000
0000
0100
0000
,
2002
0000
0000
0000
,
0000
0000
0000
0000
0000
0000
3003
0000
0100
0010
0100
0010
1000
0000
0010
0100
,
0000
0000
0001
0000
1000
0001
0000
1000
0000
0100
0010
0001
0010
0100
0000
1000
,
0000
0010
0000
0100
0000
0001
0000
0100
0000
0010
0000
1000
0010
1000
0000
0010
,
0000
0100
0000
0001
0000
1000
0000
0100
0000
0010
0001
0010
0100
0000
1000
0001
,
0000
0100
0000
0010
0000
1000
0000
0010
0000
0100
0001
0100
0010
0000
1000
0100
,
0000
0000
0010
0000
0001
0010
0000
0100
0000
1000
0001
0010
0100
1000
0000
0001
,
0000
0100
0000
0010
0000
1000
0000
0010
0000
1000
0000
0001
1000
0100
0000
1000
,
0000
0001
0000
0010
0000
0001
0000
1000
0000
0001
0100
0010
1000
0000
0100
0010
,
0000
0001
0000
0010
0000
0100
0000
1000
0000
0001
1000
0001
1000
0000
0010
0100
,
0001
0000
0001
0000
1000
0001
0000
1000
0001
0100
0010
1000
0010
0100
0000
0001
,
1000
0010
0000
0100
0000
0001
0000
0100
0001
0010
0000
0100
1000
0001
0000
0010
,
0001
0100
0000
0001
0000
1000
0000
0100
1000
0001
0010
0100
1000
0000
0001
1000
,
0001
0010
0000
0100
0000
1000
0000
0100
1000
0010
1000
0010
0100
0000
0001
0010
,
0100
0000
0100
0000
1000
0100
0000
0010
0001
1000
0100
0010
0001
1000
0000
1000
,
0001
0010
0000
0100
0000
1000
0000
0100
1000
0001
0000
1000
0001
0010
0000
0001
,
0010
0100
0000
1000
0000
1000
0000
0001
1000
0001
0010
0100
1000
0000
0010
0100
,
0001
1000
0000
0100
0000
0010
0000
0001
0000
1000
0001
1000
1001
0000
0000
0000
;

//---------------dance-single - Renard----------------
#NOTES:
     dance-single:
     Renard:
     Hard:
     8:
     0.588,0.600,0.150,0.038,0.385:
0000
0000
0000
0000
,
0000
0000
0000
0000
,
0000
0000
0000
0000
,
1000
0000
0001
0000
0100
0000
0001
0000
1000
0000
0100
1000
0001
0000
0100
0000
,
0001
0000
1000
0100
1000
0000
0001
0000
0010
0000
0001
0000
1000
0000
0000
0000
,
0001
0000
0010
0001
0010
0000
0001
0000
0010
0000
0100
0000
1000
0000
0000
0000
,
0010
0000
1000
0010
1000
0000
0000
0000
0001
0000
0100
0001
0100
0000
0000
0000
,
0001
0000
1000
0000
0100
0000
1000
0000
0001
0000
1000
0000
0100
0000
1000
0002
,
2000
0000
0000
0000
,
3003
0000
0100
0000
0001
0000
1000
0000
0100
0000
1000
0000
0001
1000
0001
0000
,
1000
0000
0001
1000
0000
0000
0001
0000
0100
0000
0010
0000
1000
0000
0000
0000
,
0010
1000
0001
0000
1000
0100
1000
0000
,
0001
0010
0001
0000
1000
0001
0100
0000
,
0001
1000
0100
1001
0110
0000
0000
0000
,
1000
0000
0010
0000
1000
0000
0000
0010
0000
1000
0010
0000
1000
0000
0000
0000
,
0001
0000
0100
0000
0001
0000
0000
1000
0000
0001
1000
0000
0001
0000
0000
0000
,
0010
0000
0001
0000
1000
0000
0000
0001
0000
0100
0001
0000
0100
0000
0000
0000
,
0001
1000
0100
0010
0001
1000
0001
1000
,
0001
0001
0100
0100
,
0010
1000
0010
1000
0100
1000
0100
1000
,
0010
0010
1000
1000
,
0100
1000
0100
1000
0001
0010
0001
0010
,
0011
0000
0000
0000
0010
0000
0100
0000
1000
0000
0010
0000
1000
0000
0010
1000
,
0010
0000
1000
0100
0010
0001
1000
0001
,
1001
0000
0000
0000
0001
0000
0100
0000
0010
1000
0010
0000
1000
0000
0100
0000
,
1000
0100
1000
0000
0001
0000
1000
0000
0001
0000
0100
0000
0001
0000
0000
0000
,
1001
0000
0000
0000
0110
0000
0000
0000
1000
0010
0000
1000
0010
0000
1000
0000
,
0010
0000
0000
0000
0010
0000
0000
1000
0001
0000
1000
0000
0001
0000
1000
0000
,
0001
0000
0001
0100
0000
0000
0001
0000
1000
0100
0000
0010
0000
0000
0001
0000
,
0010
0100
1000
0001
0100
0010
1000
0100
,
1000
0001
0000
1000
0000
0001
0000
0100
0000
0010
0000
1000
0000
0000
0001
0000
,
1000
0001
0100
0010
1000
0100
0010
0001
,
0001
0000
0100
0010
0000
0000
1000
0000
0010
1000
0000
0001
0000
0000
0100
0000
,
0001
1000
0100
0010
0001
0010
0100
1000
,
0010
1000
0000
0010
0000
0100
0000
0001
0000
0100
0000
0001
0000
0000
1000
0000
,
0001
0100
0001
1000
0100
1000
0001
1000
,
1001
0000
0001
0100
0101
0000
0001
1000
,
1100
0000
0000
0000
1000
0000
0000
0001
0000
0010
0001
0000
1000
0000
0001
0000
,
1000
0001
0000
0100
0000
0010
0000
1000
0000
0001
0000
1000
0000
0000
0001
0000
,
0101
0000
1100
0000
,
1001
0000
0000
0001
0100
0000
0001
0000
1001
0000
0000
1000
0100
0000
1000
0000
,
1001
0000
0000
0001
0100
0000
0001
0000
1001
0000
0000
1000
0100
0000
1000
0000
,
0001
1000
0001
1000
0010
0100
0010
1000
,
2002
0000
0000
0000
,
0000
0000
0000
0000
3003
0000
0000
0000
0010
0000
0010
0000
0010
0000
0000
0010
,
1000
0000
0001
0000
1000
0000
0000
1000
0100
0000
0010
0000
0001
0000
0000
0001
,
0010
0000
0100
0000
1000
0000
0010
0000
0100
0000
0001
0000
1000
0000
0000
1000
,
0001
0000
0100
0000
0010
0000
0000
0010
1000
0000
0001
0000
0100
0000
0010
0000
,
1000
0000
0100
0000
0010
0000
0001
0000
0010
0000
0100
0000
1000
0000
0000
1000
,
0001
0000
1000
0000
1000
0000
0000
1000
0010
0000
1000
0000
1000
0000
0000
1000
,
0100
0000
1000
0000
0001
0000
0000
0001
1000
0000
0100
0000
0010
0000
0000
0010
,
0001
0000
0010
0000
0100
0000
0000
0100
0010
0000
0001
0000
0010
0000
0000
0010
,
0001
0000
0010
0000
0001
0000
0100
0000
0001
0000
1000
0000
0001
0000
0000
0001
,
0100
0000
0001
0000
1000
0000
0000
1000
0010
0000
1000
0000
0001
0000
0000
0001
,
0010
0000
0001
0000
1000
0000
0000
1000
0100
0000
1000
0000
0001
0000
0000
0001
,
1000
0000
1000
0000
0010
0000
0000
0010
1000
0000
0100
0000
0010
0000
0000
0010
,
0001
0000
0001
0000
0010
0000
0000
0010
0100
0000
1000
0000
0010
0000
0000
0010
,
0100
0000
0001
0000
1000
0000
0000
1000
0100
0000
0010
0000
0001
0000
0000
0001
,
1000
0000
0001
0000
0100
0000
0010
0000
1000
0000
0100
0000
0010
0000
0000
0010
,
0001
0000
0010
0000
0100
0000
0000
0100
1000
0000
0010
0000
0100
0000
0001
0100
,
0000
0010
0000
1000
0000
0010
0000
1000
0000
0001
1000
0001
1000
0000
0000
0000
;

//---------------dance-single - Renard----------------
#NOTES:
     dance-single:
     Renard:
     Medium:
     6:
     0.436,0.485,0.056,0.038,0.019:
0000
0000
0000
0000
,
0000
0000
0000
0000
,
0000
0000
0000
0000
,
0001
0100
0001
1000
0100
1000
0001
0000
,
0001
1000
0001
0000
1000
0010
1000
0000
,
1000
0100
1000
0000
1000
0001
1000
0000
,
0001
0010
0001
0100
0001
1000
0001
0000
,
2002
0000
0000
3003
,
0110
0000
0000
0000
,
0000
0010
1000
0010
1000
0010
0000
0000
,
1000
0000
0000
0001
0000
0000
0100
0000
0000
0000
0010
0000
1000
0000
0000
0000
,
0010
1000
0100
0000
0000
0010
0001
0000
,
0100
0001
1000
0000
0000
0001
0100
0000
,
0110
0000
1001
0000
,
1000
0100
1000
0000
0000
0001
0010
0000
,
0001
0100
0010
0000
0000
1000
0001
0000
,
1000
0100
1000
0000
0010
1000
0010
0000
,
0100
0001
1000
0001
1000
0001
1000
0000
,
0001
0000
0001
1000
0100
0000
0100
1000
,
0001
0000
0001
1000
0100
1000
0001
0000
,
1000
0000
1000
0001
0100
0000
0100
0001
,
1000
0001
0100
0001
1000
0010
1000
0000
,
0001
0000
0000
0000
1000
0000
0000
1000
0001
0000
0100
0000
0010
0000
0000
0000
,
1000
0000
0100
0000
1000
0010
0100
0000
,
0001
0000
0000
0000
1000
0000
0000
1000
0001
0000
0010
0000
0100
0000
0000
0000
,
1000
0001
1000
0001
,
0100
0000
0000
0000
0100
0000
0000
0000
0100
0000
0000
0100
0000
0000
0100
0000
,
0010
0000
0010
0000
0010
1000
0010
0000
,
1000
0000
1000
0000
1000
0000
1000
0001
,
0100
0000
0100
0000
0100
0000
0100
0001
,
0010
0000
0010
0000
0010
0000
0100
0010
,
0001
0000
0001
0000
0001
0000
0001
0100
,
0010
0000
0010
1000
0100
0000
0100
1000
,
0001
0000
0001
0010
0001
0000
0001
0100
,
0001
0000
0001
1000
0100
0000
0100
1000
,
0010
0000
0010
0000
0100
0001
1000
0000
,
0001
0100
0001
0000
1000
0100
1000
0000
,
0001
1000
0010
1000
0001
1000
0100
1000
,
0001
0010
0001
0000
1000
0100
1000
0000
,
0001
0010
0000
0000
0001
0100
0000
0000
,
0010
1000
0100
0010
0001
0010
0100
1000
,
0100
0010
0001
0010
0100
1000
0001
0010
,
0100
1000
0100
0010
0001
0010
0100
2000
,
0002
0000
0000
0000
,
0000
0000
0000
0000
0000
0000
0000
0000
0000
3003
0000
0000
0001
0000
0000
0000
,
0100
0000
0010
1000
0010
0000
1000
0000
,
0100
0000
1000
0001
1000
0000
0001
0000
,
0100
0000
0001
1000
0001
0000
1000
0100
,
1000
0100
1000
0100
1000
0000
0001
0010
,
0001
0000
1000
0010
1000
0000
0001
0100
,
0001
0000
1000
0100
1000
0000
0001
0010
,
0100
0000
1000
0100
0010
0000
0100
1000
,
0001
0000
0001
1000
1001
0000
0001
0001
,
0100
0000
0010
0010
1000
0000
0100
0100
,
1000
0000
1000
1000
0100
0000
1000
0010
,
0100
0000
0001
0100
0010
0000
1000
0010
,
0100
0000
0001
0100
0010
0000
1000
0001
,
1000
0000
0001
1000
0001
0000
0100
0010
,
0100
0000
0010
0100
0010
0000
1000
1000
,
0001
0000
0100
0100
0010
0000
1000
0000
,
0100
0000
0010
0001
1000
0000
1001
0000
;

//---------------dance-single - Renard----------------
#NOTES:
     dance-single:
     Renard:
     Easy:
     3:
     0.287,0.371,0.207,0.150,0.000: // measure 1
0000
0000
0000
0000
,  // measure 2
0000
0000
0000
0000
,  // measure 3
0000
0000
0000
0000
,  // measure 4
1000
1000
0001
0001
,  // measure 5
0100
0000
0100
0010
,  // measure 6
1000
0000
1000
0001
,  // measure 7
0010
0100
1000
0001
,  // measure 8
1000
0001
1000
0001
,  // measure 9
0220
0000
0000
0000
,  // measure 10
0000
0000
0000
0330
,  // measure 11
1000
1000
0010
0100
,  // measure 12
0001
0001
0100
0001
,  // measure 13
0010
0010
0001
1000
,  // measure 14
0001
0000
1001
0000
,  // measure 15
1001
0000
1000
0010
,  // measure 16
0100
0000
0001
0010
,  // measure 17
0100
0000
1000
0010
,  // measure 18
1000
0000
0001
1000
,  // measure 19
0002
0000
0203
0000
,  // measure 20
0320
2030
3200
0320
,  // measure 21
0032
0000
2003
0000
,  // measure 22
3002
0203
0302
2003
,  // measure 23
3100
1100
1000
1010
,  // measure 24
1000
1100
1000
1010
,  // measure 25
0001
0011
0001
0101
,  // measure 26
1001
0000
0000
0000
,  // measure 27
1000
1000
0001
0001
,  // measure 28
0100
0010
0100
0010
,  // measure 29
1000
1100
0001
0101
,  // measure 30
1000
1100
0001
0101
,  // measure 31
1000
1010
0001
0011
,  // measure 32
1000
1010
0001
0011
,  // measure 33
0001
1000
0001
0100
,  // measure 34
0010
0010
0010
0010
,  // measure 35
1000
0100
0010
0001
,  // measure 36
0100
0100
0100
0100
,  // measure 37
0010
0010
0100
0100
,  // measure 38
0110
0000
0000
0000
,  // measure 39
1000
1000
0001
0001
,  // measure 40
1001
0000
0000
0000
,  // measure 41
1000
1000
0010
0010
,  // measure 42
1000
1000
0010
0010
,  // measure 43
1000
1000
1000
1000
,  // measure 44
2002
0000
0000
0000
,  // measure 45
0000
0000
3003
0001
,  // measure 46
0000
1000
0000
0001
,  // measure 47
0100
0001
1000
0100
,  // measure 48
0000
1000
0000
0001
,  // measure 49
0000
1000
0000
0001
,  // measure 50
0001
0100
0000
1000
,  // measure 51
1000
0100
0000
0001
,  // measure 52
0001
0010
0000
1000
,  // measure 53
1000
0010
0000
1000
,  // measure 54
0000
0010
0000
0100
,  // measure 55
0000
0001
0000
1000
,  // measure 56
0000
0001
0000
0100
,  // measure 57
0001
1000
0000
0100
,  // measure 58
0000
1000
0000
0010
,  // measure 59
1000
0001
0000
0010
,  // measure 60
0000
0001
0000
1000
,  // measure 61
0001
0100
0010
1001
;
