#TITLE:Heey!;
#SUBTITLE:;
#ARTIST:CLSM;
#TITLETRANSLIT:;
#SUBTITLETRANSLIT:;
#ARTISTTRANSLIT:;
#CREDIT:;
#BANNER:heey.png;
#BACKGROUND:heey-bg.png;
#LYRICSPATH:;
#CDTITLE:;
#MUSIC:heey.ogg;
#OFFSET:0.000;
#SAMPLESTART:42.791;
#SAMPLELENGTH:12.000;
#SELECTABLE:YES;
#BPMS:0.000=185.000,36.000=92.500,51.000=185.000;
#STOPS:36.000=0.324
;
#BGCHANGES:;

//---------------dance-single - Renard----------------
#NOTES:
     dance-single:
     Renard:
     Challenge:
     12:
     0.877,0.893,0.053,0.042,0.660:
0000
0000
0000
0000
,
0001
0100
0010
0000
1000
0000
0100
0000
0010
0000
0001
0000
0010
0000
0100
0000
,
1000
0100
1000
0000
0010
0000
0100
0000
0001
0000
0010
0000
0100
0000
1000
0000
,
0100
0010
0001
0000
0010
0000
0100
0000
1000
0000
0001
0000
0100
0000
0010
0000
,
1000
0010
1000
0000
0001
0000
1000
0000
0100
1000
0100
0000
1000
0000
0001
0000
,
0010
0100
1000
0000
0001
0000
0100
0000
0010
0000
1000
0000
0100
0000
0010
0000
,
0001
0010
0100
0000
1000
0000
0001
0000
0100
0000
0010
0000
1000
0000
0100
0000
,
1000
0010
1000
0000
0001
0000
0100
0000
0010
0000
1000
0000
0100
0000
0010
0000
,
0001
0010
0100
0000
1000
0000
0001
0000
0100
0010
1000
0100
0010
0001
0010
0100
,
2000
0000
0000
0000
,
0000
0000
0000
0000
0000
0000
0000
0002
,
0000
0000
0000
0000
0000
3000
0000
0000
0000
0000
0000
0000
0200
0000
0000
0000
,
0000
0000
0000
0000
0000
0000
0303
1010
,
0101
0010
1000
0100
0001
0100
0010
0001
,
0010
1000
0010
0100
1000
0010
0001
0010
,
0100
1000
0100
0010
1000
0010
0001
0010
,
0100
0001
0010
0100
0010
1000
0010
0100
,
0010
0001
0010
0100
0001
0100
1000
0010
,
0100
0010
0001
0010
0100
1000
0100
0010
,
0001
0010
1000
0100
0001
0100
0010
0001
,
0010
0000
1100
0000
1100
0000
1000
0001
0100
0000
0001
0010
0001
0000
1000
0000
,
0001
0100
0001
0000
1000
0000
0100
1000
0000
0001
0000
0010
0000
0001
1000
0100
,
1000
0001
0010
0000
0001
0000
1000
0100
0000
1000
0000
0001
0000
0010
0001
1000
,
0100
1000
0001
0000
0010
0000
0100
1000
0000
0001
0000
0010
0000
0100
1000
0001
,
0010
0001
1000
0000
0100
0000
0010
0001
0000
0010
0000
0100
0000
1000
0100
0010
,
0001
0010
0100
0000
1000
0000
0001
0010
0000
0001
0000
0010
0000
0100
1000
0001
,
0010
0001
1000
0000
0100
0000
0010
0001
0000
1000
0000
0100
0000
1000
0001
0010
,
0100
0010
0001
0000
0010
0000
0100
1000
0000
0100
0000
0010
0000
0001
0010
0100
,
1000
0000
0100
0000
0100
0000
1000
0010
1000
0000
0001
1000
0001
0000
0000
0000
,
0100
0000
0001
1000
0001
0000
1000
0100
1000
0000
0001
0010
0001
0000
1000
0010
,
1000
0000
0001
0100
0001
0000
0010
0001
0010
0000
0100
0010
0100
0000
1000
0100
,
1000
0000
0001
1000
0001
0000
1000
0010
1000
0000
0001
1000
0001
0000
1000
0100
,
1000
0000
0001
0010
0001
0000
1000
0010
1000
0000
0001
0100
0010
1000
0100
0010
,
0001
0000
0010
0100
0010
0000
0100
1000
0100
0000
1000
0010
1000
0000
0010
0100
,
0010
0000
0100
0001
0100
0000
0001
0010
0001
0000
0010
0100
0010
0001
1000
0000
,
0100
0000
1000
0001
1000
0000
0010
1000
0010
0000
1000
0001
1000
0000
0100
1000
,
0100
0000
0010
0001
0010
0000
0001
1000
0001
0000
1000
0000
0100
1000
0001
1000
,
0010
0000
1000
0001
1000
0000
0001
0010
0001
0000
1000
0100
1000
0000
0001
0100
,
0001
0000
1000
0010
1000
0000
0100
1000
0100
0000
0010
0100
0010
0000
0001
0010
,
0001
0000
1000
0001
1000
0000
0001
0100
0001
0000
1000
0001
1000
0000
0001
0010
,
0001
0000
1000
0100
1000
0000
0001
0100
0001
0000
1000
0010
0100
0001
0010
0100
,
1000
0000
0100
0010
0100
0000
0010
0001
0010
0000
0001
0100
0001
0000
0100
0010
,
0100
0000
0010
1000
0010
0000
1000
0100
1000
0000
0100
0010
0100
1000
0001
0000
,
0010
0000
0001
1000
0001
0000
0100
0001
0100
0000
0001
1000
0001
0000
0010
0001
,
0010
0000
0100
1000
0100
0000
1000
0001
1000
0000
0001
0000
0010
0001
1000
0001
,
1000
0100
0001
0100
0010
0001
0010
1000
,
0010
0100
0001
0100
1000
0010
0001
0010
,
0100
1000
0100
0001
0100
0010
0001
0010
,
1000
0100
0001
0100
0010
0001
0010
1000
,
0010
0100
0001
0100
1000
0010
0100
0010
,
0001
0010
0100
1000
0100
0001
1000
0100
,
0010
0100
1000
0001
0010
0100
0001
0100
,
0001
0100
1000
0010
0001
0010
0001
0010
,
1000
0010
0100
0001
0100
1000
0100
0010
,
0001
0010
1000
0100
0001
0100
0010
1000
,
0010
0001
0010
0100
1000
0100
0001
0100
,
1000
0010
0001
0010
0100
1000
0100
0001
,
0010
0100
1000
0100
0010
1000
0010
0100
,
0001
0100
0010
0100
0010
0100
1000
0010
,
0100
0001
0100
0010
1000
0100
0010
0100
,
0001
0100
0010
0100
1000
0010
0100
0001
,
1002
0100
0100
0100
,
0010
0100
0100
0100
,
1000
0100
0100
0100
,
0010
0100
0100
0010
,
1003
0000
0000
0000
;

//---------------dance-single - Renard----------------
#NOTES:
     dance-single:
     Renard:
     Hard:
     8:
     0.539,0.584,0.349,0.063,0.000:
0000
0000
0000
0000
,
0000
0000
0000
0000
,
0000
0000
0000
0000
,
0000
0000
0000
0000
,
0000
0000
0000
0000
,
1000
0001
0100
0000
0010
0000
1000
0000
,
0100
0010
0001
0000
1000
0000
0001
0000
,
0100
0010
1000
0000
0100
0000
0010
0000
,
0001
0010
0100
1000
0010
0100
0001
0010
,
0200
0000
0000
0000
,
0000
0000
0000
0000
,
2300
0000
0000
3020
,
0000
0000
0000
0000
0000
0000
0030
0100
,
0001
0010
0100
0010
0100
0010
0100
0010
,
0100
1000
0100
1000
0100
1000
0100
1000
,
0001
1000
0001
1000
0001
1000
0001
1000
,
0001
0100
0001
0100
0001
0100
0001
0100
,
0010
0100
0010
0100
0010
0100
0010
0100
,
0010
1000
0010
1000
0010
1000
0010
1000
,
0100
1000
0100
1000
0100
1000
0100
0010
,
0001
1000
0001
0100
0010
0000
0010
0000
,
1002
0000
0000
0000
,
0000
0000
0000
0000
,
0000
0000
0000
0000
,
0000
0000
0000
0000
0000
0003
0000
0110
,
1001
0000
0000
0000
,
0000
0000
0000
0000
0000
0000
0000
0110
,
1001
0000
0000
0000
,
0210
0001
1000
0310
,
0010
0100
0001
0100
1000
0100
0010
0100
,
0001
0010
0100
0010
1000
0010
0100
0010
,
0001
0100
1000
0100
0010
0100
0001
0100
,
0001
0010
1000
0010
0100
0010
0001
0000
,
1000
0001
1000
0100
1000
0010
1000
0000
,
0001
1000
0001
0100
0001
0010
0001
0000
,
0001
0100
1000
0100
0010
0100
0001
0000
,
0001
0010
0100
0010
1000
0010
0100
0000
,
0100
1000
0010
1000
0001
1000
0001
0000
,
0001
1000
0001
0100
0001
0010
0001
0000
,
0001
1000
0100
0010
0001
0010
0100
0000
,
0100
1000
0010
0100
0001
0010
0001
0000
,
1000
0100
1000
0010
1000
0001
1000
0000
,
0001
0010
0001
0100
0001
1000
0001
0000
,
0001
0100
0010
0100
1000
0100
0010
0100
,
0001
0010
0100
0010
1000
0010
0100
0010
,
0001
1000
0001
0000
0110
0000
1001
0000
,
1000
0100
0010
0000
1001
0000
0110
0000
,
0010
1000
0100
0000
0110
0000
1001
0000
,
0001
0100
0010
0000
0110
0000
1010
0000
,
1000
0100
0010
0000
0011
0000
0110
0000
,
0100
1000
0010
0000
0110
0000
0101
0000
,
0001
0100
0010
1000
0100
0010
0001
0000
,
0010
0100
1000
0001
0100
0010
1000
0000
,
0010
1000
0100
0000
1100
0000
0011
0000
,
0100
1000
0001
0000
0011
0000
1100
0000
,
0001
0100
0010
1000
0010
0000
1010
0000
,
1000
0100
0010
0001
1000
0000
1001
0000
,
0001
0100
0010
0000
1010
0000
0101
0000
,
0001
1000
0100
0000
0011
0000
0110
0000
,
0110
0000
0100
1000
0010
0000
0100
0001
,
0100
0110
1001
0110
,
2001
0001
0100
0100
,
0010
0010
0001
0001
,
0010
0010
0100
0100
,
0001
0001
0010
0010
,
3001
0000
0000
0000
;

//---------------dance-single - Renard----------------
#NOTES:
     dance-single:
     Renard:
     Medium:
     5:
     0.325,0.378,0.000,0.063,0.000:
0000
0000
0000
0000
,
0000
0000
0000
0000
,
0000
0000
0000
0000
,
0000
0000
0000
0000
,
0000
0000
0000
0000
,
1000
0001
1000
0000
0000
0000
0000
0000
,
0010
0100
0010
0000
0000
0000
0000
0000
,
1000
0001
1000
0000
0000
0000
0000
0000
,
0010
0100
0010
0000
1000
0001
1000
0000
,
0002
0000
0000
0000
,
0000
0000
0000
0000
,
0203
0000
0000
0320
,
0000
0000
0000
0000
0000
0000
0000
1030
,
1000
0000
0000
0000
,
0001
0000
0001
0000
,
0100
0000
0100
0000
,
0010
0000
0010
0000
,
1000
1000
1000
1000
,
0010
0010
0010
0010
,
0100
0100
0100
0100
,
0001
0010
0100
1000
,
0001
0000
1000
0001
1000
0000
0000
0000
,
0000
0000
0000
0000
,
0002
0000
0000
0000
,
0000
0000
0000
0000
,
1003
0000
0001
1000
0002
0000
0000
0000
,
0000
0000
0000
0003
0100
0000
0000
0000
,
0010
0000
0100
0010
0100
0000
0000
0000
,
0020
0000
0000
0000
0000
0000
0000
0030
,
1000
1000
0001
0001
,
0100
0100
0010
0010
,
1000
1000
0100
0100
,
0010
0010
0001
0001
,
1000
0001
1000
0001
,
0100
0010
0100
0010
,
1000
0001
1000
0001
,
1000
0001
1000
0001
,
0100
0100
0001
0001
,
1000
1000
0100
0100
,
0010
0010
0001
0001
,
1000
1000
0010
0010
,
0100
0001
0100
0000
0001
0000
0100
0000
,
0001
1000
0001
0000
1000
0000
0001
0000
,
1000
0100
1000
0000
0100
0000
1000
0000
,
0001
0010
0100
1000
,
0010
0000
1000
0000
0001
0100
0001
0000
,
1000
0100
0010
0001
,
1000
0100
1000
0001
,
1000
0010
0100
0001
,
1000
0100
1000
0000
0010
0000
0100
0000
,
0001
1000
0100
1000
,
0001
0010
0001
1000
,
0010
0100
0001
1000
,
0100
1000
0100
0000
1000
0000
0001
0000
,
0010
0001
1000
0001
,
0100
0001
1000
0010
,
1000
0100
1000
0001
,
1000
0010
1000
0000
0010
0000
0100
0000
,
0001
1000
0100
1000
,
0001
0010
0001
1000
,
0001
0100
0010
1000
,
0001
0001
0001
0001
,
1000
1000
1000
1000
,
0010
0010
0010
0010
,
0100
0100
0100
0100
,
0001
0000
0000
0000
;

//---------------dance-single - Renard----------------
#NOTES:
     dance-single:
     Renard:
     Easy:
     2:
     0.229,0.309,0.011,0.053,0.000: // measure 1
0000
0000
0000
0000
,  // measure 2
0000
0000
0000
0000
,  // measure 3
0000
0000
0000
0000
,  // measure 4
0000
0000
0000
0000
,  // measure 5
0000
0000
0000
0000
,  // measure 6
1000
0000
1000
0000
,  // measure 7
0001
0000
0001
0000
,  // measure 8
0100
0000
0100
0000
,  // measure 9
0010
1000
0001
0100
,  // measure 10
0002
0000
0000
0000
,  // measure 11
0000
0000
0000
2003
,  // measure 12
0000
0000
0000
3200
,  // measure 13
0000
0000
0000
0000
,  // measure 14
0310
0010
0010
0010
,  // measure 15
0001
0000
0001
0000
,  // measure 16
1000
1000
1000
1000
,  // measure 17
0100
0000
0100
0000
,  // measure 18
0010
0010
0010
0010
,  // measure 19
0001
0000
0001
0000
,  // measure 20
1000
1000
1000
1000
,  // measure 21
0200
0000
0000
0000
,  // measure 22
1300
0000
0000
0000
,  // measure 23
0000
0000
0000
0000
,  // measure 24
0000
0000
0000
0000
,  // measure 25
0000
0000
0000
0001
,  // measure 26
0001
0000
0000
0000
,  // measure 27
0000
0000
0100
0100
,  // measure 28
0100
0000
0010
0000
,  // measure 29
2000
0000
0000
0000
,  // measure 30
3010
0010
0010
0010
,  // measure 31
0100
0000
0100
0000
,  // measure 32
0001
0001
0001
0001
,  // measure 33
1000
0000
1000
0000
,  // measure 34
0100
0100
0100
0100
,  // measure 35
0010
0000
0010
0000
,  // measure 36
0001
0001
0001
0001
,  // measure 37
1000
0000
0001
0000
,  // measure 38
0100
0100
0100
0100
,  // measure 39
0010
0000
0010
0000
,  // measure 40
1000
1000
1000
1000
,  // measure 41
0001
0000
0001
0000
,  // measure 42
0100
0001
0100
0001
,  // measure 43
0100
0000
0001
0000
,  // measure 44
1000
0010
1000
0010
,  // measure 45
1000
0000
0010
0000
,  // measure 46
1000
0000
1000
0000
,  // measure 47
0010
0000
0010
0000
,  // measure 48
0100
0000
0100
0000
,  // measure 49
0001
0000
0001
0010
,  // measure 50
0001
0000
0001
0000
,  // measure 51
0010
0000
0010
0000
,  // measure 52
0100
0000
0100
0000
,  // measure 53
1000
0100
1000
0001
,  // measure 54
0100
0000
0001
0000
,  // measure 55
0010
0000
0001
0000
,  // measure 56
0100
0000
0001
0000
,  // measure 57
0010
0001
0010
0000
,  // measure 58
0001
0000
1000
0000
,  // measure 59
0010
0000
1000
0000
,  // measure 60
0100
0000
1000
0000
,  // measure 61
0001
0010
0011
0000
,  // measure 62
0001
0010
0001
0010
,  // measure 63
0001
1000
0001
1000
,  // measure 64
0001
0100
0001
0100
,  // measure 65
0001
1000
0001
1000
,  // measure 66
0001
0000
0000
0000
;
