#TITLE:Haters (Hive Remix);
#SUBTITLE:;
#ARTIST:Loxy & Keaton;
#TITLETRANSLIT:;
#SUBTITLETRANSLIT:;
#ARTISTTRANSLIT:;
#CREDIT:;
#BANNER:haters.png;
#BACKGROUND:haters-bg.png;
#LYRICSPATH:;
#CDTITLE:;
#MUSIC:hater.ogg;
#OFFSET:0.000;
#SAMPLESTART:10.902;
#SAMPLELENGTH:12.000;
#SELECTABLE:YES;
#BPMS:0.000=175.800,32.000=351.600,33.000=175.800;
#STOPS:32.000=0.171
,237.000=0.683
;
#BGCHANGES:;

//---------------dance-single - Renard----------------
#NOTES:
     dance-single:
     Renard:
     Hard:
     9:
     0.731,0.862,0.374,0.273,0.511:
0000
0000
0000
0000
,
0000
0000
0000
0000
,
0000
0000
0000
0000
,
0000
0000
0000
0000
0000
0000
0000
1000
,
0100
0010
0001
0000
0201
0000
0010
0000
,
1000
0000
0000
0000
0310
0000
0100
0001
0010
0000
0000
0000
0100
0000
0100
0000
,
1000
0200
2000
0000
3311
0000
1000
0010
,
0100
0202
1313
0000
,
1001
0000
0000
0000
1001
0000
0000
0100
0000
0000
0010
0000
0000
1000
0000
0100
,
0010
0000
0001
0000
0010
0000
0000
0100
0000
0000
1000
0000
0000
0001
0000
0010
,
0100
0000
1000
0000
0010
0000
0000
0100
0000
0000
0001
0000
0000
0100
0000
0010
,
1000
0000
0010
0000
0100
0000
0000
0001
0000
0000
0010
0000
0000
0100
0000
1000
,
0001
0001
0100
0000
0110
0000
1001
0000
,
1000
0100
0010
0000
0010
0000
0101
0000
,
0001
0100
0010
0000
0010
0000
1100
0000
,
0010
0000
0001
0000
1000
0000
0000
0001
0000
0000
0100
0000
0000
0010
0000
0010
,
1000
0000
0001
0000
0100
0000
0000
0010
0000
0000
1000
0000
0100
0000
0000
0010
,
0001
0000
0010
0000
0100
0000
0000
1000
0000
0000
0010
0000
0000
0100
0000
0001
,
0100
0000
0010
0000
1000
0000
0000
0100
0000
0000
0010
0000
0000
0001
0000
0010
,
0100
0000
1000
0000
0001
0000
0000
0010
0000
0000
0100
0000
0000
1000
0000
0010
,
0100
0000
0001
0000
0100
0000
0000
0010
0000
0000
1000
0000
0000
0010
0000
0100
,
0001
0000
0100
0000
0010
0000
0000
1000
0000
0000
0100
0000
0000
0010
0000
0001
,
0010
0000
0100
0000
0010
0000
0000
0100
0000
0000
1000
0000
0000
0010
0000
0000
,
0101
0000
0000
1001
0000
0000
1100
0000
,
0010
0000
0001
0000
0010
0000
0000
0100
0000
0000
1000
0000
0000
0010
0000
0100
,
0001
0000
0100
0000
0010
0000
0000
1000
0000
0000
0100
0000
0000
0010
0000
0001
,
0010
0000
0100
0000
1000
0000
0000
0010
0000
0000
0100
0000
0000
0001
0000
0100
,
0010
0000
0100
0000
0010
0000
1000
0010
1000
0000
0010
0000
0100
0000
0001
0000
,
0010
0100
0010
0000
0100
1000
0010
0100
,
0001
0100
0010
0000
1000
0100
0010
0001
,
0010
0000
0100
0000
1000
0000
0000
0001
0000
0000
0100
0000
0000
0010
0000
1000
,
0010
0000
1000
0000
1010
0000
0000
1001
0000
0000
1010
0000
0000
1001
0000
0000
,
0110
0000
1000
0010
0100
0001
0010
0100
,
1000
0000
0010
0100
0001
0100
0010
1000
,
0100
0000
0110
0000
0000
0011
0000
1000
,
0010
0100
0001
0100
0010
1000
0001
0100
,
0010
1000
0010
0000
0100
0001
0000
0001
,
0010
0000
0010
0100
0000
0100
1000
0000
,
1000
0200
2000
0000
3311
0000
1000
0010
,
0100
0202
1313
0000
,
1000
1000
0001
0001
0100
0100
0010
0010
,
1000
0000
0000
0000
0010
0000
0000
0000
1000
0000
0000
0000
0001
0000
0000
0000
0100
0000
0000
0000
0001
0000
0000
0000
1000
0000
0000
0000
0000
0000
0001
0000
0000
0000
0000
0000
1000
0000
0000
0100
0000
0000
1000
0000
0000
0100
0000
0000
,
0010
0001
0010
0000
0001
0000
1000
0100
1000
0000
0100
0000
1000
0000
0001
0000
,
0100
0001
0100
0020
2000
0000
3030
0000
,
0001
0100
0001
0200
0000
0000
0010
0000
0000
1000
0000
0000
,
0301
0000
0000
0001
0000
0000
1000
0100
0010
0001
0010
0100
,
1000
0000
0200
2000
3311
0000
0000
1000
,
0010
0200
0002
0000
1313
0000
0000
0000
,
0001
0100
0000
0100
0010
1000
0010
0100
,
0001
0000
1000
0100
1000
0001
0000
0001
,
0010
0000
0100
1000
0100
0000
0010
0001
0010
0000
0001
1000
0001
0000
1000
0001
,
1000
0000
0000
0001
0000
0000
0100
0000
0000
0020
0000
0000
2000
0000
0000
0030
0000
0000
3010
0000
1000
0000
0001
0000
,
0100
0000
0001
0000
1000
0000
0100
0000
1000
0000
0001
0000
1000
0000
0000
0100
0000
0000
0000
0000
0000
0010
0000
0000
,
0001
0100
0010
1000
0001
0000
0101
0000
,
1000
0010
0100
0000
0101
0000
0100
0010
,
1000
0100
1000
0100
1000
0100
1000
0100
1000
0100
1000
0100
1000
0100
1000
0000
,
1001
0000
0000
0000
1001
0000
0000
0010
0000
0000
0100
0000
0000
0001
0000
0010
,
0100
0000
1000
0000
0100
0000
0000
0010
0000
0000
0001
0000
0000
1000
0000
0100
,
0010
0000
0001
0000
0100
0000
0000
0010
0000
0000
1000
0000
0000
0010
0000
0100
,
0001
0000
0000
0000
0000
0000
0000
0000
0200
0000
0000
0000
0000
0000
0000
0000
0020
0330
0000
0000
0000
0000
0000
0000
0000
0000
0000
0000
0000
0000
0000
0000
1000
0000
0000
0000
0000
0000
0000
0000
1000
0000
0000
0000
0000
0000
0000
0000
0010
0000
0000
0000
0000
0000
0000
0000
0000
0000
0000
0000
0000
0000
0000
0000
,
0110
0000
1001
0000
0001
0010
0100
0000
,
0100
0000
1010
0000
1000
0010
0100
0000
,
0100
0000
0000
0000
0011
0000
0000
0000
0100
0000
1000
0000
0001
0000
0000
1000
,
0000
0000
0010
0000
0000
0100
0000
0100
0001
0000
1000
0000
0010
0000
0000
0100
,
0000
0000
0001
0000
0010
0000
0000
0100
1000
0000
0100
0000
0010
0000
0000
0001
,
0000
0000
0100
0000
0000
0010
0000
1000
0010
0000
0100
0000
0001
0000
0000
0010
,
0000
0000
0100
0000
0000
1000
0000
0100
0010
0000
0001
0000
1000
0000
0200
0000
,
0020
0000
0000
0330
0001
0010
0200
0000
,
0001
0010
1000
1300
,
1100
0000
1000
0100
1000
0200
2000
0000
,
3311
0000
1000
0001
1000
0000
0202
0000
,
1313
0000
0000
0000
;

//---------------dance-single - Renard----------------
#NOTES:
     dance-single:
     Renard:
     Medium:
     7:
     0.403,0.503,0.243,0.000,0.000:
0000
0000
0000
0000
,
0000
0000
0000
0000
,
0000
0000
0000
0000
,
0000
0000
0000
0000
,
1000
0001
0100
0100
,
0010
0000
0000
0000
1001
0000
1000
0100
,
1000
0001
1001
0000
,
0001
0100
0110
0000
,
0010
0000
1001
0000
0000
1000
0000
0000
,
0100
0000
0010
0000
0000
0010
0000
0000
,
0001
0000
0100
0000
0000
0100
0000
0000
,
0001
0000
1000
0000
0000
1000
0000
0000
,
0100
0010
0100
0000
0010
0000
0010
0000
,
0000
0000
0001
1000
0001
0000
0001
0000
,
0000
0000
0100
0010
0100
0000
0100
0000
,
0010
1000
1000
0001
,
0100
0100
0001
0001
,
0010
0010
1000
1000
,
0010
0100
1000
0010
,
0100
0000
0001
0000
0000
0001
0000
0000
,
1000
0000
0100
0000
0000
0100
0000
0010
,
0001
0000
1000
0000
0000
1000
0000
0001
,
0100
0000
1001
0000
0000
0110
0000
0000
,
1001
0000
0000
0110
0000
0000
1001
0000
,
1000
0000
0100
0000
0000
0100
0000
0010
,
0001
0000
1000
0000
0000
1000
0000
0010
,
0100
0000
0001
0000
0000
0001
0000
0010
,
0100
0000
1000
0000
0000
0001
0000
0100
,
0010
0100
0010
0000
1000
0000
0010
0000
,
0100
0001
0100
0000
0001
0000
1000
0000
,
0100
1000
0001
0000
0010
0000
0001
0000
,
1000
0000
0001
0000
0000
0001
0000
0000
,
1000
0000
1100
0000
0000
0011
0000
0000
,
0001
0000
0101
0000
0000
1010
0000
0000
,
1000
0000
1010
0000
0000
0101
0000
0000
,
0001
0100
1000
0000
,
1000
0000
0100
0000
0000
0100
0000
0000
,
0001
0000
0000
0010
0000
0000
1000
0000
,
0010
0100
1000
0000
,
0010
0000
1001
0000
,
1000
0100
1000
0000
1000
0000
0001
0000
,
0010
0010
0100
0100
,
1000
0001
1000
0000
0001
0100
0010
1000
,
0001
0000
0100
0010
0100
0000
0000
0010
,
1000
0010
1000
0000
0001
0000
0100
0000
,
1001
0000
1100
0000
0011
0000
0100
1000
,
0100
1000
0101
0000
,
0001
0000
0110
0000
,
1010
0100
0001
0010
,
0100
1000
0001
0000
1000
0000
0001
0000
,
0100
0000
0001
0000
1000
0000
0100
1000
,
0001
0000
0100
0000
0010
0000
0000
1000
,
0010
1000
0010
0000
0100
0001
0000
0100
,
0001
1000
0001
0000
1000
0000
0100
0000
,
1000
0001
1000
0010
,
0100
0010
0100
0010
0100
0000
0010
0000
,
0100
0000
0010
0000
0000
0010
0000
0000
,
1000
0000
0100
0000
0000
0100
0000
0000
,
0010
0000
0010
0000
0000
0010
0000
0000
,
0001
1000
0001
0100
,
0000
0100
0000
0000
0010
0000
0010
0000
,
0000
0010
0000
0000
1000
0000
1000
0000
,
0000
1000
0000
0000
0100
0000
0010
0000
,
0001
1000
0001
0100
,
0000
0100
0000
0000
0010
0000
1000
0000
,
0000
1000
0000
0000
0001
0000
0100
0000
,
0000
0100
0000
0000
0001
0000
0010
0000
,
0000
0000
0100
1000
,
0001
0100
0010
1000
,
1001
0000
1000
0000
0100
1000
0100
0000
,
1000
0001
0100
0010
,
1001
0000
0000
0000
;

//---------------dance-single - Renard----------------
#NOTES:
     dance-single:
     Renard:
     Easy:
     3:
     0.309,0.359,0.091,0.000,0.000: // measure 1
0000
0000
0000
0000
,  // measure 2
0000
0000
0000
0000
,  // measure 3
0000
0000
0000
0000
,  // measure 4
0000
0000
0000
0000
,  // measure 5
1000
0000
1000
0000
,  // measure 6
0001
0000
0110
0000
,  // measure 7
0001
1000
0100
0000
,  // measure 8
1000
0000
0110
0000
,  // measure 9
0010
1000
0000
1000
,  // measure 10
0001
0100
0000
0100
,  // measure 11
0001
1000
0000
1000
,  // measure 12
0100
0010
0010
0000
,  // measure 13
0001
1000
0000
1000
,  // measure 14
0001
0010
0000
0010
,  // measure 15
0100
1000
0000
1000
,  // measure 16
0100
0010
0010
0000
,  // measure 17
0001
0000
0010
0100
,  // measure 18
1000
0000
0001
0010
,  // measure 19
0100
0000
1000
0100
,  // measure 20
0010
0000
0001
0000
,  // measure 21
1000
0001
0000
0100
,  // measure 22
0010
1000
0000
0010
,  // measure 23
0100
0000
0001
0000
0000
0001
0000
0000
,  // measure 24
1000
0000
0000
1000
0000
0000
1000
0000
,  // measure 25
0010
0100
0000
0100
,  // measure 26
0001
1000
0000
1000
,  // measure 27
0100
0010
0000
0010
,  // measure 28
0001
1000
0001
0000
,  // measure 29
0100
0010
0100
0010
,  // measure 30
1000
0010
1000
0000
,  // measure 31
0001
0100
0001
0100
,  // measure 32
0010
0000
0010
0000
,  // measure 33
0100
0010
0000
0010
,  // measure 34
1000
0100
0000
0100
,  // measure 35
0010
0001
0000
0001
,  // measure 36
1000
0001
0100
0000
,  // measure 37
0010
0000
1000
0000
0000
0010
0000
0000
,  // measure 38
1000
0000
0000
0010
0000
0000
1000
0000
,  // measure 39
0010
0100
0010
0000
,  // measure 40
0100
0000
1001
0000
,  // measure 41
1000
0000
0100
0000
,  // measure 42
1000
1000
1000
0000
,  // measure 43
0001
0100
0001
0000
,  // measure 44
1000
0001
1001
0000
,  // measure 45
0001
0100
0001
0010
,  // measure 46
0001
1000
1001
0000
,  // measure 47
0001
0100
0101
0000
,  // measure 48
0001
0000
1001
0000
,  // measure 49
1000
1000
0100
0100
,  // measure 50
0010
0010
0001
0001
,  // measure 51
1000
0000
0001
0000
1000
0000
0010
1000
,  // measure 52
0010
0000
1000
0000
,  // measure 53
0001
0000
0101
0000
,  // measure 54
0001
1000
0100
0000
,  // measure 55
1000
0000
0001
0000
,  // measure 56
0001
0000
1000
0000
0001
0000
1000
0001
,  // measure 57
1000
0000
0001
0000
0000
0001
0000
0000
,  // measure 58
0100
0000
0010
0000
0000
0010
0000
0000
,  // measure 59
1000
0000
0100
0000
0000
0100
0000
0000
,  // measure 60
0010
0001
1000
0010
,  // measure 61
0000
0010
0000
0000
0100
0000
0001
0000
,  // measure 62
0000
0001
0000
0000
0010
0000
0100
0000
,  // measure 63
0000
0100
0000
0000
1000
0000
0010
0000
,  // measure 64
1000
0010
0100
0100
,  // measure 65
0000
0001
0010
0100
,  // measure 66
0000
0100
0000
0000
1000
0000
0100
0000
,  // measure 67
0000
0100
0000
0000
0010
0000
0001
0000
,  // measure 68
0000
0000
1000
0001
,  // measure 69
0100
0010
1000
0001
,  // measure 70
0100
0000
0010
0000
1000
0001
1000
0000
,  // measure 71
0001
0100
0010
1000
,  // measure 72
1001
0000
0000
0000
;
