#TITLE:Hardstyle Disco;
#SUBTITLE:;
#ARTIST:Yoji Biomehanika;
#TITLETRANSLIT:;
#SUBTITLETRANSLIT:;
#ARTISTTRANSLIT:;
#CREDIT:;
#BANNER:disco.png;
#BACKGROUND:disco-bg.png;
#LYRICSPATH:;
#CDTITLE:;
#MUSIC:disco.ogg;
#OFFSET:0.000;
#SAMPLESTART:44.794;
#SAMPLELENGTH:12.000;
#SELECTABLE:YES;
#BPMS:0.000=144.662;
#STOPS:;
#BGCHANGES:;

//---------------dance-single - Renard----------------
#NOTES:
     dance-single:
     Renard:
     Hard:
     7:
     0.472,0.502,0.162,0.036,0.041:
0000
0000
0000
0000
,
0000
0000
0000
0000
,
0000
0000
0000
0000
,
0000
0000
0000
0000
,
0001
0000
0000
0001
1000
0000
0000
1000
0100
0000
0000
0100
0010
0000
0000
0010
,
0001
0000
0000
0001
1000
0000
0000
1000
0010
0000
0100
0000
0001
0000
1000
0000
,
0100
0000
0000
0100
1000
0000
0001
0000
0010
0000
0000
0010
0001
0000
1000
0000
,
0010
0000
0000
0010
0100
0000
0001
0000
1000
0000
0100
0000
0010
0000
0001
0000
,
1000
0001
0000
0001
0000
0001
0000
0001
,
0000
0100
0000
0100
0000
0100
0000
0100
,
0000
0010
0000
0010
0000
0010
0000
0010
,
0000
1000
0000
1000
0000
1000
0000
1000
,
0000
0100
0000
0100
0000
0100
0000
0100
,
0000
0010
0000
0010
0000
0010
0000
0010
,
0000
0001
0000
0001
0000
0001
0000
0001
,
2002
0000
0000
0000
,
0000
0000
0000
0000
0000
3003
0001
1000
,
0001
0000
0100
0010
1000
0000
0000
0000
,
0000
0100
1000
0010
0100
0001
0010
0000
,
0001
1000
0000
1000
0010
0100
0000
0100
,
0001
0010
0100
1000
0001
0010
0001
0000
,
1000
0000
0001
0100
0001
0000
0000
0000
,
0000
0001
1000
0010
0100
0001
1000
0000
,
0100
0000
0100
1000
0010
0000
0010
0100
,
0001
0010
0100
1000
0010
0100
0001
0000
,
2002
0000
0000
0000
,
0000
0000
0000
0000
0000
3003
0001
1000
,
0001
0000
0001
0100
0010
0000
0010
1000
,
0100
1000
0100
1000
0001
0010
0001
0010
,
0100
0000
0100
1000
0010
0000
0010
0100
,
0001
1000
0100
0010
0001
1000
0001
0100
,
0010
0000
0010
1000
0100
0000
0100
1000
,
0001
0010
0001
1000
0010
0100
0001
0000
,
0001
1000
0100
1000
0001
0000
0001
0010
,
0100
1000
0010
1000
0001
0100
1001
0000
,
1001
0001
0001
0001
,
1000
1000
1000
1000
,
0001
0001
0100
0100
,
0010
1000
0010
1000
0100
1000
0100
1000
,
0001
0001
0010
0010
,
0100
1000
0100
1000
0010
1000
0010
1000
,
0001
1000
0001
1000
0001
0100
0001
0100
,
0010
0100
0010
0100
0010
1000
0010
1000
,
0100
1000
0100
1000
0001
0010
0001
0010
,
0100
1000
0010
0100
0001
1000
0100
0010
,
1001
0000
0000
0000
,
0001
0100
0010
1000
0100
1000
0001
0010
,
0001
0100
0010
1000
0100
1000
1100
0000
,
1000
0001
0010
0100
1000
0010
0100
0001
,
0010
0100
1000
0010
0100
0001
0101
0000
,
0001
0100
0010
1000
0100
0010
0001
0010
,
0100
1000
0100
0010
0001
0010
0011
0000
,
0001
0010
0100
1000
0010
0100
0001
0100
,
0010
0100
0001
0100
0010
1000
1010
0000
,
1000
0100
1100
0000
0001
0000
0011
0000
,
0001
0100
0101
0000
0010
0000
1010
0000
,
1000
0100
1100
0000
1000
0000
1010
0000
,
0001
0100
0101
0000
0001
0000
0011
0000
,
0010
0100
0010
0100
1000
0100
1000
0100
,
1000
0001
1000
0001
0010
0001
0010
0000
,
0001
0010
0001
0010
0100
0010
0100
0010
,
0100
1000
0010
0100
0001
0010
0100
1000
,
1001
0000
0000
0000
;

//---------------dance-single - Renard----------------
#NOTES:
     dance-single:
     Renard:
     Challenge:
     9:
     0.518,0.670,0.072,0.036,0.302:
0000
0000
0000
0000
,
0000
0000
0000
0000
,
0000
0000
0000
0000
,
0000
0000
0000
0000
,
0001
0000
0000
0001
1000
0000
0000
1000
0100
0000
0000
0100
0010
0000
0000
0010
,
0001
0000
0000
0001
1000
0000
0000
1000
0010
0000
0100
0000
0001
0000
1000
0000
,
0100
0000
0000
0100
1000
0000
0001
0000
0010
0000
0000
0010
0001
0000
1000
0000
,
0010
0000
0000
0010
0100
0000
0001
0000
1000
0000
0100
0000
0010
0000
0001
0000
,
1000
0001
0000
0001
0000
0001
0000
0001
,
0000
0100
0000
0100
0000
0100
0000
0100
,
0000
0010
0000
0010
0000
0010
0000
0010
,
0000
1000
0000
1000
0000
1000
0000
1000
,
0000
0100
0000
0100
0000
0100
0000
0100
,
0000
0010
0000
0010
0000
0010
0000
0010
,
0000
0001
0000
0001
0000
0001
0000
0001
,
2002
0000
0000
0000
,
0000
0000
0000
0000
0000
3003
0001
1000
,
0001
0000
0100
0010
1000
0000
0000
0000
,
0000
0100
1000
0010
0100
0001
0010
0000
,
0001
1000
0000
1000
0010
0100
0000
0100
,
0001
0010
0100
1000
0001
0010
0001
0000
,
1000
0000
0001
0100
0001
0000
0000
0000
,
0000
0001
1000
0010
0100
0001
1000
0000
,
0100
0000
0100
1000
0010
0000
0010
0100
,
0001
0010
0100
1000
0010
0100
0001
0000
,
2002
0000
0000
0000
,
0000
0000
0000
0000
0000
3003
0001
1000
,
0001
0000
0001
0100
0010
0000
0010
1000
,
0100
1000
0100
1000
0001
0010
0001
0010
,
0100
0000
0100
1000
0010
0000
0010
0100
,
0001
1000
0100
0010
0001
1000
0001
0100
,
0010
0000
0010
1000
0100
0000
0100
1000
,
0001
0010
0001
1000
0010
0100
0001
0000
,
0001
1000
0100
1000
0001
0000
0001
0010
,
0100
1000
0010
1000
0001
0100
1001
0000
,
1001
0001
0001
0001
,
1000
1000
1000
1000
,
0000
0001
0000
0000
1000
0000
0001
0000
0100
0000
0010
0000
1000
0000
0100
1000
,
0000
0001
0010
0000
0001
0000
1000
0001
0000
0100
0001
0000
0000
0000
0000
0000
,
0000
0001
0000
0000
1000
0000
0010
0000
0100
0000
0001
0000
1000
0000
0100
1000
,
0000
0001
0010
0000
0001
0000
1000
0010
0000
0100
0001
0000
0000
0000
0000
0000
,
0000
1000
0000
0000
0010
0000
0100
0000
0001
0000
0100
0000
0010
0000
1000
0100
,
0000
1000
0001
0000
0010
0000
0001
1000
0000
0001
0100
0000
0000
0000
0000
0000
,
0000
0010
0000
0000
1000
0000
0010
0000
0100
0000
0001
0000
0100
0000
0010
1000
,
0000
0100
0010
0000
0001
0000
0010
0100
0000
1000
0001
0000
0100
0000
0001
0000
,
1001
0000
0000
0000
,
0000
0001
1000
0000
0010
0000
0100
0000
0001
0000
0100
0000
0010
0000
1000
0100
,
0000
0010
0001
0000
0010
0000
0100
1000
0000
0001
0010
0000
0100
0000
1000
0000
,
0001
0100
0010
0000
1000
0000
0010
0000
1000
0000
0100
0000
0010
0000
0001
0010
,
0000
0100
1000
0000
0001
0000
0100
0010
0000
1000
0010
0000
0100
0000
0001
0000
,
0100
0010
1000
0000
0100
0000
0010
0000
0001
0000
0010
0000
0100
0000
1000
0001
,
0000
0100
0010
0000
1000
0000
0100
0010
0000
0001
0010
0000
0100
0000
1000
0000
,
0001
0100
0001
0000
0100
0000
0010
0000
1000
0000
0100
0000
0010
0000
0001
0010
,
0000
0100
1000
0000
0001
0000
0100
0000
0010
0000
1000
0000
0100
0000
1000
0000
,
0001
0100
0001
0000
0100
0000
0010
0000
1000
0000
0100
0000
0010
0000
0001
0010
,
0000
0100
1000
0000
0010
0000
0100
0001
0000
0100
0010
0000
1000
0000
0100
0000
,
1000
0001
1000
0000
0001
0000
0100
0000
0010
0000
1000
0000
0100
0000
1000
0001
,
0000
0010
0001
0000
1000
0000
0010
1000
0000
0010
1000
0000
0001
0000
0100
0000
,
0001
0100
0001
0000
0100
0000
0010
0000
1000
0000
0100
0000
0010
0000
0001
0010
,
0000
0100
1000
0000
0010
0000
0100
0001
0000
0100
0001
0000
0100
0000
0001
0000
,
0001
0010
0001
0000
1000
0000
0100
0000
1000
0000
0010
0000
1000
0000
0001
1000
,
0000
0001
0100
0000
0001
0000
0010
0100
1000
0001
0100
0000
0101
0000
1001
0000
,
1010
0000
0000
0000
;

//---------------dance-single - Renard----------------
#NOTES:
     dance-single:
     Renard:
     Medium:
     5:
     0.258,0.307,0.036,0.009,0.000:
0000
0000
0000
0000
,
0000
0000
0000
0000
,
0000
0000
0000
0000
,
0000
0000
0000
0000
,
1000
0001
1000
0001
,
0100
0010
0100
0010
,
1000
1000
0001
0001
,
0100
0010
1000
0001
,
1001
0000
0000
0000
,
0000
0000
0000
0000
,
0000
0000
0000
0000
,
0000
0000
0000
0000
,
1000
0100
0000
0100
0000
0100
0000
0100
,
0010
0001
0000
0001
0000
0001
0000
0001
,
1000
0010
0000
0010
0000
0010
0000
0010
,
1001
0000
0000
0000
,
0000
0000
0000
0000
0000
0000
1000
0100
,
1000
0000
0001
0010
0001
0000
0000
0000
,
0000
1000
0010
0100
,
0001
0001
0010
0000
,
0000
0100
1000
0010
,
0100
0000
0001
0100
0001
0000
0000
0000
,
0000
1000
0100
0010
,
0001
0000
1000
0001
1000
0000
0000
0000
,
0000
0010
0100
0001
,
1000
0000
0000
0000
,
0000
0000
0000
0000
0000
0000
0100
1000
,
0100
0000
1000
0001
1000
0000
0000
0000
,
0000
0001
0100
0010
,
1000
0000
0001
0100
0001
0000
0000
0000
,
0000
1000
0100
0010
,
0001
0000
1000
0001
1000
0000
0000
0000
,
0000
0010
0100
0001
,
1000
0000
0001
1000
0001
0000
0000
0000
,
0000
0100
0010
1000
,
0001
0001
1000
1000
,
0001
0001
2000
0000
,
3010
0000
0010
0000
,
0100
0100
0100
0100
,
0001
0000
0001
0000
,
1000
1000
1000
0000
,
0100
0000
0100
0000
,
0010
0010
0001
0001
,
1000
0000
1000
0000
,
0010
0010
0100
0100
,
1001
0000
0000
0000
,
0001
0001
0100
0100
,
0010
0000
1000
0010
1000
0000
0000
0000
,
0100
0100
0010
0010
,
0001
0000
0001
1000
0001
0000
1000
0000
,
0001
0001
0100
0100
,
0010
0000
1000
0010
1000
0000
0010
0000
,
0100
0100
0001
0001
,
1000
0000
0100
1000
0100
0000
1000
0000
,
0001
0001
0010
0010
,
0100
0000
1000
0100
1000
0000
0100
0000
,
0010
0010
0001
0001
,
1000
0000
0001
1000
0001
0000
0100
0000
,
0010
0010
1000
1000
,
0100
0000
1000
0001
1000
0000
0001
0000
,
0100
0100
0001
0001
,
0010
0000
0100
0010
0100
0000
1000
0000
,
0110
0000
0000
0000
;

//---------------dance-single - Renard----------------
#NOTES:
     dance-single:
     Renard:
     Easy:
     2:
     0.193,0.279,0.027,0.027,0.000: // measure 1
0000
0000
0000
0000
,  // measure 2
0000
0000
0000
0000
,  // measure 3
0000
0000
0000
0000
,  // measure 4
0000
0000
0000
0000
,  // measure 5
1000
0000
0001
0000
,  // measure 6
1000
0000
0001
0000
,  // measure 7
0100
0000
0010
0000
,  // measure 8
0100
0010
1000
0001
,  // measure 9
0200
0000
0000
0000
,  // measure 10
0000
0000
0000
0000
,  // measure 11
0000
0000
0000
0000
,  // measure 12
0000
0000
0000
0000
,  // measure 13
0000
0000
0000
0000
,  // measure 14
0000
0000
0000
0000
,  // measure 15
0000
0000
0000
0000
,  // measure 16
1301
0000
0000
0000
,  // measure 17
0000
0000
0000
0000
,  // measure 18
0001
0000
0001
0000
,  // measure 19
0000
0100
0010
1000
,  // measure 20
0100
0000
0100
0000
,  // measure 21
0000
0010
0001
1000
,  // measure 22
0010
0000
0010
0000
,  // measure 23
0000
0100
0001
1000
,  // measure 24
0100
0000
0100
0000
,  // measure 25
0000
0010
0001
1000
,  // measure 26
0002
0000
0000
0000
,  // measure 27
0000
0000
0000
0103
,  // measure 28
0001
0100
0001
0000
,  // measure 29
1000
0010
1000
0000
,  // measure 30
0100
1000
0100
0000
,  // measure 31
0010
0001
0010
0000
,  // measure 32
0001
1000
0001
0000
,  // measure 33
0100
0010
0100
0000
,  // measure 34
0001
1000
0001
0000
,  // measure 35
1000
0010
1000
0001
,  // measure 36
0100
0000
0100
0000
,  // measure 37
0100
0000
0200
0000
,  // measure 38
0301
0000
0001
0000
,  // measure 39
1000
0100
0010
0000
,  // measure 40
0001
0000
1000
0000
,  // measure 41
0001
0100
0010
0000
,  // measure 42
1000
0000
0001
0000
,  // measure 43
1000
0100
0010
0000
,  // measure 44
0001
0000
1000
0000
,  // measure 45
0001
0010
0100
0000
,  // measure 46
1001
0000
0000
1000
,  // measure 47
0001
1000
0001
1000
,  // measure 48
0010
0100
0010
0100
,  // measure 49
1000
0001
1000
0001
,  // measure 50
0010
0100
0010
0100
,  // measure 51
1000
0001
1000
0001
,  // measure 52
0010
0100
0010
0100
,  // measure 53
1000
0001
1000
0001
,  // measure 54
0010
0100
0010
0100
,  // measure 55
0010
0100
0010
0000
,  // measure 56
1000
0001
1000
0000
,  // measure 57
0010
0100
0010
0000
,  // measure 58
1000
0001
1000
0000
,  // measure 59
0010
0100
0010
0000
,  // measure 60
1000
0001
1000
0000
,  // measure 61
0010
0100
0010
1000
,  // measure 62
0100
0010
0001
1000
,  // measure 63
1001
0000
0000
0000
;
