#TITLE:Harder, Better, Faster, Stronger;
#SUBTITLE:;
#ARTIST:Daft Punk;
#TITLETRANSLIT:;
#SUBTITLETRANSLIT:;
#ARTISTTRANSLIT:;
#CREDIT:;
#BANNER:harder.png;
#BACKGROUND:harder-bg.png;
#LYRICSPATH:;
#CDTITLE:;
#MUSIC:harder.ogg;
#OFFSET:0.000;
#SAMPLESTART:23.325;
#SAMPLELENGTH:12.000;
#SELECTABLE:YES;
#BPMS:0.000=123.475;
#STOPS:;
#BGCHANGES:;

//---------------dance-single - Renard----------------
#NOTES:
     dance-single:
     Renard:
     Challenge:
     9:
     0.688,0.659,0.889,0.000,0.304:
0000
0000
0000
0000
,
0000
0000
0000
0000
,
0100
0001
0100
0000
0101
0000
0100
0000
0101
0000
0100
0000
0101
0000
0100
0000
,
0101
0000
0100
0000
0101
0000
0100
0000
0100
0001
0100
0000
0101
0000
0000
0000
,
0110
0010
1000
0000
0110
0010
0011
0000
,
0101
0100
0110
0000
1010
1000
1100
0000
,
0100
1000
0100
1000
0100
1000
0100
1000
,
0010
0000
0000
0010
0100
0000
0001
0000
0010
0000
0010
0001
0010
0000
0001
0000
,
0100
0010
1010
0100
0000
0000
0011
0100
,
0000
0000
1001
0100
0000
0000
1001
0010
,
1001
1010
0101
1001
,
1001
1000
1001
0001
1001
1000
1000
1000
,
0010
0010
0100
0100
0001
1000
0001
1000
,
0010
0000
0010
0000
0100
0000
0100
0000
0001
1000
0001
0000
1000
0000
0001
0000
,
1000
0001
0010
0001
1000
0001
1000
0001
,
1000
0100
1000
0001
1000
0001
1000
0000
,
1001
1000
1010
1000
1001
1000
1100
0000
,
1001
0001
0011
0001
0101
0001
1001
0000
,
1001
1010
0101
0011
,
1000
0100
1000
0000
0001
0000
0010
0000
0001
0100
0001
0000
0100
0000
0010
0000
,
0110
0100
0101
0100
1100
0100
0110
0100
,
0101
0100
1100
0100
0110
0100
0101
0100
,
1100
0100
0101
0100
1100
0100
0101
0100
,
0110
0100
0110
0100
0110
0100
0110
0000
,
0110
0010
1010
0010
0011
0010
1010
0010
,
0110
0010
1010
0010
0110
0010
1010
0010
,
0011
0010
1010
0010
0011
0010
1010
0010
,
0011
0010
0110
0000
0100
0100
0100
0100
,
0010
0000
1000
0000
0100
0000
0010
0000
0001
1000
0001
1000
0000
0001
0000
0100
,
0000
0000
0010
0000
1000
0000
0100
0000
0010
0001
1000
0001
0000
0000
0100
0000
,
0010
1000
0000
0001
0000
0100
0010
0000
1000
0000
0100
0000
0010
0000
0001
0010
,
0000
0100
0000
1000
0000
0001
0100
0000
0110
0000
0100
0000
1100
0000
0100
0000
,
0101
0000
0101
0000
0000
0000
0000
0000
0100
0000
0010
0000
1000
0100
1000
0000
,
0100
0010
0001
1000
0001
0100
0010
0100
,
0001
0100
0001
0100
0010
0100
0010
0100
0010
1000
0010
1000
0001
0000
1000
0000
,
0100
0100
0010
0010
0001
0001
0100
0100
,
1000
0000
0000
0000
1100
0000
0101
0000
0000
0000
0100
0000
0010
1000
0000
1000
,
0010
0000
0100
0000
0011
0000
0100
0000
1000
0000
0010
0000
0101
0000
0000
0010
,
1000
0000
0100
0000
0011
0000
0100
0000
1000
0000
0010
0000
0101
0000
0000
0100
,
0010
0000
1000
0100
0010
0000
0001
0000
0010
0100
1000
0000
0010
0000
0001
0100
,
0010
0000
1001
0000
0110
0000
1001
0000
1010
0000
0000
0101
0000
0000
1000
0100
,
0000
0000
0100
0000
0010
0000
0001
0000
0010
0100
0000
0100
1000
0000
0110
0000
,
0001
0000
0100
0000
0010
0000
1000
0000
0001
0100
0000
0100
0010
0000
1000
0000
,
0100
0000
0010
0000
0001
0000
0010
0001
0000
0011
0000
0110
0000
1100
0000
1001
,
0000
0000
1000
0010
1000
0000
0001
0000
0100
0001
0000
1001
0000
1100
0000
0011
,
0000
0000
0001
0000
1000
0000
0010
0000
0100
0001
1000
0001
0000
1001
0000
1010
,
0000
0000
0101
0000
0010
0000
1000
0001
0010
0100
0000
1000
0000
0001
0010
0000
,
0001
0000
0001
0000
0010
0000
0010
0000
0100
0010
0000
0100
1000
0000
0010
0000
,
0100
0001
0100
0000
0010
0000
1000
0000
0001
0100
0001
0000
1000
0001
1000
0000
,
0100
1000
0100
0000
0010
0001
0010
0000
0001
0000
1000
0000
0010
0000
0100
0000
,
0000
0000
0001
0000
0100
0000
0010
0000
1000
0010
0000
0010
1000
0000
0010
0000
,
0100
0001
0010
0001
1000
1000
0010
0010
,
0100
0100
0001
0010
0100
0000
0110
0000
,
0100
1000
0010
0010
0100
0100
0110
0000
,
0100
0001
0010
0110
0100
1000
0010
0110
,
0101
0100
1100
0100
0010
0010
0010
0010
;

//---------------dance-single - Renard----------------
#NOTES:
     dance-single:
     Renard:
     Hard:
     8:
     0.551,0.557,0.390,0.000,0.190:
0000
0000
0000
0000
,
0000
0000
0000
0000
,
0000
0000
0000
0000
,
0000
0000
0000
0000
1000
0100
0010
0001
,
1000
0001
1001
0000
0010
0100
0110
0000
,
0001
1000
1001
0000
0100
0010
0110
0000
,
1010
0000
1001
0000
1100
0000
1000
0100
,
0010
0000
0011
0000
0110
0000
0100
1000
,
0010
0100
0001
0000
1000
0100
0010
0000
,
0100
1000
0010
0000
0100
0001
0010
0000
,
0100
0100
0100
0100
0100
0100
0100
0100
,
0100
0100
0100
0100
0010
0001
1000
0100
,
0010
0001
0011
0010
0100
1000
1100
1000
,
0010
1000
1010
0010
0100
0001
0101
0001
,
0010
0100
1000
0000
0001
0010
0100
0000
,
1000
0001
0010
0000
0100
1000
0001
0000
,
0010
0001
0011
0001
0100
0010
0110
0010
,
1000
0100
1100
1000
0001
0100
0101
0100
,
0010
1000
0100
0001
0100
0010
0001
0010
,
1000
0010
0100
0001
0100
1000
0010
0100
,
0001
0100
1000
0100
0010
0100
0001
0100
,
0001
0010
0100
0010
1000
0010
0100
0010
,
0001
1000
0010
1000
0100
1000
0001
1000
,
0001
0100
0001
0010
0001
1000
0001
0000
,
0101
0100
0110
0000
0110
0100
1100
0000
,
1100
0100
0101
0000
0101
0100
0110
0000
,
1010
1000
1001
0000
1001
0001
0101
0000
,
0011
0010
0110
0010
1010
0010
0110
0000
,
0010
0000
0001
0000
0010
0000
0100
0000
1000
0001
0000
0100
0000
0010
0000
1000
,
0000
0000
0010
0000
0100
0000
0001
0000
0010
0100
0000
1000
0000
0000
0000
0000
,
0001
0100
0000
0001
0000
1000
0100
0000
0010
0000
0001
0000
0010
0000
0100
1000
,
0000
0001
0000
0010
0000
0001
1000
0000
0001
0000
0100
0000
0010
0000
1000
0000
,
0010
0010
0100
0001
0010
0100
1000
0100
,
0010
0010
0001
0001
0010
0010
0100
0100
,
1000
0100
1000
0000
0001
1000
0001
0000
1000
0010
1000
0000
0001
0000
1000
0000
,
0001
0100
0010
1000
0001
0001
0100
0100
,
0001
0000
0000
0000
1001
0000
1000
0000
0000
0000
0100
0000
0010
0001
0000
0010
,
0100
0000
1000
0000
0001
0000
0100
0000
0000
0000
0010
0000
0000
1000
0000
0000
,
0001
0000
0100
0000
0101
0000
0100
0000
0000
0000
0010
0000
0000
1000
0000
0000
,
0100
0000
0010
0000
0001
0000
0010
0000
0000
0000
0100
0000
0000
1000
0000
0000
,
0010
0000
0100
0000
0001
0000
0100
0000
0010
0000
0000
1000
0000
0000
0000
0010
,
0000
1000
0100
0010
0001
0010
0000
0100
,
1000
0001
0100
0010
1000
0001
0100
0010
,
1000
0000
0001
0000
1000
0000
0100
0000
0000
0001
0000
0011
0000
0011
0000
0011
,
0000
0000
0010
0000
0100
0000
1000
0000
0001
0100
0000
0010
0000
1010
0000
1010
,
0000
0000
1000
0000
0100
0000
0010
0000
0001
1000
0000
0001
0000
1001
0000
1001
,
0000
0000
0001
0000
0100
0000
0000
0010
1000
0010
0000
1000
0000
0000
0000
0000
,
0001
0000
0001
0000
0100
0000
0100
0000
0001
1000
0000
1000
0001
0000
1000
0000
,
0010
0100
0000
0000
0010
1000
0001
0100
,
0001
0001
1000
1000
0010
0010
0100
0100
,
0001
0000
1000
0000
0100
0000
0010
0000
0001
0010
0000
0011
0000
0000
0000
0000
,
0010
0000
0100
0000
1000
0010
1000
0001
,
0100
0100
0010
0010
1000
1000
0001
0001
,
0100
0100
0010
0010
1000
1000
0001
0001
,
0100
0100
0010
0010
1000
1000
0001
0001
,
0100
0100
0010
0010
1000
1000
1000
1000
;

//---------------dance-single - Renard----------------
#NOTES:
     dance-single:
     Renard:
     Medium:
     6:
     0.363,0.405,0.227,0.018,0.000:
0000
0000
0000
0000
,
0000
0000
0000
0000
,
0000
0000
0000
0000
,
0000
0000
0000
0000
,
1000
1000
0001
0000
0100
0100
0010
0000
,
1000
1000
0001
0000
0100
0100
0010
0000
,
1000
1010
0100
0101
,
0010
0011
1000
1100
,
1000
0001
0100
0000
0001
1000
0100
0000
,
1000
0001
0100
0000
0001
1000
0100
0000
,
1000
0100
1000
0100
1000
0100
1000
0100
,
1000
0100
1000
0100
0010
0000
0010
0000
,
0001
0001
0010
0000
0100
0100
1000
0000
,
0001
0001
0100
0000
0010
0010
1000
0000
,
0010
0010
0010
0010
,
0010
0010
0010
0010
,
0100
0100
0001
0000
0010
0010
0100
0000
,
1000
1000
0010
0000
0100
0100
0001
0000
,
1000
1000
0001
0001
,
0100
0010
0100
0010
0100
0000
0010
0000
,
1000
1000
1010
1010
,
0100
0100
0101
0101
,
0010
0010
0011
0011
,
1000
1000
1100
1100
,
1000
1001
1000
1001
,
0001
1001
0001
1001
,
0100
0110
0100
0110
,
0010
0110
1001
0000
,
1000
0000
1000
0000
0001
0100
0001
0000
,
1000
0000
1000
0000
0001
0010
0001
0000
,
1000
0000
0100
0000
1000
0001
1000
0000
,
0001
0000
0100
0000
0010
0100
0010
0100
,
0010
0010
1000
1000
,
0001
0001
0100
0001
,
1000
0100
1000
0100
1000
0100
1000
0100
,
1000
0001
0200
0000
,
0301
0000
0000
1000
0000
0100
1000
0000
,
0001
0000
0000
0100
0000
0001
0000
0000
,
1000
0000
0000
0100
0000
0010
0001
0000
,
1000
0000
0000
0010
0000
0100
0000
0001
,
1000
0100
1000
0001
1000
0000
0100
0000
,
1000
0000
0001
0000
0010
0001
0010
0000
,
0001
0010
0100
1000
,
0001
1000
0001
0000
1000
0000
0001
0000
,
0100
0001
0100
0000
0001
0000
0010
0000
,
0100
0000
1000
0000
0001
1000
0100
0000
,
1000
0000
0001
0000
1000
0010
1000
0000
,
0001
0001
2000
0000
,
3001
0000
0101
0000
0001
1000
0100
0000
,
1000
1001
1000
1001
,
0001
1001
0001
1001
,
0100
0100
0010
0010
,
1000
1000
0010
0010
,
0100
0100
0001
0001
,
1000
0001
1000
0001
1000
0001
1000
0001
,
1000
0001
1000
0001
1000
1000
1000
1000
;

//---------------dance-single - Renard----------------
#NOTES:
     dance-single:
     Renard:
     Easy:
     2:
     0.246,0.277,0.290,0.045,0.000: // measure 1
0000
0000
0000
0000
,  // measure 2
0000
0000
0000
0000
,  // measure 3
0000
0000
0000
0000
,  // measure 4
0000
0000
0000
0000
,  // measure 5
1000
0000
0001
0000
,  // measure 6
1000
0000
0001
0000
,  // measure 7
0100
0100
0100
0100
,  // measure 8
0100
0100
0100
0100
,  // measure 9
0001
0000
1000
0000
,  // measure 10
0001
0000
1000
0000
,  // measure 11
0010
0010
0010
0010
,  // measure 12
0010
0010
0010
0010
,  // measure 13
0100
0001
0100
0001
,  // measure 14
1000
0010
1000
0010
,  // measure 15
1000
0000
0100
0000
,  // measure 16
0010
0000
0001
0000
,  // measure 17
1000
0100
1000
0100
,  // measure 18
1000
0010
1000
0010
,  // measure 19
0100
0100
0100
0100
,  // measure 20
0010
0010
0100
0100
,  // measure 21
0010
0010
0100
0000
,  // measure 22
0001
0001
1000
0000
,  // measure 23
0100
0100
0010
0000
,  // measure 24
1001
1001
1001
0000
,  // measure 25
0010
0100
0010
0100
,  // measure 26
0001
1000
0001
1000
,  // measure 27
0200
0000
0320
0000
,  // measure 28
0032
0000
2003
0000
,  // measure 29
3100
0100
0100
0100
,  // measure 30
0010
0010
0010
0010
,  // measure 31
0001
0001
0001
0001
,  // measure 32
1000
1000
1000
1000
,  // measure 33
0001
0000
1000
0001
,  // measure 34
0100
0000
0010
0100
,  // measure 35
0010
0010
0010
0010
,  // measure 36
0100
0001
2000
0000
,  // measure 37
3100
1100
0000
0011
,  // measure 38
0000
0011
0000
1100
,  // measure 39
0000
1100
0000
0011
,  // measure 40
0000
0011
0000
1100
,  // measure 41
1000
1000
1000
0000
,  // measure 42
0001
0001
0001
0000
,  // measure 43
0100
0000
0010
0000
,  // measure 44
0100
0000
0001
0000
,  // measure 45
0000
1010
0000
0101
,  // measure 46
0000
0011
0000
1100
,  // measure 47
0000
1010
0000
0101
,  // measure 48
1001
0000
0000
0000
,  // measure 49
1000
1001
0000
0101
,  // measure 50
0000
0110
0000
1010
,  // measure 51
0001
1001
0000
0101
,  // measure 52
0000
0011
0000
1001
,  // measure 53
1000
1100
0000
1010
,  // measure 54
0100
0110
0000
1001
,  // measure 55
0010
1001
0000
1000
,  // measure 56
0001
0100
0110
0000
;
