#TITLE:Hardcore Disco (Plus System Remix);
#SUBTITLE:;
#ARTIST:Bass-X;
#TITLETRANSLIT:;
#SUBTITLETRANSLIT:;
#ARTISTTRANSLIT:;
#CREDIT:;
#BANNER:disco.png;
#BACKGROUND:disco-bg.png;
#LYRICSPATH:;
#CDTITLE:;
#MUSIC:disco.ogg;
#OFFSET:0.000;
#SAMPLESTART:22.090;
#SAMPLELENGTH:12.000;
#SELECTABLE:YES;
#BPMS:0.000=173.675;
#STOPS:;
#BGCHANGES:0.000=dance=1.000=0=1=1,
0.500=dance2=1.000=0=1=1,
1.000=dance3=1.000=0=1=1,
1.500=dance4=1.000=0=1=1,
2.000=dance5=1.000=0=1=1,
3.500=dance6=1.000=0=1=1,
4.500=dance7=1.000=0=1=1,
5.500=dance6=1.000=0=1=1,
8.000=dance10=1.000=0=1=1,
8.500=dance11=1.000=0=1=1,
9.000=dance12=1.000=0=1=1,
9.500=dance10=1.000=0=1=1,
10.000=dance11=1.000=0=1=1,
11.500=dance9=1.000=0=1=1,
12.500=dance8=1.000=0=1=1,
13.500=dance9=1.000=0=1=1,
16.000=dance=1.000=0=1=1,
16.500=dance10=1.000=0=1=1,
17.000=dance6=1.000=0=1=1,
17.500=dance5=1.000=0=1=1,
18.000=dance8=1.000=0=1=1,
19.500=dance10=1.000=0=1=1,
20.500=dance11=1.000=0=1=1,
21.500=dance12=1.000=0=1=1,
24.000=dance=1.000=0=1=1,
24.500=dance11=1.000=0=1=1,
25.000=dance2=1.000=0=1=1,
25.500=dance8=1.000=0=1=1,
26.000=dance4=1.000=0=1=1,
27.500=dance10=1.000=0=1=1,
28.500=dance7=1.000=0=1=1,
29.500=dance9=1.000=0=1=1,
32.000=text1=1.000=0=1=1,
33.000=text2=1.000=0=1=1,
34.000=text3=1.000=0=1=1,
35.000=dance=1.000=0=1=1,
36.000=text1=1.000=0=1=1,
37.000=text2=1.000=0=1=1,
38.000=text3=1.000=0=1=1,
39.000=dance2=1.000=0=1=1,
40.000=text1=1.000=0=1=1,
41.000=text2=1.000=0=1=1,
42.000=text3=1.000=0=1=1,
43.000=dance3=1.000=0=1=1,
44.000=text1=1.000=0=1=1,
45.000=text2=1.000=0=1=1,
46.000=text3=1.000=0=1=1,
47.000=dance4=1.000=0=1=1,
48.000=text1=1.000=0=0=1,
49.000=dance3=1.000=0=0=1,
50.000=text2=1.000=0=0=1,
51.000=dance=1.000=0=0=1,
52.000=text3=1.000=0=0=1,
54.000=dance3=1.000=0=0=1,
56.000=text1=1.000=0=0=1,
57.000=dance3=1.000=0=0=1,
58.000=text2=1.000=0=0=1,
59.000=dance6=1.000=0=0=1,
60.000=text3=1.000=0=0=1,
62.000=1003_JumpBack[1].avi=2.000=0=0=1,
64.000=bgspeakers=1.400=0=0=1,
92.000=dance12=1.000=0=0=1,
95.000=1003_JumpBack[1].avi=2.000=0=0=1,
96.000=peoplerainbow=1.000=0=0=1,
156.000=text1=1.000=0=0=1,
156.500=text2=1.000=0=0=1,
157.000=text3=1.000=0=0=1,
158.000=disco-bg.png=1.000=1=0=1,
160.000=bgspeakers=1.800=0=0=1,
252.000=disco-bg.png=1.000=1=0=1,
255.000=1003_JumpBack[1].avi=2.000=0=0=1,
256.000=995_JumpBack[1].avi=1.000=0=0=1,
283.500=text1=1.000=0=0=1,
284.500=text2=1.000=0=0=1,
285.500=text3=1.000=0=0=1,
99999=-nosongbg-=1.000=0=0=0 // don't automatically add -songbackground-
;

//---------------dance-single - Renard----------------
#NOTES:
     dance-single:
     Renard:
     Hard:
     9:
     0.713,0.644,0.421,0.030,0.115:
0000
0000
0000
0000
,
0000
0000
0000
0000
,
0000
0000
0000
0000
,
0000
0000
0000
0000
,
0001
0100
0001
0100
0010
0000
0000
1010
,
0000
1001
0000
1100
0000
0001
0010
0000
,
0001
0100
0001
0100
0001
0000
0000
1100
,
0000
0011
0000
1001
0000
1000
0010
0000
,
1000
0010
0000
0100
0001
0000
0010
0000
0100
0000
1000
0000
0010
0000
0100
0000
,
0001
1000
0100
0010
0001
0000
1001
0000
,
0001
0100
0000
0010
1000
0000
0001
0000
0010
0000
0100
0000
1000
0000
0001
0000
,
0100
0010
1000
0001
0100
0000
1001
0000
,
1000
0100
0000
0010
0001
0000
1000
0000
0010
0000
0100
0000
0001
0000
0100
0000
,
0010
1000
0000
0001
0100
0000
0001
0000
1000
0000
0100
0000
0010
0000
0000
0000
,
0001
0010
0000
0100
1000
0000
0010
0000
0100
0000
0001
0000
0100
0000
0000
0000
,
1001
0000
0000
0000
2002
0000
0000
3003
,
1000
0010
0100
0001
0010
0100
1000
0010
,
1000
0001
0010
0001
0100
0001
1000
0100
,
0010
0001
1000
0010
0100
0001
0010
0100
,
0010
1000
0010
0001
0010
0001
0100
0010
,
1000
0001
1000
0100
0010
0001
0010
0100
,
0010
1000
0010
0001
0100
0010
1000
0001
,
1000
0100
0010
0001
0100
0010
0100
1000
,
0100
0000
0000
0110
,
0001
0000
0100
0000
0010
0000
1000
0000
0100
0000
0000
0010
0000
0000
0001
0000
,
1000
0000
0001
0000
0100
0000
0010
0000
1000
0000
1000
0010
0000
0000
0100
0000
,
0001
0000
0010
0000
0100
0000
1000
0000
0001
0000
0000
0100
0000
0000
0010
0000
,
1000
0000
0100
0000
0010
0000
0001
0000
1000
0000
1000
0001
0000
0000
0100
0000
,
0010
0000
1000
0000
0100
0000
0010
0000
0001
0000
0000
0100
0000
0000
0001
0000
,
1000
0000
0100
0000
0010
0000
0001
0000
1000
0000
0000
0010
0000
0000
0100
0000
,
0001
0000
0100
0000
0010
0000
1000
0000
0100
0000
0000
0010
0000
0000
0001
0000
,
1000
0000
0010
0000
0100
0000
0001
0000
1000
0000
1000
0001
0000
0000
0100
0000
,
0010
1000
0010
1000
0001
1000
0100
0010
,
0001
0000
0010
0000
0100
0000
1000
0000
0010
0000
0100
0001
0100
0000
0010
0000
,
1000
0100
0010
0001
0010
0100
1000
0001
,
0100
0000
0010
0000
1000
0000
0100
0000
0010
0000
0001
1000
0001
0000
1000
0000
,
0010
0100
0001
0010
0001
1000
0010
0100
,
0001
0000
1000
0000
0100
0000
1000
0000
0001
0000
0010
0001
0010
0000
0001
0000
,
1000
0010
0100
0001
1000
0100
0010
0001
,
1000
0001
1000
0000
0001
1000
0001
0000
2000
0000
0000
0000
0000
0000
0000
3000
,
0001
0100
0010
1000
0100
0010
0100
0010
,
0000
0110
0000
0100
1000
0010
0100
0000
,
0001
0100
0010
1000
0100
0010
0001
1000
,
0000
1001
0000
0001
0100
0010
1000
0100
,
1000
0000
1100
0000
0100
0010
0001
0100
,
0000
0100
0001
0000
0100
0000
0110
0000
,
0010
0000
1010
0000
1000
0100
0010
0001
,
0000
0001
1001
0000
1000
0010
1010
0000
,
1000
0010
0100
0001
0010
0001
1000
0001
,
0000
0101
0000
1001
0000
1000
0100
0010
,
0001
1000
0010
0100
0001
1000
0100
1000
,
0000
1001
0000
1010
0000
1000
0010
0100
,
0001
0010
0100
1000
0001
0100
0001
1000
,
0000
1001
0000
0101
0000
0001
0010
0100
,
1000
0010
0100
0001
1000
0100
1000
0001
,
0000
0011
0000
1001
0000
0001
1000
0010
,
0100
0001
0010
0100
1000
0100
1000
0001
,
0010
0001
1000
0010
1000
0001
0100
0001
,
1000
0100
0010
0001
0010
0100
1000
0001
,
0100
0001
1000
0100
1000
0001
0010
0001
,
1000
0010
0100
0001
0010
0001
1000
0010
,
1000
0001
0100
0001
1000
0100
1000
0001
,
0010
0100
1000
0010
0100
0001
1000
0010
,
0100
0000
0000
0000
,
0101
0000
0010
0000
1000
0100
0010
0100
,
0000
1100
0000
0011
0000
0001
0010
0000
,
0100
1000
0010
0100
0001
0000
0000
0110
,
0000
1001
0000
1100
0000
0001
0010
0000
,
0110
0000
1100
0000
1001
0000
1000
0010
,
0000
0101
0000
1010
0000
0001
0100
0000
,
1010
0000
1001
0000
1100
0000
0001
0010
,
0000
1100
0000
0011
0000
0000
0000
0000
;

//---------------dance-single - Renard----------------
#NOTES:
     dance-single:
     Renard:
     Challenge:
     11:
     0.901,1.000,1.000,0.060,0.486:
0000
0000
0000
0000
,
0000
0000
0000
0000
,
0000
0000
0000
0000
,
0000
0000
0000
0000
,
1000
0001
1000
0001
1000
0000
0000
1001
,
0000
0110
0000
1001
0000
0000
0000
0000
,
1000
0100
0010
0001
1000
0000
0000
1001
,
0000
0110
0000
1001
0000
0000
0000
0000
,
1000
0001
0000
0100
0010
0000
1000
0000
0100
0000
0010
0000
0001
0000
0010
0000
,
0100
1000
0000
0001
0010
0000
0100
0000
1000
0000
0010
0000
0100
0000
0001
0000
,
0100
0010
0000
1000
0010
0000
0100
0000
0001
0000
0010
0000
0100
0000
1000
0000
,
0001
0010
0000
0100
1000
0000
0001
0010
0000
0100
1000
0000
0001
0000
0010
0000
,
0100
1000
0000
0010
0100
0000
0001
0000
0100
0000
0010
0000
1000
0000
0001
0000
,
0100
0010
0000
1000
0001
0000
0100
0000
0010
0000
1000
0000
0100
0000
0010
0000
,
0001
0010
0000
0100
1000
0000
0001
0000
0010
0000
0100
0000
1000
0000
0001
0000
,
2002
0000
0220
3333
,
0001
0000
0100
0010
0100
0000
0010
0000
1000
0000
0100
0000
0010
0000
0001
0000
,
0000
0000
0010
0100
1000
0000
0001
0010
0100
0000
1000
0100
0010
0000
0001
0010
,
0100
0000
1000
0000
0010
0000
0100
0001
0100
0000
0010
0000
1000
0000
0001
0000
,
0000
0000
0100
0010
1000
0000
0001
0100
0010
0000
1000
0001
0100
0000
0010
1000
,
0001
0000
0100
0000
0010
0000
1000
0100
0010
0000
0001
0000
0010
0000
0100
0000
,
0000
0000
0010
0001
0010
0000
0100
0010
0100
0000
1000
0100
1000
0000
0100
1000
,
0010
0000
1000
0000
0001
0000
0100
0010
1000
0000
0001
0000
0100
0000
0010
0000
,
1000
0000
0000
0000
0000
0000
0000
0000
0000
0000
0000
0000
0001
1000
0001
1000
,
0001
0000
0100
0000
0010
0000
1000
0010
0100
0000
0010
0100
0000
0100
0001
0000
,
0010
0000
0100
0000
1000
0000
0001
0010
0100
0000
0100
1000
0000
1000
0010
0000
,
0100
0000
0001
0100
0010
0000
1000
0001
0100
0000
0010
0100
0000
0010
0100
0000
,
0010
0000
1000
0000
0100
0000
0010
0001
0010
0000
0100
1000
0001
0000
0010
0100
,
1000
0000
0001
0100
0010
0000
1000
0001
0100
0000
0100
0010
0000
0010
1000
0000
,
0100
0000
0010
0001
0010
0000
0100
1000
0001
0000
1000
0000
1001
0000
0000
0000
,
0001
0000
0100
0010
1000
0000
0100
0010
0001
0000
0001
0010
0000
0010
0100
0000
,
1000
0000
0001
0100
0010
0000
1000
0000
0001
0000
1000
0000
1001
0000
0000
0000
,
0001
0000
0100
0010
1000
0000
0100
0010
0001
0000
0001
0010
0000
0010
0100
0000
,
1000
0000
0001
0100
0010
0000
1000
0001
0100
0000
0010
1000
0000
1000
0010
0000
,
0100
0000
0001
0100
0010
0000
1000
0000
0100
0000
0010
0001
0000
0001
0010
0000
,
0100
0000
1000
0000
0100
0000
1000
0000
0100
0000
1000
0100
0000
1000
0100
0000
,
0010
0000
0001
0100
0010
0000
1000
0000
0100
0000
0010
0001
0000
0001
0010
0000
,
0100
0000
1000
0010
0100
0000
0001
0000
0100
0000
0010
0000
1001
0000
0000
0000
,
1000
0000
0100
0010
0001
0000
0010
0000
0100
0000
1000
0010
0000
0010
0100
0000
,
0001
1000
0001
0000
1000
0001
1000
0000
0220
0000
0000
0000
0000
0000
0330
0000
,
1000
0000
0010
0000
0100
0000
0001
0000
0010
0100
0010
0000
0100
0000
0010
0000
,
0000
0110
0000
1000
0100
0000
0011
0000
,
1001
0000
0100
0000
0010
0000
0100
0001
0100
0000
0010
0000
1000
0000
0101
0000
,
0000
1010
0000
0001
1000
0000
1100
0000
,
0110
0000
0010
0001
0010
0000
0100
0000
1000
0000
1010
0000
0000
0000
0101
0000
,
0000
1001
0000
0010
1000
0000
0101
0000
,
0010
0000
1000
0100
0010
0000
0001
0000
0010
0000
0100
0000
0010
0000
0110
0000
,
0000
1100
0000
0001
0010
0000
0110
0000
,
1100
1100
1100
1100
0110
0110
0011
0011
,
0000
0000
0001
0100
0010
0000
1000
0001
0100
0000
0010
0000
1000
0000
0000
0000
,
0110
0110
0110
0110
0101
0101
1001
1001
,
0000
0000
1000
0100
0010
0000
0001
0010
0100
0000
1000
0000
0001
0000
0000
0000
,
0110
0110
0110
0110
1001
1001
1100
1100
,
0000
0000
0001
0010
0100
0000
1000
0010
0100
0000
0001
0000
1000
0000
0000
0000
,
1010
1010
1100
1100
0011
0011
0101
0101
,
0000
0000
1001
0000
0000
0000
1000
0010
0100
0000
0001
0000
0010
0000
0100
0000
,
1001
1001
1010
1010
0101
0101
0011
0011
,
0000
0000
0001
0010
0100
0000
1000
0010
0100
0000
0001
0000
0100
0000
0010
0000
,
0110
0110
1001
1001
1100
1100
0011
0011
,
0000
0000
0001
1000
0001
0000
1000
0000
0010
0000
0100
0000
0001
0000
0100
0000
,
0110
0110
1001
1001
1100
1100
0011
0011
,
0000
0000
0001
1000
0010
0100
0001
0010
0100
0000
0010
0000
0100
0000
1000
0000
,
1100
1100
0011
0011
1001
1001
0110
1001
,
0000
0000
0000
1001
,
1000
0010
0100
0001
0100
0000
0000
0110
,
0000
1010
0000
1001
0000
0000
0000
0000
,
1000
0100
0010
0001
0010
0000
0000
0110
,
0000
1001
0000
0110
0000
0000
0000
0000
,
1000
0010
0100
0001
0010
0000
0000
0110
,
0000
1001
0000
0110
0000
0000
0000
0000
,
1000
0010
0100
0001
0010
0000
0000
1001
,
0000
0110
0000
1001
0000
0000
0000
0000
;

//---------------dance-single - Renard----------------
#NOTES:
     dance-single:
     Renard:
     Medium:
     5:
     0.362,0.394,0.000,0.030,0.000:
0000
0000
0000
0000
,
0000
0000
0000
0000
,
0000
0000
0000
0000
,
0000
0000
0000
0000
,
1000
0000
0001
0000
1000
0000
0000
0010
,
0000
0010
0000
0010
0000
0000
0000
0000
,
1000
0000
0001
0000
1000
0000
0000
0010
,
0000
0010
0000
0010
0000
0000
0000
0000
,
0100
0000
0100
0000
0100
0000
0000
0001
,
0000
0001
0000
0001
0000
0000
0000
0000
,
1000
0000
1000
0000
1000
0000
0000
0100
,
0000
0100
0000
0100
0000
0000
0000
0000
,
0010
0000
0010
0000
0010
0000
0000
0001
,
0000
0001
0000
0001
0000
0000
0000
0000
,
1000
1000
1000
0000
,
0100
0000
2000
0000
,
3001
0000
0100
0000
0001
0100
0001
0100
,
0000
0010
1000
0100
,
1000
0000
0001
0000
0100
0001
0100
0001
,
0000
1000
0100
0010
,
0001
0000
1000
0000
0001
1000
0001
1000
,
0000
0010
0100
0001
,
0010
0000
0100
0000
1000
0100
1000
0001
,
0100
0000
0000
0001
,
1000
1000
0100
0100
,
0010
0010
0001
0001
,
0010
0010
0100
0100
,
1000
0000
1000
0000
0001
1000
0001
1000
,
0001
0001
0100
0100
,
0010
0010
1000
1000
,
0100
0100
0010
0010
,
0001
0000
0001
0000
1000
0001
1000
0001
,
1000
0001
1000
0001
,
0100
0010
0100
0010
,
1000
0010
1000
0010
,
0100
0001
0100
0001
,
1000
0100
1000
0100
,
0010
0001
0010
0001
,
1000
0001
1000
0001
,
0200
0000
0000
0000
,
0310
0000
0010
0000
0010
0000
0000
1000
,
0000
1000
0000
1000
0000
0000
0000
0000
,
0100
0000
0100
0000
0100
0000
0000
0010
,
0000
0010
0000
0010
0000
0000
0000
0000
,
0001
0000
0001
0000
0001
0000
0000
0100
,
0000
0100
0000
0100
0000
0000
0000
0000
,
0010
0000
0010
0000
0010
0000
0000
1000
,
0000
1000
0000
1000
0000
0000
0000
0000
,
0001
0000
0100
0000
0001
0000
1000
0100
,
0000
1000
0000
0001
0010
0000
0000
0000
,
0001
0000
0100
0000
0010
0000
1000
0001
,
0000
1000
0000
0001
1000
0000
0000
0000
,
0001
0000
0100
0000
0001
0000
1000
0100
,
0000
0010
0000
0001
1000
0000
0000
0000
,
0001
0000
0010
0000
0100
0000
1000
0001
,
0000
0100
0000
0010
1000
0000
0001
0000
,
0100
0100
0001
1000
,
0100
0000
0010
0000
0001
0000
1000
0001
,
1000
0001
0100
0010
,
1000
0000
0100
0000
1000
0000
0001
1000
,
0001
0100
0010
1000
,
0100
0000
0010
0000
0001
0000
1000
0001
,
1000
0000
0001
0000
0100
0000
0010
1000
,
0001
0000
0000
0200
,
0310
0000
0010
0000
0010
0000
0000
1000
,
0000
1000
0000
1000
0000
0000
0000
0000
,
0001
0000
0001
0000
0001
0000
0000
0100
,
0000
0100
0000
0100
0000
0000
0000
0000
,
0001
0000
0001
0000
0001
0000
0000
0010
,
0000
0010
0000
0010
0000
0000
0000
0000
,
0100
0000
0100
0000
0100
0000
0000
1000
,
0000
1000
0000
1000
0000
0000
0000
0000
;

//---------------dance-single - Renard----------------
#NOTES:
     dance-single:
     Renard:
     Easy:
     3:
     0.223,0.250,0.000,0.030,0.000: // measure 1
0000
0000
0000
0000
,  // measure 2
0000
0000
0000
0000
,  // measure 3
0000
0000
0000
0000
,  // measure 4
0000
0000
0000
0000
,  // measure 5
1000
0000
0000
0000
0001
0000
0000
0100
,  // measure 6
0000
0000
0000
0000
,  // measure 7
0001
0000
0000
0000
1000
0000
0000
0100
,  // measure 8
0000
0000
0000
0000
,  // measure 9
1000
0000
0000
0000
0001
0000
0000
0010
,  // measure 10
0000
0000
0000
0000
,  // measure 11
0001
0000
0000
0000
1000
0000
0000
0010
,  // measure 12
0000
0000
0000
0000
,  // measure 13
1000
0000
0000
0000
0001
0000
0000
0100
,  // measure 14
0000
0000
0000
0000
,  // measure 15
0001
0000
0000
0000
1000
0000
0000
0010
,  // measure 16
0020
0000
0000
0000
0100
0030
0000
0000
,  // measure 17
0100
0100
0100
0000
,  // measure 18
0010
0000
0010
0000
,  // measure 19
0100
0100
0100
0000
,  // measure 20
0010
0000
0010
0000
,  // measure 21
1000
1000
1000
0000
,  // measure 22
0001
0000
0001
0000
,  // measure 23
1000
1000
1000
0000
,  // measure 24
0002
0000
0000
0000
0000
0000
0000
0003
,  // measure 25
0100
0000
0100
0000
,  // measure 26
0100
0100
0100
0100
,  // measure 27
0010
0000
0010
0000
,  // measure 28
0010
0000
0010
0000
,  // measure 29
1000
0000
1000
0000
,  // measure 30
1000
1000
1000
1000
,  // measure 31
0001
0000
0001
0000
,  // measure 32
0001
0000
0001
0000
,  // measure 33
0100
0000
0100
0000
,  // measure 34
0100
0000
0100
0100
,  // measure 35
0010
0000
0010
0000
,  // measure 36
0010
0000
0010
0010
,  // measure 37
1000
0010
1000
0000
,  // measure 38
0001
0100
0001
0000
,  // measure 39
0010
0000
0001
0000
,  // measure 40
2000
0000
3001
0000
,  // measure 41
1000
0000
0000
0000
1000
0000
0000
0001
,  // measure 42
0000
0001
0000
0001
0000
0000
0000
0000
,  // measure 43
0100
0000
0000
0000
0100
0000
0000
0010
,  // measure 44
0000
0010
0000
0010
0000
0000
0000
0000
,  // measure 45
1000
0000
0000
0000
1000
0000
0000
0100
,  // measure 46
0000
0100
0000
0100
0000
0000
0000
0000
,  // measure 47
0010
0000
0000
0000
0010
0000
0000
0001
,  // measure 48
0000
0001
0000
0001
0000
0000
0000
0000
,  // measure 49
1000
0000
1000
0000
,  // measure 50
0001
1000
0001
1000
,  // measure 51
0001
0000
0001
0000
,  // measure 52
1000
0001
1000
0001
,  // measure 53
0100
0000
0100
0000
,  // measure 54
0010
0100
0010
0100
,  // measure 55
0010
0000
0010
0000
,  // measure 56
0100
0010
0100
0010
,  // measure 57
1000
0000
1000
0000
,  // measure 58
0010
0000
0010
0000
,  // measure 59
0100
0000
0100
0000
,  // measure 60
0001
0000
0001
0000
,  // measure 61
1000
0000
1000
0000
,  // measure 62
0100
0000
0100
0000
,  // measure 63
0010
0000
0000
0000
0010
0000
0001
1000
,  // measure 64
0000
0000
0000
0000
,  // measure 65
0001
0000
0000
0000
0001
0000
0000
1000
,  // measure 66
0000
0000
0000
0000
,  // measure 67
0010
0000
0000
0000
0010
0000
0000
0100
,  // measure 68
0000
0000
0000
0000
,  // measure 69
0001
0000
0000
0000
0001
0000
0000
1000
,  // measure 70
0000
0000
0000
0000
,  // measure 71
0010
0000
0000
0000
0010
0000
0000
0100
,  // measure 72
0000
0100
0000
0100
0000
0000
0000
0000
;
