#TITLE:Hardcore Disco (Kitsune² Remix);
#SUBTITLE:;
#ARTIST:Bass-X;
#TITLETRANSLIT:;
#SUBTITLETRANSLIT:;
#ARTISTTRANSLIT:;
#CREDIT:;
#BANNER:disco.png;
#BACKGROUND:disco-bg.png;
#LYRICSPATH:;
#CDTITLE:;
#MUSIC:disco.ogg;
#OFFSET:0.000;
#SAMPLESTART:54.766;
#SAMPLELENGTH:12.000;
#SELECTABLE:YES;
#BPMS:0.000=184.057;
#STOPS:;
#BGCHANGES:;

//---------------dance-single - Renard----------------
#NOTES:
     dance-single:
     Renard:
     Hard:
     8:
     0.686,0.645,0.547,0.019,0.032:
0000
0000
0000
0000
,
0000
0000
0000
0000
,
0000
0000
0000
0000
,
0000
0000
0000
0000
,
0001
1000
0001
1000
0001
0000
0000
0110
,
0000
1001
0000
1100
0000
0001
0010
0100
,
1000
0001
1000
0010
0100
0000
0000
0101
,
0000
1010
0000
1001
0000
1000
0100
0010
,
0001
0000
0001
0010
0100
1000
0000
1010
,
0000
2002
0000
0000
0000
3003
M00M
0100
,
0001
0100
0000
0010
1000
0000
0100
0010
,
0000
0010
0100
0000
1000
0000
0010
0000
,
0100
0001
0100
0010
1000
0010
0000
0101
,
0000
1010
0000
0001
1000
0010
1000
0000
,
0100
0010
0001
0010
0100
0000
1000
0001
,
0000
0001
1000
0000
1001
0000
M00M
0000
,
1000
0010
0100
0000
0110
0000
0010
0100
,
0000
0100
0001
0000
1001
0000
0001
1000
,
0100
1000
0000
0001
1000
0001
0000
1001
,
0000
1000
0010
0000
0110
0000
0MM0
0000
,
0010
1000
0001
0010
0000
0001
1000
0001
,
1000
0010
1000
0000
1001
0000
0001
0100
,
0010
0000
1000
0000
0001
0000
1000
0001
,
0000
0001
1000
0000
1001
0000
1000
0000
,
0010
0010
0010
0010
0100
0001
0100
0010
,
0000
1000
0000
0100
0010
0001
0010
0000
,
0100
0100
0100
0100
1000
0010
1000
0010
,
0000
0100
0000
0100
0001
0010
0001
0000
,
1000
0000
1000
0000
0001
0000
0001
0000
0100
0000
0100
0000
0001
0000
0001
1000
,
0000
0000
1000
0001
0000
0000
0001
0000
1000
0000
0000
1000
0001
0000
0000
0000
,
1000
0010
1000
0010
0010
0100
0100
0001
,
0000
0100
0100
0100
0100
0000
0100
0100
,
0010
0010
0010
0010
1000
0100
1000
0100
,
0010
0010
0010
0010
0001
0100
0001
0100
,
0010
0010
0010
0010
1000
0100
1000
0100
,
0010
0010
0010
0010
0001
0100
0001
0100
,
0M10
0010
0010
0010
0M10
0010
0010
0010
,
0M10
0010
0010
0010
0M10
0010
0010
0010
,
0M10
0010
0M10
0010
0M10
0010
0M10
0010
,
0M10
0000
0M10
0000
0M10
0000
0M10
0000
0M10
0M00
0M10
0M00
0M10
0M00
0M10
0M00
,
0M10
0100
0001
1000
0100
0000
0010
0001
,
0000
1001
0000
0010
0100
0000
1001
0000
,
1000
0010
0100
0001
0010
0001
0000
0011
,
0000
0110
0000
0100
1000
0010
0100
0000
,
0010
0100
0001
0010
0100
1000
0001
1000
,
0000
1001
0000
1010
0000
0001
0100
0001
,
1000
0100
1000
0001
0010
0001
0000
1001
,
0000
1010
0000
0001
0100
0010
1000
0000
,
0100
0000
0110
0000
0100
1000
0010
0100
,
0000
0100
0001
0000
0100
0000
1010
0000
,
1001
0000
1100
0000
0001
0010
0100
1000
,
0000
1000
0001
0000
0110
0000
1001
0000
,
1000
0100
0010
0000
0001
0010
0100
1000
,
0000
0001
1000
0000
1010
0000
0101
0000
,
1001
0000
1100
0000
0001
0010
0100
1000
,
0000
1000
0001
0000
0110
0000
1001
0000
,
1000
0100
0010
0000
0001
0010
0100
1000
,
0000
1000
0010
0000
0001
0100
0010
0000
,
1001
0000
1010
0000
0001
0100
0010
1000
,
0000
1100
0000
0011
0000
0001
0100
0010
,
1000
0000
0100
0000
0010
0000
0001
0010
,
0000
0010
0100
0000
1000
0010
0100
0001
,
0100
0000
0110
0000
0010
1000
0100
0010
,
0000
0110
0000
0100
1000
0010
0100
0000
,
0001
0100
0001
1000
0100
0000
1000
0001
,
0000
0001
1000
0000
1001
0000
0110
0000
,
1001
0000
1000
0100
0010
0001
1000
0001
,
0000
1001
0000
1000
0010
0100
0001
0000
,
1001
0000
1010
0000
0101
0000
0001
1000
,
0000
1000
0001
1000
0100
0010
0001
1000
,
0001
1000
0001
0000
1001
0000
1000
0010
,
0000
0110
0000
0001
0100
0010
0100
0000
,
0001
0100
0001
0000
1001
0000
1000
0100
,
0000
1001
0000
1001
0000
0001
0010
0000
,
1001
0000
0001
0000
0100
0010
0100
0010
,
0000
1000
0101
0000
,
0010
1000
0010
1000
0100
0010
0100
0010
,
0000
0010
1001
0000
,
0001
0100
0010
0100
0010
0100
0010
1000
,
0000
0010
1001
0000
,
1000
0100
0010
0001
0010
0100
0010
0001
,
1000
0010
0100
0001
0100
0010
1000
1000
;

//---------------dance-single - Renard----------------
#NOTES:
     dance-single:
     Renard:
     Medium:
     5:
     0.332,0.493,0.000,0.000,0.000:
0000
0000
0000
0000
,
0000
0000
0000
0000
,
0000
0000
0000
0000
,
0000
0000
0000
0000
,
1000
0000
0001
0000
1000
0000
0000
0010
,
0000
0100
0000
0010
0000
0000
0000
0000
,
1000
0001
1000
0010
,
0100
0001
1000
0100
,
0010
0000
0001
0000
1000
0000
0000
0010
,
0000
0100
0000
0000
0000
0000
0000
0000
,
0001
0000
0000
0000
1000
0000
0100
0010
,
0000
0000
0000
0000
,
0000
0000
0001
0000
0010
0000
0000
0100
,
0000
1000
0000
0000
0000
0000
0000
0010
,
0100
0000
0000
0000
0001
0000
0000
1000
,
0000
0000
0000
0000
,
0000
0100
0010
0000
0001
0000
0000
0010
,
0000
0100
0000
0000
1000
0000
0001
0000
,
0100
0000
0000
0000
0010
0000
0000
1000
,
0000
0010
0100
0000
,
0001
0000
0000
1000
0000
0000
0001
0000
,
0100
0000
0000
0010
0000
0000
1000
0000
,
0000
0000
0010
0000
0100
0000
0001
1000
,
0000
0000
0000
0000
,
0001
0000
0001
0000
0001
0000
0000
0100
,
0000
0100
0000
0100
0000
0000
0000
0000
,
0010
0000
0010
0000
0010
0000
0000
1000
,
0000
1000
0000
1000
0000
0000
0000
0000
,
0100
0000
0100
0000
0100
0000
0000
0010
,
0000
0010
0000
0010
0000
0000
0000
0000
,
0001
0000
0001
0000
0001
0000
0000
1000
,
0000
1000
0000
0000
1000
0000
0000
0000
,
0010
0010
0010
0000
,
0100
0100
0100
0000
,
0001
0001
0001
0000
,
1000
1000
1000
0000
,
0001
1000
0001
1000
,
0001
1000
0001
1000
,
0010
0010
0010
0010
,
0010
0010
0010
0010
0010
0010
0010
0010
,
0010
0000
0010
0000
,
0100
0100
0100
0000
,
0010
1000
0010
0100
,
0001
1000
0000
0001
,
0010
0100
1000
0100
,
0010
0010
0010
0000
,
0001
0010
0100
1000
,
0001
0100
0000
0001
,
1000
0100
0010
0001
,
0010
0010
0010
0000
,
0100
0000
0000
0000
1000
0000
0000
0001
,
0000
0100
0000
0000
0000
0000
0001
1000
,
0100
0000
0000
1000
0001
0000
1000
0001
,
0000
0000
0000
0100
,
0001
1000
0000
0100
0000
1000
0001
1000
,
0001
1000
0000
0001
0000
0100
0010
0100
,
0000
0000
0010
0000
1000
0000
0001
0100
,
0000
0001
1000
0000
,
0100
0000
1000
0000
0001
0000
0010
0001
,
0000
0010
0000
0001
0010
0000
0000
0000
,
0100
0000
1000
0000
0001
0000
1000
0100
,
0000
0000
1000
0000
0000
0100
0000
0000
,
1000
0000
0100
0000
0010
0000
0001
1000
,
0000
0001
0100
0010
,
1000
0000
0000
0000
0001
0000
0000
0100
,
0000
0010
1000
0100
,
0010
0000
0001
0000
,
0010
0100
1000
0001
,
0100
0000
0000
0010
0000
0000
1000
0000
,
0010
1000
0100
1000
,
0001
0000
0000
0000
1000
0000
0000
0001
,
0000
0100
0010
1000
,
0100
0000
0000
0010
0000
0000
0000
0001
,
0000
1000
0001
0100
,
0010
0000
0100
0000
0010
0000
1000
0010
,
0000
0000
0000
0000
,
0100
0000
0001
0000
0010
0000
0001
1000
,
0000
0000
0000
0000
,
0001
0000
0100
0000
0010
0000
1000
0001
,
0000
0000
0000
0000
,
1000
0100
0010
0001
,
0010
0000
0100
0000
1000
0100
1000
0100
;

//---------------dance-single - Renard----------------
#NOTES:
     dance-single:
     Renard:
     Easy:
     2:
     0.285,0.341,0.019,0.297,0.000: // measure 1
0000
0000
0000
0000
,  // measure 2
0000
0000
0000
0000
,  // measure 3
0000
0000
0000
0000
,  // measure 4
0000
0000
0000
0000
,  // measure 5
1000
0000
1000
0000
,  // measure 6
0001
0000
0001
0000
,  // measure 7
0100
0000
0010
0000
,  // measure 8
0100
0010
1000
0001
,  // measure 9
0200
0000
0000
0310
,  // measure 10
2000
0000
0000
0000
,  // measure 11
3200
0000
0000
0310
,  // measure 12
0002
0000
0000
0000
,  // measure 13
0203
0000
0000
0310
,  // measure 14
2000
0000
0000
0000
,  // measure 15
3200
0000
0000
0310
,  // measure 16
0002
0000
0000
0000
,  // measure 17
2003
0000
3001
0000
,  // measure 18
0200
0000
0310
0000
,  // measure 19
0200
0000
0301
0000
,  // measure 20
2000
0000
3010
0000
,  // measure 21
0200
0000
0301
0000
,  // measure 22
0020
0000
0130
0000
,  // measure 23
2000
0000
3100
0000
,  // measure 24
2000
0000
3001
0000
,  // measure 25
0100
0100
0200
0000
,  // measure 26
0301
0000
0000
0000
,  // measure 27
1000
1000
2000
0000
,  // measure 28
3100
0000
0000
0000
,  // measure 29
0010
0010
0020
0000
,  // measure 30
0031
0000
0000
0000
,  // measure 31
1000
1000
2000
0000
,  // measure 32
3010
0000
0000
0000
,  // measure 33
0100
0000
0100
0000
,  // measure 34
0100
0000
0100
0000
,  // measure 35
0100
0000
0100
0000
,  // measure 36
0100
0000
0100
0000
,  // measure 37
0100
0010
0100
0010
,  // measure 38
0100
0010
0100
0010
,  // measure 39
0100
0100
0100
0100
,  // measure 40
0100
0100
0100
0100
,  // measure 41
0100
0000
0110
0000
,  // measure 42
0000
0000
1001
0000
,  // measure 43
1000
0100
1000
0001
,  // measure 44
1000
0000
1000
0000
,  // measure 45
0001
1000
0001
0100
,  // measure 46
0001
0000
0001
0000
,  // measure 47
1000
0001
1000
0010
,  // measure 48
1000
0000
1000
0000
,  // measure 49
0001
1000
0001
0010
,  // measure 50
0001
0000
0001
0000
,  // measure 51
0200
0000
0000
0000
,  // measure 52
0310
0000
1000
0100
,  // measure 53
0020
0000
0032
0000
,  // measure 54
2003
0000
3001
0100
,  // measure 55
0020
0000
0000
0000
,  // measure 56
2030
0000
3200
0000
,  // measure 57
0320
0000
0000
0000
,  // measure 58
0032
0000
2003
0000
,  // measure 59
3001
0001
0001
0000
,  // measure 60
0100
0000
0100
0000
,  // measure 61
0010
0000
1000
0000
,  // measure 62
0100
0010
0100
0010
,  // measure 63
0001
0001
0001
0000
,  // measure 64
1000
0000
1000
0000
,  // measure 65
0100
0100
0010
0001
,  // measure 66
1000
0010
1000
0001
,  // measure 67
0200
0000
0000
0000
,  // measure 68
0320
0000
0000
0000
,  // measure 69
1030
0000
0100
0000
,  // measure 70
0010
0000
0001
0010
,  // measure 71
0100
1000
0010
1000
,  // measure 72
0001
0000
1000
0001
,  // measure 73
0100
0010
1000
0001
,  // measure 74
0100
0001
0010
0001
,  // measure 75
1000
0000
1000
0000
,  // measure 76
0001
0000
0000
0000
,  // measure 77
0100
0000
0100
0000
,  // measure 78
0010
0000
0000
0000
,  // measure 79
1000
0000
1000
0000
,  // measure 80
0100
0000
0000
0000
,  // measure 81
0010
0000
0001
0000
,  // measure 82
1000
0001
0100
0010
;
