#TITLE:Hard Driver;
#SUBTITLE:;
#ARTIST:Stellar;
#TITLETRANSLIT:;
#SUBTITLETRANSLIT:;
#ARTISTTRANSLIT:;
#CREDIT:;
#BANNER:driver.png;
#BACKGROUND:driver-bg.png;
#LYRICSPATH:;
#CDTITLE:;
#MUSIC:driver.ogg;
#OFFSET:0.000;
#SAMPLESTART:54.837;
#SAMPLELENGTH:12.000;
#SELECTABLE:YES;
#BPMS:0.000=140.000;
#STOPS:;
#BGCHANGES:;

//---------------dance-single - Renard----------------
#NOTES:
     dance-single:
     Renard:
     Challenge:
     10:
     0.651,0.929,0.161,0.040,0.938:
0000
0000
0000
0000
,
0000
0000
0000
0000
,
0000
0000
0000
0000
,
0000
0000
0000
0000
,
0000
0000
0000
0000
,
0000
0000
0000
0000
,
0000
0000
0000
0000
,
0000
0000
0000
0000
,
1000
0000
0001
0100
0000
0010
0000
1000
0000
0100
0010
0000
0001
0010
0000
0100
,
1000
0000
0001
0100
0000
0010
0000
1000
0000
0001
1000
0000
0100
0010
0000
0001
,
0010
0000
0100
1000
0000
0001
0000
0100
0000
0010
1000
0000
0001
1000
0000
0100
,
0010
0000
0001
0010
0000
0100
0000
1000
0000
0010
0100
0000
0001
0100
0000
0010
,
1000
0000
0100
1000
0000
0001
0000
0010
0000
0001
1000
0000
0001
0100
0000
0010
,
1000
0000
0100
1000
0000
0001
0000
1000
0000
0100
1000
0000
0001
0010
0000
0001
,
1000
0000
0010
1000
0000
0001
0000
0100
0000
0001
1000
0000
0100
1000
0000
0001
,
0010
0000
0001
1000
0000
0010
0000
1000
0001
0000
0000
0001
0100
0000
0100
0000
,
0001
0000
0100
0000
1000
0000
0100
0000
0001
0000
0010
0100
0000
0000
0000
0000
,
1000
0000
0100
0000
0010
0000
0001
0000
1000
0000
0010
0100
0000
0000
0000
0000
,
0001
0000
0010
0000
0100
0000
1000
0000
0100
0000
1000
0001
0000
0000
0000
0000
,
0010
0000
0001
0000
1000
0000
0010
0000
0100
0000
0000
0100
0010
0000
1000
0000
,
0100
0000
0010
0000
0001
0000
0010
0000
0100
0000
1000
0001
0000
0000
0000
0000
,
0100
0000
0010
0000
1000
0000
0100
0000
0010
0000
0001
1000
0000
0000
0000
0000
,
0001
0000
0100
0000
0010
0000
1000
0000
0100
0000
0010
0001
0000
0000
0000
0000
,
0010
0000
0100
0000
1000
0000
0010
0000
0100
0000
0000
0100
0001
0000
0100
0000
,
1000
0000
0010
1000
0010
0000
1000
0000
0001
0000
0100
0001
0100
0000
0001
0000
,
0010
0000
0001
0010
0001
0000
0010
0000
0100
0000
1000
0100
1000
0000
0100
0000
,
1000
0000
0001
1000
0001
0000
1000
0000
0001
0000
0100
0001
0100
0000
0001
0000
,
1000
0000
0001
1000
0001
0000
1000
0000
0100
0000
1000
0100
1000
0000
1000
0000
,
0001
0010
0001
0010
0001
0010
0001
0010
0100
0010
0100
0010
0100
0010
0100
0010
,
0100
1000
0100
1000
0100
1000
0100
1000
0010
1000
0010
1000
0010
1000
0010
1000
,
0001
1000
0001
1000
0001
0100
0001
0100
0001
0010
0001
0010
0001
1000
0001
1000
,
0100
0010
0001
0010
0100
1000
0001
0010
0100
0000
0000
0100
0000
0000
0000
0000
,
0110
0000
0100
1000
0000
0010
0000
0101
0000
0100
0010
0000
1000
0100
0000
0010
,
0001
0000
0010
0100
0000
1000
0000
1001
0000
1000
0100
0000
0010
0001
0000
0010
,
0100
0000
1000
0001
0000
0100
0000
0110
0000
0010
1000
0000
0100
0010
0000
0001
,
0010
0000
0100
1000
0000
0001
0000
1001
0000
0001
0100
0000
0010
1000
0000
0100
,
0010
0000
0001
0010
0000
0100
0000
0110
0000
0100
1000
0000
0010
0100
0000
0001
,
0100
0000
0010
1000
0000
0100
0000
1100
0000
1000
0100
0000
0010
0001
0000
0010
,
0100
0000
1000
0001
0000
0010
0000
0011
0000
0010
0100
0000
1000
0001
0000
0100
,
0010
0000
1000
0100
0000
0010
0000
0011
0000
0010
0100
0000
1000
0001
0000
1000
,
0010
0000
1000
0001
0000
0100
0000
1010
0000
0010
0100
0000
0001
0010
0000
0100
,
1000
0000
0100
0010
0000
0001
0000
1001
0000
0001
0010
0000
0100
1000
0000
0100
,
0010
0000
0001
1000
0000
0010
0000
0110
0000
0100
0001
0000
0010
0100
0000
1000
,
0100
0000
0010
0001
0000
1000
0000
1001
0000
1000
0010
0000
0100
0001
0000
0010
,
0100
0000
1000
0100
0000
0010
0000
0110
0000
0010
0001
0000
0100
0010
0000
1000
,
0010
0000
0100
0001
0000
0010
0000
0011
0000
0001
0010
0000
0100
1000
0000
0100
,
0010
0000
0001
1000
0000
0100
0000
1100
0000
0100
0010
0000
0001
1000
0000
0010
,
0100
0000
0001
0010
0000
0100
0000
1000
0100
0000
0000
0100
0010
0000
0010
0000
,
0200
0001
0000
1000
0000
0010
0000
0010
,
0000
0001
0000
1000
0000
0001
0000
0301
,
0020
0100
0000
1000
0000
0100
0000
0001
,
0000
1000
0000
1000
0000
0100
0000
0130
,
2000
0100
0000
0001
0000
0001
0000
0001
,
0000
0010
0000
0100
0000
0001
0000
0001
,
3002
0100
0000
0010
0000
1000
0000
0100
,
0000
0000
1000
0000
0000
0000
0103
0000
0100
0000
0000
0100
0010
0000
0001
0000
;

//---------------dance-single - Renard----------------
#NOTES:
     dance-single:
     Renard:
     Hard:
     9:
     0.497,0.563,0.000,0.000,0.585:
0000
0000
0000
0000
,
0000
0000
0000
0000
,
0000
0000
0000
0000
,
0000
0000
0000
0000
,
0000
0000
0000
0000
,
0000
0000
0000
0000
,
0000
0000
0000
0000
,
0000
0000
0000
0000
,
1000
0000
0000
0001
0000
0100
0000
0010
0000
0000
1000
0000
0000
0100
0000
0000
,
0010
0000
0000
0001
0000
0010
0000
0100
0000
0000
1000
0000
0000
0010
0000
0000
,
0100
0000
0000
0001
0000
1000
0000
0100
0000
0000
1000
0000
0000
0001
0000
0000
,
0010
0000
0000
0001
0000
1000
0000
0010
0000
0000
0100
0000
0000
0001
0000
0000
,
1000
0000
0000
0100
0000
1000
0000
0001
0000
0000
0010
0000
0000
0001
0000
0000
,
1000
0000
0000
0010
0000
0100
0000
0001
0000
0000
1000
0000
0000
0100
0000
0000
,
0010
0000
0000
0001
0000
0010
0000
0100
0000
0000
1000
0000
0000
0001
0000
0000
,
0100
0000
0000
0010
0000
1000
0000
0100
1000
0000
0000
1000
0001
0000
1000
0000
,
0001
0000
0000
0000
0100
0000
0000
0000
0010
0000
0000
0010
0000
0000
0000
0000
,
1000
0000
0000
0000
0100
0000
0000
0000
0010
0000
0000
0010
0000
0000
0000
0000
,
0001
0000
0000
0000
0100
0000
0000
0000
0010
0000
0000
0010
0000
0000
0000
0000
,
1000
0000
0000
0000
0100
0000
0000
0000
0010
0000
0000
0010
0000
0000
0000
0000
,
0100
0000
0000
0000
1000
0000
0000
0000
0010
0000
0000
0010
0000
0000
0000
0000
,
1000
0000
0000
0000
0100
0000
0000
0000
0010
0000
0000
0010
0000
0000
0000
0000
,
0100
0000
0000
0000
1000
0000
0000
0000
0010
0000
0000
0100
0000
0000
0000
0000
,
0001
0000
0000
0000
0010
0000
0000
0000
0001
0000
0000
1000
0000
0000
0000
0000
,
0001
0000
0100
0000
1000
0000
0100
0000
0001
0000
0001
0010
0000
0000
0000
0000
,
0100
0000
1000
0000
0010
0000
0100
0000
0001
0000
0001
1000
0000
0000
0000
0000
,
0100
0000
0001
0000
0100
0000
0010
0000
0001
0000
0001
0010
0000
0000
0000
0000
,
1000
0000
0010
0000
0100
0000
1000
0000
0010
0000
0010
0100
0000
0000
0000
0000
,
0001
0000
0100
0000
1000
0000
0100
0000
0001
0000
0001
0010
0000
0000
0000
0000
,
0100
0000
1000
0000
0010
0000
0100
0000
0001
0000
0001
1000
0000
0000
0000
0000
,
0100
0000
0001
0000
0100
0000
0010
0000
0001
0000
0010
1000
0000
0000
0000
0000
,
0010
0000
0100
0000
1000
0000
0010
0000
0001
0000
0010
1000
0000
0000
0000
0000
,
0001
0000
1000
0100
0000
0010
0000
0001
0000
0010
0100
0000
1000
0000
0001
0000
,
0100
0000
0010
1000
0000
0001
0000
1000
0000
0100
0010
0000
0001
0000
0010
0000
,
0100
0000
1000
0001
0000
0100
0000
0010
0000
1000
0100
0000
0010
0000
0001
0000
,
0010
0000
0100
1000
0000
0001
0000
0100
0000
0010
1000
0000
0100
0000
0010
0000
,
0001
0000
0010
0100
0000
1000
0000
0001
0000
0100
0010
0000
1000
0000
0100
0000
,
0010
0000
0001
1000
0000
0001
0000
0100
0000
0010
1000
0000
0100
0000
0010
0000
,
0001
0000
0010
0100
0000
1000
0000
0001
0000
0100
0010
0000
1000
0000
0100
0000
,
0010
0000
0001
0010
0000
0100
0000
1000
0000
0001
0100
0000
0010
0000
1000
0000
,
0100
0000
1000
0001
0000
0010
0000
0001
0000
1000
0010
0000
1000
0000
0001
0000
,
0100
0000
0010
1000
0000
0100
0000
1000
0000
0001
0010
0000
0100
0000
1000
0000
,
0001
0000
0100
0010
0000
1000
0000
0100
0000
0010
0001
0000
0010
0000
0100
0000
,
1000
0000
0001
0100
0000
0010
0000
1000
0000
0100
0010
0000
0001
0000
0010
0000
,
0100
0000
1000
0001
0000
0100
0000
0010
0000
1000
0100
0000
0010
0000
0001
0000
,
0010
0000
0100
1000
0000
0001
0000
0100
0000
0010
1000
0000
0100
0000
0010
0000
,
0001
0000
0010
0100
0000
1000
0000
0001
0000
0100
0010
0000
1000
0000
0100
0000
,
0010
0000
0001
1000
0000
0010
0000
0100
0001
0000
0000
0000
0010
0000
0010
0000
,
0001
0010
1000
0010
0100
1000
0100
0000
,
1000
0100
0001
0100
0010
0001
0010
0000
,
0001
0100
1000
0100
0001
0100
0010
0000
,
1000
0010
0001
0010
0100
1000
0100
0000
,
0001
0010
0100
0010
1000
0010
0100
0010
,
0001
0100
0010
0100
1000
0100
0010
0100
,
0001
0000
1000
0001
1000
0000
0001
0000
0010
0000
0100
0010
0100
0000
0010
0000
,
0100
0000
1000
0100
1000
0000
0001
0010
0001
0000
0000
0001
1000
0000
0001
0000
;

//---------------dance-single - Renard----------------
#NOTES:
     dance-single:
     Renard:
     Medium:
     4:
     0.289,0.338,0.030,0.010,0.000:
0000
0000
0000
0000
,
0000
0000
0000
0000
,
0000
0000
0000
0000
,
0000
0000
0000
0000
,
0000
0000
0000
0000
,
0000
0000
0000
0000
,
0000
0000
0000
0000
,
0000
0000
0000
0000
,
1000
0000
0001
0001
,
0100
0000
0001
0001
,
0010
0000
0001
0001
,
0100
0000
0001
0001
,
1000
0000
0100
0100
,
0010
0000
0010
0010
,
0001
0000
0001
0001
,
0100
0000
0010
1010
,
1000
1000
0100
0100
,
0010
0000
0010
0000
0001
0001
0001
0000
,
0100
0100
0010
0010
,
0100
0000
0100
0000
0001
0001
0001
0000
,
0010
0010
0100
0100
,
0010
0000
0010
0000
0100
0100
0100
0000
,
1000
1000
0010
0010
,
0100
0000
0100
0000
0001
0001
0001
0000
,
0100
0000
0001
0000
0100
0010
0100
0000
,
0010
1000
0010
0000
,
1000
0000
0100
0000
1000
0001
1000
0000
,
0001
0010
1001
0000
,
0001
0000
0100
0000
0010
0100
0010
0000
,
0100
0010
1000
0000
,
0001
0000
0100
0000
0001
1000
0100
0000
,
0010
0001
1001
0000
,
0100
0000
0100
0001
,
1000
0000
0000
0000
0100
0010
0100
0010
,
0001
0000
1000
0001
,
0100
0000
0000
0000
0010
1000
0010
1000
,
0001
0000
0100
0001
,
1000
0000
0000
0000
0100
0010
0100
0010
,
0001
0000
1000
0001
,
0100
0000
0010
0000
1000
0010
1000
0000
,
0001
0000
0100
0000
0001
1000
0001
1000
,
0100
0000
0010
0000
0001
1000
0001
0000
,
0010
0000
0100
0000
1000
0001
1000
0100
,
0010
0001
1000
0000
,
0001
0000
0100
0000
0010
1000
0010
1000
,
0001
0000
1000
0000
0100
1000
0100
0000
,
1000
0001
1000
0000
0001
0100
0001
0000
,
1000
0001
0200
0000
,
0300
0010
0000
0010
0000
0100
0000
0100
,
0000
0001
0000
0001
0000
1000
0000
1000
,
0000
0001
0000
0001
0000
1000
0000
1000
,
0000
0010
0000
0010
0000
0100
0000
0100
,
0000
0001
0000
0100
0000
0001
0000
0100
,
0000
0010
0000
1000
0000
0010
0000
1000
,
0000
0100
0000
0010
0000
0001
0000
1000
,
0000
0001
0000
0100
0010
0000
1000
0010
;

//---------------dance-single - Renard----------------
#NOTES:
     dance-single:
     Renard:
     Easy:
     2:
     0.196,0.282,0.010,0.222,0.000: // measure 1
0000
0000
0000
0000
,  // measure 2
0000
0000
0000
0000
,  // measure 3
0000
0000
0000
0000
,  // measure 4
0000
0000
0000
0000
,  // measure 5
0000
0000
0000
0000
,  // measure 6
0000
0000
0000
0000
,  // measure 7
0000
0000
0000
0000
,  // measure 8
0000
0000
0000
0000
,  // measure 9
2000
0000
0000
3002
,  // measure 10
0203
0000
0000
0320
,  // measure 11
2030
0000
0000
3200
,  // measure 12
0320
0000
0000
0000
,  // measure 13
0032
0000
0000
2003
,  // measure 14
3020
0000
0000
0230
,  // measure 15
0302
0000
0000
0023
,  // measure 16
0230
0000
1300
1001
,  // measure 17
0001
0001
0001
0000
,  // measure 18
0001
0000
0001
0000
,  // measure 19
1000
1000
1000
0000
,  // measure 20
1000
0000
1000
0000
,  // measure 21
0010
0010
0010
0000
,  // measure 22
0100
0000
0100
0000
,  // measure 23
0100
0100
0100
0000
,  // measure 24
0010
0000
0010
0000
,  // measure 25
1000
0000
1000
0010
,  // measure 26
1000
0000
0010
1000
,  // measure 27
0001
0000
0100
0001
,  // measure 28
0100
0000
0001
0100
,  // measure 29
0001
0000
1000
0001
,  // measure 30
1000
0000
0001
0000
,  // measure 31
0100
0000
0010
0000
,  // measure 32
1000
0000
0001
0000
,  // measure 33
1000
0000
1000
0000
,  // measure 34
0100
0000
0020
0000
,  // measure 35
0031
0000
0001
0000
,  // measure 36
0010
0000
0200
0000
,  // measure 37
1300
0000
1000
0000
,  // measure 38
0010
0000
0200
0000
,  // measure 39
0301
0000
0001
0000
,  // measure 40
0020
0000
0000
0000
,  // measure 41
0031
0000
0001
0000
,  // measure 42
1000
0000
0020
0000
,  // measure 43
0130
0000
0100
0000
,  // measure 44
0001
0000
0020
0000
,  // measure 45
0031
0000
0100
0000
,  // measure 46
0001
0000
2000
0000
,  // measure 47
3001
0000
0010
0000
,  // measure 48
0200
0000
0000
0000
,  // measure 49
1300
0000
1000
0001
,  // measure 50
0100
0000
0001
0010
,  // measure 51
0001
0000
0100
0010
,  // measure 52
1000
0001
1000
0001
,  // measure 53
1000
0000
0001
0100
,  // measure 54
0010
0000
1000
0010
,  // measure 55
0100
0000
0001
0010
,  // measure 56
0001
0000
0000
0000
1000
0000
0100
0010
;
