#TITLE:Halfway;
#SUBTITLE:;
#ARTIST:Jaql;
#TITLETRANSLIT:;
#SUBTITLETRANSLIT:;
#ARTISTTRANSLIT:;
#CREDIT:;
#BANNER:half.png;
#BACKGROUND:half-bg.png;
#LYRICSPATH:;
#CDTITLE:;
#MUSIC:half.ogg;
#OFFSET:0.000;
#SAMPLESTART:24.000;
#SAMPLELENGTH:12.000;
#SELECTABLE:YES;
#BPMS:0.000=160.000;
#STOPS:184.000=2.625
;
#BGCHANGES:;

//---------------dance-single - Renard----------------
#NOTES:
     dance-single:
     Renard:
     Challenge:
     10:
     0.764,0.784,0.174,0.051,0.611:
0000
0000
0000
0000
,
0000
0000
0000
0000
,
0000
0000
0000
0000
,
0000
0000
0000
0000
,
1001
0220
0000
1331
,
1000
0000
0010
0100
0001
0100
0010
0000
,
1000
0000
0110
0100
1000
0010
0100
0000
,
0001
0000
0000
0000
0110
0000
0100
0000
1000
0000
0010
0000
0100
0000
0010
0100
,
0010
0100
1000
0010
0100
0000
0001
0000
0100
0000
0010
0000
1000
0000
0000
0000
,
0001
0100
0010
1000
0001
0000
0100
0000
0010
0000
0000
0000
1000
0000
0000
0000
,
0100
0010
0001
0010
0100
0000
1000
0000
0001
0000
0100
0000
0010
0000
0000
0000
,
1000
0001
0100
0010
1000
0000
0001
0000
0100
0000
0000
0000
0110
0000
0000
0000
,
0010
1000
0100
0010
0001
0000
0010
0000
0100
0000
1000
0000
0001
0000
0100
0000
,
0010
1000
0001
1000
0010
0000
1000
0000
0001
0000
0100
0000
0010
0000
0000
0000
,
0010
1000
0100
0010
0001
0000
0010
0000
0100
0000
1000
0000
0001
0000
0100
0000
,
0010
1000
0001
0100
0010
0000
1000
0000
0000
0000
0110
0000
1001
0000
0000
0000
,
1000
0000
0000
0000
0010
0100
0001
0000
0010
0000
0100
0000
0000
0000
1000
0000
,
0001
0000
0010
0001
1000
0000
0010
0000
0100
0001
1000
0010
1000
0000
0000
0000
,
0010
0000
0000
0000
0100
0001
0010
0000
0100
0000
0010
0000
0000
0000
0001
0000
,
1000
0000
0000
0000
0010
0100
0001
0000
0100
0010
1000
0001
0100
0000
0000
0000
,
0010
0000
0000
0000
1000
0100
0010
0000
0001
0000
0010
0000
0000
0000
0100
0000
,
1000
0000
0001
0100
0010
0000
1000
0000
0010
0100
0001
1000
0010
0000
0100
0000
,
0001
0000
0000
0000
0010
0100
1000
0000
0001
0000
0010
0000
0000
0000
0001
0000
,
1000
0000
0000
0000
0010
0100
0001
0000
0100
0010
1000
0001
0100
0000
0000
0000
,
0001
0000
0000
0001
0100
0000
0000
0100
,
0010
0000
0000
0000
0010
0000
0000
0000
0010
0000
0000
0000
1000
0000
0100
0010
,
0001
0000
0000
0010
0100
0000
0000
0100
,
1000
1000
0010
0100
,
0101
0000
0000
0010
1000
0000
0100
0010
,
0110
0000
0000
0000
0000
0000
0100
0000
1000
0000
0000
0000
0010
0000
0100
0001
,
0100
0000
0010
1000
0100
0000
0010
0001
,
2000
0002
0000
3113
,
1000
0000
0001
1000
0001
0000
0100
0010
0000
0010
0100
0000
0010
1000
0001
0100
,
0001
0000
1000
0100
1000
0000
0001
0010
0000
0010
0001
0000
1000
0010
0100
0001
,
1000
0000
0100
1000
0001
0000
0010
0001
0000
1000
0010
0000
0100
0001
1000
0001
,
1000
0000
0100
1000
0001
0000
0010
0100
0000
1000
0001
0000
0010
0001
1000
0100
,
1000
0000
0010
0100
0001
0000
0100
0010
0000
1000
0001
0000
0010
0001
1000
0100
,
1000
0000
0001
0010
0100
0000
0010
0001
0000
1000
0100
0000
0010
0100
1000
0001
,
0100
0000
0010
1000
0001
0000
1000
0001
0000
1000
0010
0000
0100
0001
0010
0000
,
0011
0000
1100
1001
0000
0110
1001
0000
,
1000
0100
0010
0001
0010
0100
1000
0010
,
0100
0000
0010
0000
0100
0000
0001
0000
0010
0000
0100
0000
1000
0000
0001
1000
,
0001
1000
0010
0100
0001
0010
0100
1000
,
0001
1000
0010
0100
0001
0010
0001
1000
,
0001
0100
0010
1000
0001
0100
0010
1000
,
0100
0000
1000
0000
0100
0000
0010
0000
0001
0000
1000
0000
0010
0000
0100
0010
,
0200
0300
0000
0000
0000
0000
0000
0000
0000
0000
0000
0000
0010
0000
0000
0000
0000
0000
1000
0000
0000
0100
0000
0000
0010
0000
0000
0000
0000
0000
0001
0000
0000
0010
0000
0000
0100
0000
0000
0000
0000
0000
1000
0000
0000
0010
0000
0000
,
0100
0000
0001
0100
0010
0000
1000
0100
0010
0000
0001
0010
0100
1000
0010
0100
,
0001
0000
0100
0000
0010
0000
1000
0100
0010
0000
0001
0010
0100
0000
1000
0001
,
0100
0000
0010
1000
0001
0000
0000
0000
0100
0000
0010
0000
1000
0010
1000
0010
,
1000
0000
0010
0000
0100
0000
0001
0010
0100
0000
1000
0100
0010
0000
0001
0010
,
0100
0000
1000
0010
0100
0000
0001
0100
0010
0000
1000
0000
0001
0100
0010
1000
,
0001
0000
1000
0000
0010
0000
1000
0100
0010
0000
0001
0010
0100
0000
1000
0001
,
0100
0000
0010
1000
0100
0000
0000
0000
0100
0010
0100
0000
0010
0100
0010
0100
,
0010
0000
0100
0000
1000
0000
0010
0100
0001
0000
0100
0010
1000
0000
0001
0010
,
0100
0000
0010
0001
0010
0000
0100
1000
0010
0000
0100
0000
0001
1000
0010
0100
,
0001
0000
1000
0000
0100
0000
0010
0001
0010
0000
0100
1000
0001
0000
0100
0010
,
1000
0000
0001
1000
0100
0000
0000
0000
0010
0001
0010
0000
0100
1000
0001
0010
,
0100
0000
0000
0000
0100
0000
0000
1000
0010
0100
0001
0000
0100
0000
0010
0000
,
1000
0000
0001
0000
0100
0000
0000
0100
0010
0000
1000
0000
0100
0010
0001
0010
,
0100
0000
1000
0000
0001
0000
0000
0001
0100
0000
0010
0000
1000
0000
0001
0000
,
0100
1001
0000
0000
0000
0000
0000
0000
;

//---------------dance-single - Renard----------------
#NOTES:
     dance-single:
     Renard:
     Hard:
     9:
     0.642,0.627,0.072,0.103,0.349:
0000
0000
0000
0000
,
0000
0000
0000
0000
,
0000
0000
0000
0000
,
0000
0000
0000
0000
,
1000
0001
2002
0000
0000
0000
3013
0000
,
0001
0000
0000
0000
0100
0000
0000
0000
0000
0001
1000
0000
0100
0000
0000
0000
,
1000
0000
0000
0000
0001
0000
0000
0000
0000
1000
0010
0000
1000
0000
0100
0000
,
0010
0000
0000
0000
0001
0000
0000
0000
0000
0001
0010
0000
0100
0000
1000
0000
,
0001
0000
0000
0001
0100
0000
0010
0000
1000
0000
0100
0000
0010
0000
0001
0010
,
0001
0000
0000
0000
0010
0000
0000
0100
1000
0000
0010
0000
0100
0000
0000
0000
,
0001
0000
0000
0000
0100
0000
0000
0100
0010
0000
1000
0000
0100
0000
0010
0001
,
0010
0000
0000
0000
0100
0000
0000
1000
0001
0000
0100
0000
0001
0000
0000
0000
,
0201
0010
1000
0010
,
0001
0001
0010
0000
1000
0000
0310
0000
,
0120
1000
0100
0001
,
0100
0100
1000
0000
1030
0010
1010
0000
,
1000
0000
0000
0000
0100
0010
0001
0000
0010
0000
0100
0000
0000
0000
1000
0000
,
0001
0000
0100
0001
0100
0000
0001
0000
1000
0100
1000
0100
1000
0000
0000
0000
,
0001
0000
0000
0000
0010
0001
0010
0000
0001
0000
1000
0000
0000
0000
0010
0000
,
1000
0000
0000
0000
0100
1000
0100
0000
1000
0001
1000
0001
1000
0000
0000
0000
,
0001
0000
0000
0001
0100
0000
0010
0000
1000
0000
0100
0000
0000
0000
1000
0000
,
0001
0000
0100
0001
0100
0000
0001
0000
1000
0100
1000
0100
1000
0000
0000
0000
,
0001
0000
0000
0000
0100
0001
0100
0000
0001
0000
0100
0000
0000
0000
0010
0000
,
1000
0000
0000
0000
0100
1000
0100
0000
1000
0001
1000
0001
1000
0000
0000
0000
,
0001
0000
0100
0000
0000
0010
1000
0000
,
0100
0000
0000
0000
1000
0000
0000
0000
0000
1000
0001
0000
0100
0000
0010
0000
,
1000
0000
0010
0000
0000
1000
0100
0000
,
0010
0000
0000
0000
0001
0000
0000
0000
0000
0001
1000
0000
0010
0000
0100
0000
,
0001
0000
0000
0000
1000
0000
0000
0000
0000
1000
0001
0000
0100
0000
0000
0000
,
0010
0000
0000
0000
1000
0000
0000
0000
0000
1000
0010
0000
0100
0000
0001
0000
,
0100
0000
0000
0000
0010
0000
0000
0000
0000
0010
1000
0000
0100
0000
1000
0000
,
2000
0002
0000
3113
,
0001
0000
0001
0100
0010
0000
1000
0000
0100
0000
0010
0000
0001
0000
0000
0000
,
1000
0000
1000
0100
0010
0000
0100
0000
1000
0000
0010
0000
0100
0000
0000
0000
,
0001
0000
0001
0100
0010
0000
1000
0000
0100
0000
0010
0000
0100
0000
0000
0000
,
1000
0000
1000
0001
0100
0000
0001
0000
1000
0000
0100
0000
1000
0000
0000
0000
,
0001
0000
0001
0100
0010
0000
1000
0000
0100
0000
0010
0000
0001
0000
0000
0000
,
1000
0000
1000
0001
0100
0000
0010
0000
1000
0000
0100
0000
1000
0000
0000
0000
,
0001
0000
0001
0010
0100
0000
1000
0000
0001
0000
0100
0000
0010
0000
0000
0000
,
1000
0000
1000
0010
1000
0000
0001
0000
0000
0000
1001
0000
1001
0000
0000
0000
,
0001
0100
0010
0100
0010
0100
0010
0100
,
0001
0000
1000
0000
0100
0000
1000
0000
0100
0000
1000
0000
0100
0000
1000
0010
,
1000
0010
1000
0010
1000
0010
1000
0100
,
0010
0100
0010
0100
0010
0100
0010
0100
,
0010
0001
0010
0001
0010
0001
0010
0001
,
0100
0000
0001
0000
0100
0000
0001
0000
0100
0000
0001
0000
0100
0000
0001
2000
,
0002
3003
0000
0000
0001
0000
0000
1000
0100
0000
0010
0000
0001
0000
0010
0000
,
0001
0000
1000
0000
0100
0000
1000
0001
1000
0000
0001
0000
1000
0001
1000
0001
,
1000
0000
0010
0000
1000
0000
0000
1000
0100
0000
0010
0000
0001
0000
1000
0000
,
0001
0000
0100
0000
0001
0000
0000
0000
1000
0001
1000
0000
0100
1000
0100
1000
,
0100
0000
1000
0000
0010
0000
0000
0000
0100
0001
0100
0000
0001
0000
1000
0000
,
0000
0000
0100
0000
1000
0000
0001
0010
0001
0000
1000
0000
0001
1000
0001
1000
,
0001
0000
0100
0000
0010
0000
0000
0000
1000
0100
1000
0000
0001
0000
1000
0000
,
0010
0000
1000
0000
0100
0000
0000
0000
0010
0001
0010
0000
0100
0010
0100
0010
,
0100
0000
0000
0000
1000
0000
0000
0000
0010
1000
0010
0000
1000
0000
0001
0000
,
0000
0000
0100
0000
0001
0000
1000
0001
1000
0000
0001
0000
0100
0001
0100
0001
,
0100
0000
0010
0000
1000
0000
0000
0000
0100
0010
0001
0000
0010
0000
0100
0000
,
1000
0000
0001
0000
0100
0000
0000
0000
0001
0100
0001
0000
1000
0001
1000
0001
,
1000
0000
0100
0000
1000
0000
0000
0000
0001
0010
0001
0000
1000
0000
0001
0000
,
0000
0000
0100
0000
0010
0000
1000
0000
0100
0000
0010
0000
0001
0010
0001
0010
,
0001
0000
0010
0000
0100
0000
0000
0000
1000
0100
1000
0000
0002
0000
2000
0000
,
0000
3013
0000
0000
0000
0000
0000
0000
;

//---------------dance-single - Renard----------------
#NOTES:
     dance-single:
     Renard:
     Medium:
     5:
     0.365,0.345,0.031,0.021,0.000:
0000
0000
0000
0000
,
0000
0000
0000
0000
,
0000
0000
0000
0000
,
0000
0000
0000
0000
,
1000
2002
0000
3013
,
1000
0000
0001
0000
0000
0100
0001
0000
,
1000
0000
0100
0000
0000
0010
0001
0000
,
1000
0000
0010
0000
0100
0000
0001
1000
,
0100
0000
0010
0000
0000
0001
0010
0000
,
0100
1000
0001
0100
,
0010
0000
1000
0000
0000
0010
1000
0000
,
0001
0100
0001
1000
,
0100
0000
0010
0000
0000
0001
0010
0000
,
0100
1000
0001
1000
,
0010
0000
0100
0000
0000
0001
0010
0000
,
0100
0000
0100
1000
0000
1000
0001
0000
,
1000
0000
0001
0000
0100
0001
0000
0000
,
1000
0000
0100
0000
0010
0001
0010
0000
,
0100
0000
1000
0000
0001
0100
0000
0000
,
0001
0000
1000
0000
0100
1000
0100
0000
,
1000
0000
0001
0000
0010
0001
0000
0000
,
1000
0000
0010
0000
0100
0001
0100
0000
,
0001
0000
1000
0000
0100
0010
0000
0000
,
0001
0000
0010
0000
0100
1000
0100
0000
,
1000
1000
1000
1000
,
0001
0000
0001
0000
0001
0000
0001
0100
,
0010
0010
0010
0010
,
0100
0000
0000
0000
,
0010
0010
0010
0010
,
1000
0000
1000
0000
1000
0000
1000
0100
,
0010
0000
0010
0001
,
1001
0100
0010
0100
,
0010
0010
0100
0100
,
0010
0000
0010
0000
1000
0010
1000
0010
,
0100
0100
0010
0010
,
0100
0000
0100
0000
0010
1000
0010
0000
,
0100
0100
0010
0010
,
0100
0000
0100
0000
0001
0100
0001
0100
,
0010
0010
0100
0100
,
0010
0000
0100
0001
0000
0100
0001
0000
,
1000
0001
0100
0001
,
1000
0000
0100
0000
0010
0000
0001
1000
,
0001
0000
0100
0000
,
0010
0000
1000
0000
,
0100
1000
0100
1000
,
0001
0000
0010
0000
0001
0000
1000
0001
,
0100
0010
1000
0010
,
1000
0000
0001
0000
0100
0000
0001
1000
,
0001
1000
0100
0010
,
0001
0000
1000
0000
0001
0000
0100
0010
,
0100
0010
1000
0001
,
0100
0000
0001
0000
0010
0000
0100
1000
,
0100
1000
0100
0010
,
0001
0000
1000
0000
0001
0000
0100
0010
,
0100
0000
0010
0000
1000
0000
0010
1000
,
0000
0000
0010
0000
0100
0000
0001
0010
,
0001
0000
0010
0000
0100
0000
1000
0001
,
0000
0000
0100
0000
0010
0000
1000
0010
,
1000
0000
0001
0000
0100
0000
0001
1000
,
0000
0000
0001
0000
0010
0000
0100
1000
,
0100
0000
1000
0000
0001
0000
0100
0010
,
0000
1001
0000
0000
0000
0000
0000
0000
;

//---------------dance-single - Renard----------------
#NOTES:
     dance-single:
     Renard:
     Easy:
     2:
     0.204,0.220,0.000,0.216,0.000: // measure 1
0000
0000
0000
0000
,  // measure 2
0000
0000
0000
0000
,  // measure 3
0000
0000
0000
0000
,  // measure 4
0000
0000
0000
0000
,  // measure 5
2000
0000
0000
3001
,  // measure 6
1000
0000
1000
0000
,  // measure 7
0001
0000
0001
0000
,  // measure 8
0100
0000
0100
0100
,  // measure 9
0020
0000
0000
0000
,  // measure 10
1030
0000
1000
0000
,  // measure 11
0020
0000
0000
0000
,  // measure 12
1030
0000
1000
0000
,  // measure 13
0002
0000
0000
0000
,  // measure 14
0103
0000
0100
0000
,  // measure 15
0002
0000
0000
0000
,  // measure 16
0103
0000
0100
0000
,  // measure 17
0001
1000
0001
0000
,  // measure 18
0100
0000
0100
0000
,  // measure 19
0001
1000
0001
0000
,  // measure 20
0010
0000
0010
0010
,  // measure 21
0100
1000
0100
0000
,  // measure 22
0010
0000
0010
0000
,  // measure 23
0100
1000
0100
0000
,  // measure 24
1000
0000
0001
0000
,  // measure 25
0200
0000
0000
0000
,  // measure 26
0320
0000
0000
2030
,  // measure 27
3200
0000
0000
0000
,  // measure 28
0320
0000
0000
0000
,  // measure 29
0032
0000
0000
0000
,  // measure 30
2003
0000
0000
3010
,  // measure 31
0200
0000
0000
0000
,  // measure 32
0310
0010
0000
0000
,  // measure 33
0100
0000
0100
0000
,  // measure 34
0010
0000
0010
0000
,  // measure 35
0100
0000
0100
0000
,  // measure 36
0010
0000
0010
0010
,  // measure 37
1000
0000
1000
0000
,  // measure 38
0001
0000
0001
0000
,  // measure 39
1000
0000
1000
0000
,  // measure 40
0001
0000
0001
1000
,  // measure 41
0001
0000
0000
0000
,  // measure 42
0100
0000
0000
0010
,  // measure 43
1000
0000
0000
0000
,  // measure 44
0100
0000
0000
0000
,  // measure 45
0010
0000
0000
0000
,  // measure 46
0001
0000
0000
1000
,  // measure 47
0010
0200
0000
0000
,  // measure 48
0301
0020
0000
0000
,  // measure 49
0130
2000
0000
0000
,  // measure 50
3010
0200
0000
0000
,  // measure 51
0301
0002
0000
0000
,  // measure 52
0013
0020
0000
0000
,  // measure 53
0130
0200
0000
0000
,  // measure 54
1300
2000
0000
0000
,  // measure 55
0000
3001
0100
0001
,  // measure 56
0000
0001
1000
0001
,  // measure 57
0000
0001
0010
0001
,  // measure 58
0000
0001
1000
0001
,  // measure 59
0000
1000
0100
1000
,  // measure 60
0000
1000
0001
1000
,  // measure 61
0000
1000
0010
1000
,  // measure 62
0001
0100
0000
0000
0000
0000
0000
0000
;
