#TITLE:Greatest Fear;
#SUBTITLE:;
#ARTIST:Jaql feat. Sonitus Vir;
#TITLETRANSLIT:;
#SUBTITLETRANSLIT:;
#ARTISTTRANSLIT:;
#CREDIT:;
#BANNER:fear.png;
#BACKGROUND:fear-bg.png;
#LYRICSPATH:;
#CDTITLE:;
#MUSIC:fear.ogg;
#OFFSET:0.000;
#SAMPLESTART:72.000;
#SAMPLELENGTH:12.000;
#SELECTABLE:YES;
#BPMS:0.000=90.000;
#STOPS:;
#BGCHANGES:;

//---------------dance-single - Renard----------------
#NOTES:
     dance-single:
     Renard:
     Challenge:
     11:
     0.845,0.758,0.178,0.038,1.000:
0000
0000
0000
0000
,
0001
0001
0100
0010
0010
0100
0010
0010
1000
0100
1000
0100
1000
1000
0001
0001
,
0100
0000
0100
0000
0010
0000
0010
0000
1000
0000
1000
0000
0010
0000
0100
0000
0001
0000
0010
0000
0100
0000
1000
0100
1000
0000
0000
0000
0000
0000
0000
0000
,
0001
0000
0100
0000
0010
0000
1000
0000
0100
0000
0010
0000
0001
0000
0010
0000
0100
0000
1000
0000
0001
0000
1000
0001
1000
0000
0001
0000
0100
0000
0010
0000
,
1000
0000
0100
0000
1000
0000
0001
1000
0001
0000
1000
0000
0001
0000
0100
0001
0100
0000
0001
0000
0100
0000
0010
0000
1000
0000
0100
0000
0010
0000
0001
0010
,
0001
0000
0010
0000
0100
0000
1000
0000
0001
0000
0100
0000
0001
0000
1000
0001
1000
0000
0100
1000
0100
0000
1000
0001
1000
0000
0001
0000
0100
0000
0010
0000
,
1000
0000
0100
0000
0010
0000
0001
0000
0010
0000
0001
0010
0001
0000
0010
0100
0010
0000
0100
1000
0100
0000
1000
0000
0001
0000
1000
0001
1000
0000
0001
0000
,
1000
0000
0001
0000
1000
0000
0010
0000
1000
0000
0010
1000
0010
0000
0100
0000
0010
0000
0100
0000
0001
0000
0010
0000
0100
0000
0010
0100
0010
0000
0100
0000
,
1000
0001
1000
0000
0001
0000
0100
0001
0100
0000
0001
0000
0100
0010
0100
0000
0010
0000
1000
0010
1000
0000
0010
0000
1000
0000
0100
0000
0010
0000
0001
0000
,
0010
0000
0100
0010
0100
0000
1000
0000
0001
0000
1000
0001
1000
0000
0001
0000
0100
0000
0001
0100
0001
0000
0100
0010
0100
0000
0010
0000
1000
0000
0100
0000
,
1100
0000
0000
0000
0110
0000
0000
0000
0000
0000
0011
0000
0000
0000
0101
0000
0101
0000
0000
0000
0010
0000
1000
0010
1000
0000
0001
1000
0001
0000
1000
0000
,
0001
0000
0000
0001
0100
0000
0010
0000
1000
0000
0100
0000
0010
0000
0001
0000
0000
0000
0010
0000
0100
0000
1000
0000
1000
0000
0001
0000
1000
0000
0000
0000
,
0001
0000
0000
0001
1000
0000
0010
0000
0100
0000
0001
0000
0010
0000
0100
0000
0000
0000
1000
0000
0010
0000
0100
0000
0001
0000
0000
0000
1000
0000
0000
0000
,
0100
0000
0000
0100
1000
0000
0010
0000
0100
0000
0001
0000
0010
0000
0100
0000
0000
0000
0010
0000
0001
0000
1000
0000
0010
0000
0000
0000
0100
0000
0000
0000
,
0001
0000
0000
0001
0100
0000
0010
0000
1000
0000
0000
1000
0100
0000
0010
0000
0001
0000
0010
0000
0100
0000
1000
0000
0001
0000
1000
0001
1000
0000
0001
0000
,
0100
0000
0000
0100
0010
0000
1000
0000
0100
0000
0010
0000
0001
0000
0010
0000
0100
0000
0000
0100
1000
0000
0010
0000
0100
0000
0001
0000
0100
0000
0010
0000
,
1000
0000
0000
1000
0001
0000
0100
0000
0010
0000
0000
0010
1000
0000
0100
0000
0010
0000
0000
0010
0001
0000
0010
0000
0100
0000
1000
0000
0001
0000
0100
0000
,
0001
0000
0000
0001
0100
0000
0010
0000
1000
0000
0100
0000
0010
0000
0001
0010
0001
0000
0010
0000
0100
0000
0010
0100
0010
0000
0100
0000
1000
0000
0001
0000
,
0100
0000
0000
0100
0010
0000
1000
0000
0100
0000
0010
0000
0010
0000
0001
0000
0010
0000
0010
0000
0100
0000
1000
0000
1000
0000
0001
0000
0100
0010
0100
0000
,
0020
0000
0100
0100
0100
0100
0000
1000
0000
0100
0100
0030
0110
0000
0010
1000
,
0100
0000
0000
0000
0010
0000
0001
0000
0010
0000
0100
0010
0100
0000
1000
0001
1000
0000
0001
1000
0001
0000
1000
0010
1000
0000
0010
0000
1000
0000
0010
0000
,
0100
0000
0000
0000
0001
0000
0010
0000
0001
0000
0010
0000
0000
0000
0110
0000
0000
0000
0100
0000
1000
0000
0001
1000
0001
0000
1000
0000
0001
0000
0100
0000
,
0010
0000
0100
0010
0100
0000
0010
0000
1000
0000
0010
1000
0010
0000
1000
0000
0001
0100
0001
0000
0100
0000
0001
0010
0001
0000
0010
0000
0100
0000
0010
0000
,
0200
0000
0010
0010
0010
0010
0000
0001
0000
0010
0010
0300
0110
0000
1000
0001
,
0010
0000
0000
0000
0100
0000
1000
0000
0100
0000
0010
0100
0010
0000
0001
1000
0001
0000
1000
0001
1000
0000
0001
0100
0001
0000
0100
0000
0001
0000
0100
0000
,
0010
0000
0000
0000
1000
0000
0100
0000
1000
0000
0100
0000
0000
0000
0110
0000
0000
0000
0010
0000
0001
0000
1000
0001
1000
0000
0001
0000
1000
0000
0010
0000
,
0100
0000
0010
0100
0010
0000
0100
0000
0001
0000
0000
0000
0100
0000
0010
0000
1000
0000
0000
0000
0000
0000
0000
0000
2200
0000
0011
0000
0000
0000
3300
0000
,
0001
0010
0100
1000
0001
0000
0100
0000
0010
0000
1000
0000
0100
0000
0010
0000
0000
0000
0001
0000
0010
0000
0100
0000
1000
0000
0000
0000
0001
0000
0000
0000
,
0100
0010
1000
0001
0100
0000
0010
0000
1000
0000
0100
0000
0010
0000
0001
0000
0000
0000
0010
0000
0100
0000
1000
0000
0001
0000
0100
0000
0001
0000
0000
0000
,
1000
0100
0010
0001
0010
0000
0100
0000
1000
0000
0001
0000
0100
0000
0010
0000
1000
0000
0100
0000
0010
0000
0001
0000
0010
0000
0100
0000
1000
0000
0000
0000
,
0001
0100
0010
1000
0010
0000
0000
0000
1000
0010
0100
0001
0100
0000
0000
0000
0010
0000
1000
0000
0100
0000
0010
0000
0001
0000
0000
0000
0010
0000
0000
0000
,
0100
1000
0001
0010
0100
0000
1000
0000
0001
0000
0100
0000
0010
0000
1000
0000
0000
0000
0100
0000
0010
0000
0001
0000
0010
0000
0100
0000
1000
0000
0000
0000
,
0001
0010
0100
1000
0001
0000
1000
0000
0010
0000
0100
0000
0001
0000
0100
0000
0000
0000
0100
0000
0010
0000
1000
0000
0100
0000
0010
0000
0001
0000
0000
0000
,
0001
0010
0100
1000
0001
0000
0100
0000
0010
0000
1000
0000
0100
0000
1000
0000
0000
0000
0001
0000
1000
0000
0100
0000
0010
0000
0001
0000
0010
0000
0000
0000
,
0001
0010
0100
0000
0010
0000
0100
1000
0100
0000
1000
0000
0001
1000
0001
0000
1000
0000
0001
0100
0001
0000
0100
0000
0010
0000
0100
0000
0010
0000
1000
0000
,
0010
1000
0010
0100
0101
0100
0010
1000
0100
0010
0100
0010
0110
0100
1000
0001
,
0100
0010
0100
0001
0101
0010
0100
0010
1000
0100
0010
0100
0110
0010
0001
0010
,
0100
1000
0001
1000
1001
0010
1000
0001
0100
0010
1000
0100
1100
0100
0010
0001
,
0010
0100
0010
0100
0110
1000
0001
0100
0110
0000
0000
0000
0000
0000
0000
0000
;

//---------------dance-single - Renard----------------
#NOTES:
     dance-single:
     Renard:
     Hard:
     9:
     0.596,0.506,0.216,0.028,0.760:
0000
0000
0000
0000
,
0001
0000
0100
0001
1000
0000
0100
1000
0001
0000
1000
0100
1000
0001
0010
0000
,
0001
0000
1000
0001
1000
0000
0001
0100
0001
0000
0100
0010
1001
0000
0000
0000
,
0001
0000
0100
0010
1000
0000
0010
0100
0000
0001
0010
0000
0110
0000
0000
0000
,
0100
0000
1000
0001
0100
0000
0001
0100
0000
0010
1000
0000
1001
0000
1000
0100
,
0010
0000
0001
0010
0100
0000
1000
0001
0000
0100
0001
0000
1001
0000
1000
0100
,
1000
0000
0001
0010
0001
0000
1000
0001
0000
0100
0010
0000
1001
0000
1000
0010
,
1000
0000
0001
0100
0001
0000
0010
0100
0000
1000
0001
0000
0011
0000
0010
0100
,
1000
0000
0001
0100
0010
0000
1000
0010
0000
0000
1001
0000
0101
0000
0100
0010
,
1000
0000
0100
0010
0001
0000
0010
0100
0000
0000
0110
0000
1100
0000
1000
0010
,
0100
0001
0100
0000
0010
0000
0100
0010
1000
0000
0100
1000
0000
0001
0010
0100
,
2000
0000
0000
0000
0010
0000
0100
0000
0001
0000
0100
3000
0010
1000
0100
0010
,
0000
0000
0001
0010
0100
0000
0100
1000
0010
0000
0010
0100
0000
0100
0001
0000
,
0002
0000
0100
0000
0010
0000
1000
0000
0100
0000
1000
0000
0010
0000
0100
0003
,
0001
0000
0001
0100
0010
1000
0100
0010
0000
0010
0001
0010
0100
1000
0001
0000
,
2001
0000
0100
0000
0010
0000
0001
0000
3100
0000
1000
0100
0010
0001
0010
0100
,
1000
0000
0001
0100
0010
0000
0000
0010
1000
0000
1000
0010
0100
0000
0001
0010
,
0100
1000
0001
0010
0100
0000
0010
0001
1000
0000
0100
1000
0001
0000
0100
0000
,
0010
0000
0010
1000
0001
0000
0001
0100
0000
0100
0010
1000
0100
0000
0100
0010
,
0001
0000
0010
0100
1000
0001
0000
0010
0000
0010
0100
1000
0010
0000
0100
0000
,
0001
0000
0000
0000
0001
0100
0000
0110
0000
0010
1000
0100
0010
0000
0001
0000
,
0011
0000
0010
0100
1000
0001
0000
0010
0000
0100
1000
0001
0100
0000
0110
0000
,
1010
0000
1000
0000
0001
1000
0000
1001
0000
1000
0001
1000
0001
0000
1000
0000
,
1001
0000
1000
0100
0010
0001
0000
1000
0000
0001
0100
0010
1000
0000
1010
0000
,
1001
0000
1000
0100
0010
0001
0000
1001
0000
0001
0010
0100
1000
0001
0100
0010
,
1000
0000
1000
0010
0100
0001
0000
1000
0000
0001
0100
0001
1000
0000
0100
0000
,
1100
0000
0010
0001
0010
0000
0100
1000
0001
0000
0000
0000
1111
0000
0000
0000
,
0001
0000
1000
0000
0100
0010
0001
0010
0000
0100
1000
0001
0010
0100
1000
0000
,
0001
0000
0100
0000
0010
1000
0000
0010
0000
0100
0001
0100
0010
1000
0100
0010
,
0001
0000
0010
0000
0100
1000
0000
0001
0000
0010
0001
1000
0100
0010
0001
0000
,
0010
0000
0100
0000
1000
0001
0010
0000
0100
1000
0001
0010
0100
1000
0001
0000
,
1000
0000
1000
0001
0000
0001
0100
0000
0010
1000
0010
0100
0001
0000
0100
0000
,
0010
0000
0010
1000
0000
1000
0001
0000
1000
0100
0010
0001
0010
0000
0100
0000
,
1000
0000
1000
0001
0000
0001
0100
0000
0001
1000
0100
0010
0001
0000
0010
0000
,
0100
0000
0000
0000
1000
0000
0001
0000
0000
0000
0100
0000
0010
0000
0000
0000
1000
0000
0010
0000
1000
0000
0001
0000
1000
0000
0001
1000
0001
0000
1000
0000
,
0001
0000
0000
0000
0100
0000
0010
0000
1000
0000
0000
0000
0010
0000
0100
0000
0000
0000
0001
0000
0000
0000
1000
0000
0001
0000
1000
0001
1000
0000
0001
0000
,
0100
0000
0000
0000
0010
0000
1000
0000
0100
0000
0000
0000
0010
0000
0001
0000
0000
0000
1000
0000
0001
0000
0000
0000
1000
0000
0001
1000
0001
0000
1000
0000
,
0001
0000
0000
0000
0100
0000
0010
0000
1000
0000
0000
0000
0100
0000
1000
0000
0000
0000
0001
0000
0010
0000
0000
0000
0001
0000
1000
0001
1000
0000
0001
0000
,
0100
0000
0010
1000
0100
0000
0010
0001
0011
0000
0000
0000
0000
0000
0000
0000
;

//---------------dance-single - ----------------
#NOTES:
     dance-single:
     Renard:
     Medium:
     6:
     0.256,0.271,0.131,0.094,0.056:
0000
0000
0000
0000
,
1000
0000
0000
1000
0000
0000
0000
0000
0000
0000
0000
0000
0000
0000
0000
0000
,
0001
0000
0001
0000
0100
0100
0100
0000
,
0010
0000
1000
0000
1001
0000
0001
0100
,
0001
0000
0011
0000
0110
0000
0100
1000
,
0001
0000
0100
0000
1001
0000
0001
0100
,
0010
1010
1001
1000
,
0100
0000
0010
0001
0010
0000
0110
0000
,
1000
0000
0010
0100
0001
0000
1001
0000
,
1000
0000
0001
0010
0100
0000
0110
0000
,
0100
0000
0000
0000
1000
0000
0001
0000
0100
0000
0000
0001
0000
0000
1000
0000
,
0100
0000
0000
0000
1000
0000
0000
0000
0100
0000
0000
0000
1000
0001
1000
0000
,
0001
0200
0320
0000
,
2030
0000
3100
0010
,
0002
0000
0000
0000
1003
0000
0010
0200
0000
0000
0000
0000
0302
0000
0000
0000
,
0023
0000
0000
0000
0000
0000
0000
0000
0031
0000
0000
0000
1000
0001
1000
0000
,
0001
0200
0310
0000
,
0010
1000
0010
1000
0010
0000
0000
0000
1000
0000
0000
0000
0100
0000
0000
0000
,
0010
0000
0000
0000
0001
0000
1000
0001
0000
0000
0000
0000
0100
0000
0000
0000
,
0001
1000
0100
0000
1000
0000
0000
0001
,
0100
0000
0000
0000
0001
0000
0000
1000
0000
0000
0000
0000
0000
0000
0000
0000
,
0100
0000
0000
0000
0010
0000
0000
0001
,
1000
0000
0000
0000
0010
0000
0000
1000
0000
0000
0000
0000
0000
0000
0010
0000
,
0100
0000
0000
0000
0001
0000
0000
0100
,
0001
0000
0000
0000
0010
0000
0000
0100
0000
0000
0000
0000
0000
0000
0000
0000
,
1000
0010
0100
0000
0010
0000
0000
0100
,
0001
1000
0000
0100
1000
0000
1001
0000
,
0001
0000
0001
0000
0100
0010
0100
0000
,
0010
0000
0010
0000
1000
0100
1000
0000
,
0001
0000
0001
0000
0010
0100
0010
0100
,
1000
1000
0001
0001
,
0100
0000
0100
0000
0100
0000
0010
1000
,
0010
0100
0002
0000
,
0013
0100
2000
0000
3001
0000
0001
0000
,
1000
0000
0000
0000
0001
0000
0000
0100
0000
0000
0000
0000
0010
0000
0000
0000
,
1000
0010
0101
0001
,
0010
1000
1100
1000
,
0010
0100
1001
1000
,
0010
0100
1001
0000
;

//---------------dance-single - Renard----------------
#NOTES:
     dance-single:
     Renard:
     Easy:
     2:
     0.200,0.217,0.066,0.234,0.000: // measure 1
0000
0000
0000
0000
,  // measure 2
1000
0000
0000
0000
,  // measure 3
0001
0000
0000
0110
,  // measure 4
0010
0000
1000
0000
2000
0000
0000
3000
,  // measure 5
0001
0000
0010
0000
0020
0000
0000
0030
,  // measure 6
0000
0000
0002
0000
2000
0000
0000
3003
,  // measure 7
0000
0000
0020
0000
0200
0000
0000
0330
,  // measure 8
0010
0010
0110
0000
,  // measure 9
0100
0100
0110
0000
,  // measure 10
1000
1000
1001
0000
,  // measure 11
0001
0001
1001
0000
,  // measure 12
2000
0000
3100
0010
,  // measure 13
0001
0100
0020
0000
,  // measure 14
2030
0000
0000
0000
0000
3000
0020
0000
,  // measure 15
0130
0100
0010
0100
,  // measure 16
0002
0000
0000
0013
,  // measure 17
0100
2000
0002
3003
,  // measure 18
0001
1000
0001
0000
0000
0000
0001
0000
,  // measure 19
0100
0010
1000
0001
,  // measure 20
0100
0000
0100
0000
0001
0000
0000
1000
,  // measure 21
0100
0010
0002
0000
,  // measure 22
1003
0001
0100
0010
,  // measure 23
1000
0001
2000
0000
,  // measure 24
3100
0000
0010
0000
0001
0000
1000
0001
,  // measure 25
0100
0001
0002
0000
,  // measure 26
0103
0000
0010
0000
1000
0000
0100
1000
,  // measure 27
0002
1003
0001
0110
,  // measure 28
0001
0001
2000
0000
,  // measure 29
3010
0100
0001
1000
,  // measure 30
0200
0000
0000
0310
,  // measure 31
0001
1000
0001
0100
,  // measure 32
0002
0000
0000
0013
,  // measure 33
0100
0000
2000
0000
3002
0000
0000
0103
,  // measure 34
0001
0100
0001
0000
0200
0000
0000
0300
,  // measure 35
0020
0030
2000
3000
,  // measure 36
0100
0000
0010
0001
,  // measure 37
1000
0000
0001
0100
,  // measure 38
0010
0000
1000
0100
,  // measure 39
0010
0000
1001
0000
;
