#TITLE:God's Child (Hardfox Remix);
#SUBTITLE:;
#ARTIST:Kai Jaxx;
#TITLETRANSLIT:;
#SUBTITLETRANSLIT:;
#ARTISTTRANSLIT:;
#CREDIT:;
#BANNER:god.png;
#BACKGROUND:god-bg.png;
#LYRICSPATH:;
#CDTITLE:;
#MUSIC:god.ogg;
#OFFSET:0.000;
#SAMPLESTART:50.745;
#SAMPLELENGTH:12.000;
#SELECTABLE:YES;
#BPMS:0.000=151.225;
#STOPS:;
#BGCHANGES:;

//---------------dance-single - Renard----------------
#NOTES:
     dance-single:
     Renard:
     Challenge:
     10:
     0.794,0.979,0.677,0.037,0.682:
0000
0000
0000
0000
,
0000
0000
0000
0000
,
0000
0000
0000
0000
,
0000
0000
0000
0000
,
1000
0100
1100
0000
0100
0010
0110
0110
,
0010
0001
0011
0000
0001
0100
0101
0101
,
0100
0010
0110
0000
0010
1000
1010
1010
,
1000
0001
1001
0001
1001
1000
1001
0000
,
1001
0000
0000
0100
0010
0000
1000
0000
0100
0000
0010
0000
0110
0000
0110
0000
,
0010
0000
0000
0010
0001
0000
0100
0000
0010
0000
1000
0000
1010
0000
1010
0000
,
1000
0000
0000
0000
0010
0100
0001
0000
0010
0000
0100
0000
0110
0000
0110
0000
,
0100
0000
0000
1000
0010
0000
0100
0000
0001
0000
0100
0000
0110
0000
0110
0000
,
0010
0000
0000
1000
0100
0000
0010
0000
0001
0000
1000
0000
1001
0000
1001
0000
,
0001
0000
0000
0001
0100
0000
0010
0000
1000
0000
0100
0000
0110
0000
0110
0000
,
0100
0000
0000
1000
0010
0000
0100
0000
0001
0000
1000
0000
1001
0000
1001
0000
,
0001
0000
0000
0100
0010
0000
1000
0000
0100
0000
0010
0000
1001
0000
1001
0000
,
1000
0000
0010
0000
1000
0010
0000
1000
0010
0000
1000
0010
0000
1000
0010
0000
,
0100
0000
0001
0000
0100
0001
0000
0100
0001
0000
0100
0001
0000
0100
0001
0000
,
0010
0000
0001
0000
0010
0001
0000
0010
0001
0000
0010
0001
0000
0010
0001
0000
,
0010
0000
0100
0000
0010
0100
0000
0010
0100
0000
0010
0100
0000
0010
0100
1000
,
0001
0000
0100
0000
0001
0100
0000
0010
0100
0000
0010
1000
0000
0001
1000
0000
,
0100
0000
1000
0000
0001
0010
0000
0001
0010
0000
0100
1000
0000
0001
0100
0000
,
0010
0000
1000
0000
0001
0000
0100
0010
0000
1000
0001
0000
0100
0000
0010
0000
,
1000
0100
0000
0010
0001
0000
0010
0100
0000
1000
0001
0000
0100
0000
0001
0000
,
1000
0000
0001
0000
0110
0000
0000
1000
0000
0100
0010
0000
0011
0000
0000
0000
,
0100
0000
1000
0000
0110
0000
0000
0001
0000
0100
0010
0000
1010
0000
0000
0000
,
0001
0000
1000
0000
1100
0000
0000
0100
0000
0010
0001
0000
1001
0000
0000
0000
,
0001
0000
0100
0010
1000
0000
0010
0000
0000
0000
0001
0000
0101
0000
0001
0000
,
1000
0000
0000
0000
1001
0000
0000
1000
0000
0100
0010
0000
0011
0000
0001
0010
,
0100
0000
0000
0000
1100
0000
0010
0000
0000
0000
0001
0100
0010
0000
1000
0000
,
0001
0000
0110
0010
0000
1000
0100
0010
,
0001
0000
0000
0000
0110
0000
0100
0000
0000
0000
1000
0000
0010
0100
0010
0100
,
0001
0000
0000
1000
1000
0000
0010
0000
0100
0000
0000
0000
1001
0000
0000
0000
,
0001
0000
0100
0010
1000
0000
0100
0000
0010
0000
0001
0000
1000
0000
0010
0000
,
1000
0000
0000
0001
0001
0000
1000
0000
0100
0000
0000
0000
0010
0000
0001
0000
,
0100
0000
0110
0010
0000
1000
0100
0010
,
0001
0000
0000
1000
1000
0000
0010
0000
0100
0000
0001
0000
0010
0000
0000
0000
,
0100
0000
1000
0010
0000
0100
0001
0010
,
0100
0000
0000
0100
0100
0000
1000
0000
0020
0000
0000
0000
0000
0000
0000
0000
,
0100
0000
0100
0000
0000
0100
0000
0000
0100
0000
0100
0000
0130
0000
0000
0000
,
0010
1000
0100
0010
0001
0010
0100
1000
0001
0100
0010
1000
0001
0100
0010
1000
,
0010
0000
0000
0010
0010
0000
0100
0000
0001
0000
0000
0000
0000
0000
0000
0000
,
0010
0100
1000
0001
0010
0100
0010
0001
1000
0010
0100
0001
1000
0100
0010
0001
,
0010
0000
0000
0100
0100
0000
1000
0000
0001
0000
0000
0000
0000
0000
0000
0000
,
1001
0000
0000
1000
1001
0000
1000
0000
1001
0000
0000
0000
1001
0000
0000
0000
,
1001
0000
0000
0001
1001
0000
0001
0000
1001
0000
0000
0000
1000
0000
0000
0000
,
0110
0000
0000
0010
0110
0000
0010
0000
0110
0000
0000
0000
0100
0000
0000
0000
,
0110
0000
0000
0100
0110
0000
0100
0000
0110
0000
1001
0000
0110
0000
0000
0000
,
1010
0000
0000
1000
1001
0000
0100
0000
1010
0000
0010
0000
0110
0000
0000
0000
,
0101
0000
0000
0001
1001
0000
1000
0000
1100
0000
1000
0000
1001
0000
0000
0000
,
0110
0000
0000
0100
0101
0000
0001
0000
1001
0000
1000
0000
1100
0000
0000
0000
,
0110
0000
0000
0010
0011
0000
0001
1000
0001
0000
1000
0000
1000
0000
1000
0000
,
0001
0000
0000
0001
0100
0000
0010
0000
2000
0000
0000
0000
0000
0000
0000
0000
,
3010
0000
0000
0010
0100
0000
0001
0000
0020
0000
0000
0000
0000
0000
0000
0000
,
0130
0000
0000
0100
1000
0000
0010
0000
0200
0000
0000
0000
0000
0000
0000
0000
,
0301
0000
0001
1000
0000
1000
1001
0000
,
0001
0010
0100
1000
0010
0100
0001
0010
0100
0010
0001
1000
0100
0010
0100
1000
,
0010
0100
0001
0010
0100
1000
0010
0100
0001
1000
0100
0010
0100
1000
0010
0100
,
0001
0100
0010
1000
0100
0010
0001
0010
0100
1000
0010
0100
0001
0100
0010
1000
,
0100
0010
0001
1000
0010
0100
0001
1000
0010
0000
0010
1000
0000
0010
0100
0000
,
0001
0100
0010
1000
0100
0010
0100
1000
0010
0100
0001
0010
0100
0010
0001
1000
,
0100
0010
0100
1000
0010
0100
0001
0100
0010
1000
0100
1000
0100
0010
0001
0010
,
0100
1000
0001
0010
0001
0010
0100
1000
0010
0100
0010
0100
0010
1000
0100
1000
,
0100
1000
0010
0100
0001
1000
0010
0100
0001
0000
1000
0001
1000
0000
0001
0000
,
1000
0000
0000
0000
;

//---------------dance-single - Renard----------------
#NOTES:
     dance-single:
     Renard:
     Hard:
     9:
     0.526,0.564,0.343,0.009,0.218:
0000
0000
0000
0000
,
0000
0000
0000
0000
,
0000
0000
0000
0000
,
0000
0000
0000
0000
,
1000
0000
1001
0000
0001
0100
0010
0010
,
1000
0000
1100
0000
1000
0100
0010
0010
,
0001
0000
0011
0000
0010
0100
1000
1000
,
0001
0100
0010
0000
1010
0000
1001
0000
,
1000
0100
0010
0000
0001
0010
0100
0000
,
1000
0001
0100
0000
0010
1000
0100
0010
,
0001
0010
0001
0000
1000
0100
1000
0000
,
0001
0100
0010
0000
1000
0010
0100
0001
,
0100
0000
0000
0100
0001
0000
0000
0000
1000
0000
0000
1000
0100
0000
0000
0000
,
0010
0000
0000
0010
0001
0000
0000
0000
1000
0000
0010
0000
0100
0000
0001
0000
,
1000
0000
0000
1000
0001
0000
0000
0000
0010
0000
0000
0010
0100
0000
0000
0000
,
1000
0000
0000
1000
0010
0000
0000
0000
0100
0000
0001
0000
0010
0000
0001
0000
,
1000
0000
0001
0000
0100
0010
0100
0010
,
1000
0000
0001
0000
0100
0010
0100
0010
,
1000
0000
0001
0000
0100
0010
0100
0010
,
1000
0001
0100
0000
,
0010
0000
1000
0000
0100
0010
0100
0010
,
0001
0000
1000
0000
0100
0010
0100
0010
,
0001
0000
1000
0000
0001
0100
0010
0000
,
1000
0100
0010
0001
,
1000
0000
0110
0100
0000
0001
0011
0000
,
0010
0000
0110
0100
0000
1000
0010
0100
,
0001
0000
0110
1000
0000
1000
0110
0000
,
0001
0000
0110
1000
0000
1000
0110
0001
,
0010
0000
1100
0010
0000
0001
1001
0000
,
0001
0000
0110
0010
0000
1000
1100
0000
,
0010
0000
0011
0001
0000
1000
1001
0000
,
0100
0000
0110
0010
0000
1010
1000
0001
,
1000
0000
0000
1000
0100
0000
0010
0000
0001
0000
0000
0000
0010
0000
0000
0000
,
0100
1000
0001
0000
0100
0010
1000
0000
,
0001
0000
0000
0001
0100
0000
0010
0000
1000
0000
0000
0000
0101
0000
0000
0000
,
0001
1000
0100
0000
0010
0000
0001
0000
,
1000
0000
0000
1000
0001
0000
0100
0000
0010
0000
0000
0000
0110
0000
0000
0000
,
0010
0000
1000
0100
0000
0010
0001
1000
,
0001
0000
0000
0001
0100
0000
0010
0000
2000
0000
0000
0000
0000
0000
0000
0000
,
0000
0000
0000
0000
,
3100
0000
0010
0000
0000
0001
0000
0000
1000
0000
0000
0001
0000
0100
0000
0010
,
1000
0000
0000
0000
,
0010
0000
0100
0000
0000
0001
0000
0000
0010
0000
0000
0100
0000
1000
0000
0001
,
0100
0000
0000
0000
,
1010
0000
0000
0100
0001
0000
0010
0000
0100
0000
0000
0000
0110
0000
0000
0000
,
1100
0000
0000
0010
0001
0000
1000
0000
0001
0000
0000
0000
0101
0000
0000
0000
,
1001
0000
0000
1000
0010
0000
0100
0000
0001
0000
0000
0000
0011
0000
0000
0000
,
0110
0000
0000
0100
1000
0000
0001
0000
0100
0000
0010
0000
1000
0000
0100
0000
,
0110
0000
0000
0010
0001
0000
1000
0000
0001
0000
0000
0000
0101
0000
0000
0000
,
0110
0000
0000
0010
1000
0000
0100
0000
0010
0000
0000
0000
0011
0000
0000
0000
,
0110
0000
0000
0100
1000
0000
0001
0000
0100
0000
0000
0000
0110
0000
0000
0000
,
0010
0000
0000
0000
1000
0000
0001
0100
0001
0000
0100
0000
0001
0000
1000
0000
,
0001
0000
0000
0001
1000
0000
0100
0000
0010
0000
0000
0000
0000
0000
0000
0000
,
0001
0000
0000
0001
0010
0000
0100
0000
1000
0000
0000
0000
0000
0000
0000
0000
,
0001
0000
0000
0001
0100
0000
0010
0000
1000
0000
0000
0000
0010
0000
0000
0000
,
0110
0000
0000
1001
0000
0000
0000
0000
,
1000
0000
0100
0000
0010
0000
0001
0010
0000
0100
1000
0000
0001
0000
0010
0000
,
0100
0000
1000
0000
0001
0000
0100
0010
0000
1000
0010
0000
0100
0000
0001
0000
,
0010
0000
0100
0000
1000
0000
0100
0010
0000
0001
0010
0000
0100
0000
1000
0000
,
0001
0000
0100
0000
0010
0000
1000
0000
0010
0000
0100
0001
0000
0100
0000
0010
,
1000
0000
0100
0000
0010
0000
0001
0010
0000
0100
1000
0000
0001
0000
0010
0000
,
0100
0000
1000
0000
0001
0000
0100
0010
0000
1000
0010
0000
0100
0000
0001
0000
,
0010
0000
0100
0000
1000
0000
0001
0100
0000
0010
1000
0000
0001
0000
0100
0000
,
0010
0000
1000
0000
0100
0000
0010
0000
0001
0000
0010
0100
0000
1000
0000
0001
,
0100
0000
0000
0000
;

//---------------dance-single - Renard----------------
#NOTES:
     dance-single:
     Renard:
     Medium:
     5:
     0.336,0.385,0.065,0.046,0.000:
0000
0000
0000
0000
,
0000
0000
0000
0000
,
0000
0000
0000
0000
,
0000
0000
0000
0000
,
0000
0000
0000
0000
,
0000
0000
0000
0000
,
0000
0000
0000
0000
,
0000
0000
0000
0000
,
1000
0001
1000
0001
,
0100
0000
0010
0000
1000
0010
1000
0010
,
0100
0001
0010
0100
,
0010
0000
0001
0000
1000
0001
0100
0001
,
0100
0001
0010
0001
,
1000
0000
0001
0000
0100
0001
0100
0001
,
0010
0100
1000
0001
,
0100
0000
0010
0000
1000
0010
0100
0001
,
0100
0100
0100
0000
,
0100
0000
0100
0000
,
0010
0010
0010
0000
,
0010
0000
0010
1000
,
0100
0010
0001
0000
,
1000
0100
1000
0000
,
0001
0010
0001
0000
,
1001
0000
0000
0110
0000
0000
0000
0000
,
0010
0000
1000
0000
0000
0001
0100
0000
,
0001
0000
0010
0100
0000
1000
0000
0001
,
0100
0000
0001
1000
0000
0100
0000
0000
,
1000
0000
0001
0010
0000
0001
0000
1000
,
0001
0000
0100
0010
0000
1000
0010
0000
,
0100
0000
0001
0010
0000
0001
1000
0100
,
0010
0000
0001
0010
0000
0100
1000
0000
,
0001
0000
0100
0001
0000
1000
0000
0100
,
1000
0000
0001
0100
0001
0000
1000
0000
,
0100
0010
0001
1000
,
0001
0000
0100
0010
0100
0000
0010
0000
,
1000
0100
0010
0001
,
1000
0000
0010
0100
0010
0000
1000
0000
,
0001
0010
0100
1000
,
0100
0000
1000
0001
1000
0000
0001
0000
,
0200
0000
0000
0000
,
0310
0000
0000
0000
,
0010
0000
0100
0010
0100
0000
0000
0000
,
0110
0000
0000
0000
,
0001
0000
1000
0001
1000
0000
0000
0000
,
1001
0000
0100
0010
0100
0000
0000
0000
,
1001
0000
0100
0010
0100
0000
0000
0000
,
1001
0000
0010
0100
0010
0000
0000
0000
,
1001
0000
0010
0100
0010
0100
0010
0000
,
1000
0000
0001
0100
0001
0000
1000
0000
,
0001
0000
0010
0100
0010
0000
0100
0000
,
1000
0000
0010
0100
0010
0000
0100
0000
,
0001
0000
0010
0100
0010
0100
0010
0100
,
1000
0000
0001
0100
0002
0000
0000
0003
,
1000
0000
0100
1000
0200
0000
0000
0000
,
1300
0000
0010
0100
0020
0000
0000
0000
,
0230
0000
0000
0000
,
0301
0000
1000
0000
0001
0100
0001
0100
,
0001
0000
1000
0000
0100
1000
0100
0000
,
1000
0000
0001
0000
0010
0001
0010
0001
,
0010
0000
0001
0000
1000
0010
1000
0000
,
0001
0000
0100
0000
0010
0100
0010
0100
,
0010
0000
1000
0000
0100
0010
0100
0010
,
0001
0000
0010
0000
0100
0010
0100
0010
,
0100
0000
1000
0000
0001
0000
0100
0010
;

//---------------dance-single - Renard----------------
#NOTES:
     dance-single:
     Renard:
     Easy:
     2:
     0.253,0.415,0.260,0.102,0.000: // measure 1
0000
0000
0000
0000
,  // measure 2
0000
0000
0000
0000
,  // measure 3
0000
0000
0000
0000
,  // measure 4
0000
0000
0000
0000
,  // measure 5
0000
0000
0000
0000
,  // measure 6
0000
0000
0000
0000
,  // measure 7
0000
0000
0000
0000
,  // measure 8
0000
0000
0000
0000
,  // measure 9
1000
1000
0001
0001
,  // measure 10
1000
1000
0001
0010
,  // measure 11
0100
0100
0010
0010
,  // measure 12
0100
0100
0010
0001
,  // measure 13
1000
1000
0001
0001
,  // measure 14
1000
1000
0010
0100
,  // measure 15
0010
0010
0100
0100
,  // measure 16
0010
0010
1000
0100
,  // measure 17
0010
0000
0010
0000
,  // measure 18
0001
0000
0001
0000
,  // measure 19
1000
0000
1000
0000
,  // measure 20
0100
0010
0001
1000
,  // measure 21
0001
0000
0001
0000
,  // measure 22
0100
0000
0100
0000
,  // measure 23
0020
0000
0000
0000
,  // measure 24
2030
0000
3200
0000
,  // measure 25
0310
0001
0000
0010
,  // measure 26
0100
1000
0000
1001
,  // measure 27
0100
0010
0000
1000
,  // measure 28
0100
0010
0000
1001
,  // measure 29
0001
0100
0000
0010
,  // measure 30
1000
0100
0000
0110
,  // measure 31
0010
0001
0000
1000
,  // measure 32
0001
0100
0010
1000
,  // measure 33
0001
0001
0001
0000
,  // measure 34
0100
0000
0100
0000
,  // measure 35
0010
0010
0010
0000
,  // measure 36
1000
0000
1000
0000
,  // measure 37
0100
0100
0100
0000
,  // measure 38
1000
0000
1000
0000
,  // measure 39
0001
0001
0002
0000
,  // measure 40
0000
0000
0000
0000
,  // measure 41
0013
0000
0000
0000
,  // measure 42
1001
0000
0000
0000
,  // measure 43
0110
0000
0000
0000
,  // measure 44
1001
0000
0000
0000
,  // measure 45
1100
1100
1100
0000
,  // measure 46
0011
0011
0011
0000
,  // measure 47
0101
0101
0101
0000
,  // measure 48
1010
1010
1010
0000
,  // measure 49
1001
1001
1001
0000
,  // measure 50
0110
0110
0110
0000
,  // measure 51
1010
1010
1010
0000
,  // measure 52
0101
0001
1000
0100
,  // measure 53
0010
0010
0020
0000
,  // measure 54
0000
0000
0000
0000
,  // measure 55
0031
0001
0002
0000
,  // measure 56
2000
0000
0000
3003
,  // measure 57
0010
0010
0010
0000
,  // measure 58
0100
0001
1000
0000
,  // measure 59
0100
0100
0100
0000
,  // measure 60
1000
0001
0010
0000
,  // measure 61
0100
0100
0200
0000
,  // measure 62
1300
0001
0200
0000
,  // measure 63
0301
0010
0200
0000
,  // measure 64
1300
0010
0200
0000
,  // measure 65
0300
0000
0000
0000
;
