#TITLE:God Bless You;
#SUBTITLE:;
#ARTIST:Cranky;
#TITLETRANSLIT:;
#SUBTITLETRANSLIT:;
#ARTISTTRANSLIT:;
#CREDIT:;
#BANNER:god.png;
#BACKGROUND:god-bg.png;
#LYRICSPATH:;
#CDTITLE:;
#MUSIC:god.ogg;
#OFFSET:0.000;
#SAMPLESTART:12.334;
#SAMPLELENGTH:12.000;
#SELECTABLE:YES;
#BPMS:0.000=309.996,272.000=154.998,328.000=149.498,329.667=150.238,330.000=147.478,332.000=129.538,333.000=115.558,334.000=100.978,334.333=86.318,335.000=81.358,335.333=86.338,335.500=84.558,335.667=58.658;
#STOPS:;
#BGCHANGES:;

//---------------dance-single - Renard----------------
#NOTES:
     dance-single:
     Renard:
     Hard:
     10:
     0.860,1.000,0.643,0.000,0.212:
0000
0000
0000
0000
,
0000
0000
0000
0000
,
0000
0000
0000
0000
,
0000
0000
0000
0000
,
0000
0000
0000
0000
,
0000
0000
0000
0000
,
0000
0000
0000
0000
,
1000
0001
0000
1001
0000
0000
0001
0100
,
0001
1000
0100
1000
,
0001
1000
0001
0000
0100
0000
0001
0000
,
1000
0100
0010
0001
,
1000
0001
1000
0000
0001
0000
0100
0000
,
0010
1000
0010
0000
1000
0000
0001
0000
,
0100
0001
0100
0000
0001
0000
1000
0000
,
0100
0000
0000
0010
0001
0010
0001
0000
0000
1000
0100
1000
,
0100
1001
1001
0000
,
1000
0001
0100
0010
,
1000
0000
0000
0010
1000
0010
1000
0000
0000
0001
0000
0000
,
0100
0010
1000
0100
,
0010
0000
0000
0001
0010
0001
0010
0000
0000
0001
0000
0000
,
1000
0000
0100
1000
0100
0000
1000
0001
,
1000
0000
0001
0010
0001
0000
1000
0001
,
1000
0000
0001
0100
0001
0000
0100
0010
,
1000
0000
0010
1000
0010
1000
0001
1000
,
0100
0100
0100
0100
,
0100
0000
0000
0010
0001
0010
0001
0000
0000
0001
0000
0000
,
0010
0010
0010
0010
,
0010
0000
0000
0100
1000
0100
1000
0000
0000
1000
0000
0000
,
0010
0000
1000
0010
1000
0000
0001
0100
,
0001
0000
0010
0001
0010
0000
0100
1000
,
0100
0000
1000
0010
1000
0000
0010
1000
,
0001
0010
0100
1000
0010
0100
0001
0010
,
0100
0011
0100
1010
,
1010
0000
0100
0001
0100
0000
0010
0000
,
0100
1010
0100
0011
,
0011
0000
1000
0100
1000
0000
0010
0000
,
0100
1010
0001
1010
,
1100
0000
1000
0100
0010
0000
0100
0000
,
1000
0000
0001
0100
0001
0000
1000
0010
,
1000
0000
0001
1000
0100
0010
0001
0000
,
1001
1001
0110
0110
,
1001
0000
0100
0010
0100
0000
0010
0000
,
0110
0110
1001
1001
,
0110
0000
1000
0001
1000
0000
0001
0000
,
1000
0100
0010
0001
0100
0010
1000
0100
,
0010
0001
0010
0100
1000
0001
0100
0010
,
1000
0100
0010
0001
0010
0100
1000
0010
,
0100
0001
1000
0100
0010
0001
0100
0010
,
1000
0000
0010
0000
1000
0001
1000
0000
,
0001
0000
0100
0000
0001
0010
0001
0000
,
0010
0100
1000
0001
0010
0100
1000
0000
,
0110
0000
1001
0000
,
0001
0000
0001
1000
0100
0000
0100
0010
,
0001
0000
0001
0010
0100
0000
0100
1000
,
0010
0000
0010
0100
0001
0000
0001
0100
,
0010
0000
0010
1000
0100
0000
0100
1000
,
0001
0000
0001
0010
0001
0000
0001
0100
,
0010
0000
0010
1000
0100
0000
0100
0010
,
0100
0000
0100
1000
0010
0000
0010
0100
,
0001
0000
0100
0010
1000
0000
0001
0000
,
1000
0000
1000
0001
0010
0000
0010
0100
,
1000
0000
1000
0100
0010
0000
0010
0001
,
0100
0000
0100
0010
1000
0000
1000
0010
,
0100
0000
0100
0001
0010
0000
0010
0001
,
1000
0000
1000
0100
1000
0000
1000
0010
,
0100
0000
0100
0001
0010
0000
0010
0100
,
0010
0001
1000
0100
0010
0001
0010
0100
,
1000
0010
0100
0001
0010
0100
1000
0001
,
1000
0000
0001
0000
1000
0000
0000
0000
1001
0000
0000
0000
0001
0000
0100
0010
,
1000
0000
0100
0000
0010
0000
0001
0000
0011
0000
0010
0000
0100
0000
1000
0001
,
1000
0000
0001
0000
1001
0000
0000
0000
1001
0000
0000
0000
0100
0000
0010
1000
,
0010
0000
1000
0000
0100
0000
0010
0000
0011
0000
0000
0000
0010
0000
0100
1000
,
0001
0000
1000
0000
0001
0000
0000
0000
1001
0000
0000
0000
0001
0000
0100
0010
,
1000
0010
1000
0001
0100
0010
1000
0100
,
0110
0000
0110
0000
0110
0000
0000
0000
0110
0000
0000
0000
0100
0000
1000
0010
,
1000
0010
1000
0001
0100
0001
0010
0001
0010
0100
1000
0100
,
1100
0000
0110
0000
0011
0000
0000
0000
0011
0000
0000
0000
0010
0000
0100
1000
,
0001
1000
0010
0100
0110
0000
1010
0000
,
1001
0000
0101
0000
1001
0000
0000
0000
1100
0000
0000
0000
1000
0000
0001
0010
,
0100
1000
0001
1000
0101
1010
1001
0000
,
1100
0000
1001
0000
1010
0000
0000
0000
1001
0000
0000
0000
1000
0000
0100
0010
,
0001
0010
0100
1000
0001
0010
0001
1000
,
1001
0101
0011
0000
1001
0000
0001
1000
,
0001
1000
1000
0010
0100
0100
0001
0010
0010
0100
1000
1000
,
1001
0000
0000
0000
;

//---------------dance-single - Renard----------------
#NOTES:
     dance-single:
     Renard:
     Medium:
     7:
     0.404,0.820,0.126,0.264,0.000:
0000
0000
0000
0000
,
0000
0000
0000
0000
,
0000
0000
0000
0000
,
0000
0000
0000
0000
,
0000
0000
0000
0000
,
0000
0000
0000
0000
,
0000
0000
0000
0000
,
0000
0000
0000
0000
,
1000
0001
0100
0001
,
1000
0000
0001
0000
,
1000
0001
0100
0001
,
1000
0000
0001
0000
,
1000
0001
0100
0000
,
0001
1000
0100
0000
,
1000
0000
0000
0000
,
0000
0000
0000
0000
,
0001
0100
0010
1000
,
0001
0100
0010
1000
,
0200
0000
0000
0000
,
0000
0000
0310
0000
,
0001
0000
0010
0000
,
0100
0000
1000
0000
,
0001
0000
0100
0000
,
0010
1000
0010
0000
,
1000
0100
0010
0001
,
0010
0100
1000
0001
,
0200
0000
0000
0000
,
0310
1000
0010
0100
,
0002
0000
0000
0000
,
0000
0000
1003
0000
,
0200
0000
0000
0000
,
0310
0000
0001
0000
,
0010
0100
0010
0100
,
0010
0001
0010
0001
,
1000
1000
0100
0100
,
0010
0000
0001
0000
,
0010
0010
0100
0100
,
1000
0000
0001
0100
,
0002
0000
0000
0000
,
2003
0000
0000
0000
,
3100
0010
0001
0010
,
0100
0010
0100
0010
,
0100
1000
0100
1000
,
0010
1000
0010
1000
,
0001
0100
0010
1000
,
0100
0010
0001
1000
,
0001
0100
0010
1000
,
0001
0100
0010
1000
,
0002
0000
0000
0000
,
0103
0000
0010
0000
,
1000
0000
0100
0000
,
0010
0000
0001
0000
,
0010
0000
0010
0000
,
0100
1000
0100
0000
,
2000
3000
0002
0000
,
0103
0000
0010
1000
,
0100
0000
0010
0000
,
0001
0000
1000
0000
,
0020
0030
0100
0000
,
0001
0010
0100
0000
,
2000
0000
3001
0000
,
0100
0010
1000
0000
,
0200
0300
0010
0000
,
0001
0010
0100
0000
,
1000
0000
0020
0030
,
0100
0000
0001
0010
,
0002
0000
1003
0000
,
0020
0000
0130
0000
,
0001
0000
1001
0000
,
1000
0100
0010
0001
,
1000
0000
1001
0000
,
0001
0100
0010
1000
,
0100
0010
0011
0000
,
0010
0100
1000
0001
,
0100
0010
0110
0000
,
0010
1000
0100
0010
,
0001
0010
0110
0000
,
0100
1000
1001
0101
,
1010
1001
1001
0000
,
1000
0100
0010
0001
,
0010
0100
0110
0000
,
0100
1000
0001
0100
,
0020
2030
3200
0320
,
0032
2003
3020
0230
,
0301
0000
0000
0000
;

//---------------dance-single - Renard----------------
#NOTES:
     dance-single:
     Renard:
     Easy:
     4:
     0.333,0.482,0.149,0.195,0.000: // measure 1
0000
0000
0000
0000
,  // measure 2
0000
0000
0000
0000
,  // measure 3
0000
0000
0000
0000
,  // measure 4
0000
0000
0000
0000
,  // measure 5
0000
0000
0000
0000
,  // measure 6
0000
0000
0000
0000
,  // measure 7
0000
0000
0000
0000
,  // measure 8
0000
0000
0000
0000
,  // measure 9
1000
0000
0001
0000
,  // measure 10
1000
0001
1000
0000
,  // measure 11
0001
0000
1000
0000
,  // measure 12
0001
0000
0000
0000
,  // measure 13
0100
0000
0010
0000
,  // measure 14
0100
0010
0100
0000
,  // measure 15
0010
0000
0010
0000
,  // measure 16
0010
0000
0000
0000
,  // measure 17
1000
0000
1000
0000
,  // measure 18
1000
0000
0010
0100
,  // measure 19
0010
0000
0010
0000
,  // measure 20
0010
0000
0100
0001
,  // measure 21
0100
0000
0000
0000
,  // measure 22
0000
0000
0001
0000
,  // measure 23
1000
0000
0000
0000
,  // measure 24
0000
0000
0000
0000
,  // measure 25
0100
0000
0100
0000
,  // measure 26
0100
0000
0010
0001
,  // measure 27
0010
0000
0000
0000
,  // measure 28
0000
0000
0100
1000
,  // measure 29
0200
0000
0000
0300
,  // measure 30
2000
0000
0000
3000
,  // measure 31
0001
0000
0100
0000
,  // measure 32
0010
0000
1000
0000
,  // measure 33
0001
1000
0001
1000
,  // measure 34
0001
1000
0001
1000
,  // measure 35
0020
0000
0000
0000
,  // measure 36
0130
0010
0100
0010
,  // measure 37
0200
0000
0000
0000
,  // measure 38
0301
1000
0001
1000
,  // measure 39
0200
0000
2300
0000
,  // measure 40
3002
0000
0023
0000
,  // measure 41
0130
1000
0100
1000
,  // measure 42
0100
1000
0100
1000
,  // measure 43
0001
1000
0001
1000
,  // measure 44
0001
1000
0001
1000
,  // measure 45
0001
0100
0010
1000
,  // measure 46
0100
0010
0001
0010
,  // measure 47
0100
1000
0001
0010
,  // measure 48
0100
1000
0001
0100
,  // measure 49
0020
0000
0000
0000
,  // measure 50
0000
0000
0000
0000
,  // measure 51
0000
0000
0000
0000
,  // measure 52
0000
0000
0000
0000
,  // measure 53
0130
0000
0100
0000
,  // measure 54
0010
0000
0100
0000
,  // measure 55
0110
0000
1001
0000
,  // measure 56
0000
0000
0000
0000
,  // measure 57
0010
0000
0100
0000
,  // measure 58
0010
0000
0100
0000
,  // measure 59
1001
0000
0110
0000
,  // measure 60
0000
0000
0000
0000
,  // measure 61
0100
0000
0010
0000
,  // measure 62
1000
0000
0001
0000
,  // measure 63
1001
0000
0110
0000
,  // measure 64
0010
0000
1000
0000
,  // measure 65
0100
0000
0010
0000
,  // measure 66
0001
0000
0010
0000
,  // measure 67
0100
0000
1000
0000
,  // measure 68
0001
0000
0100
0000
,  // measure 69
0020
0000
1030
0000
,  // measure 70
0100
0001
0011
0000
,  // measure 71
0200
0000
1300
0000
,  // measure 72
1000
0010
0101
0000
,  // measure 73
0002
0000
0013
0000
,  // measure 74
0100
1000
1001
0000
,  // measure 75
0002
0000
0103
0000
,  // measure 76
0001
1000
0100
0010
,  // measure 77
0001
0001
0011
0000
,  // measure 78
0110
0000
1100
0000
,  // measure 79
1000
0001
0110
0000
,  // measure 80
0001
1000
0100
0010
,  // measure 81
0002
0000
1003
0010
,  // measure 82
0100
0001
0010
0001
,  // measure 83
2000
0000
3001
0100
,  // measure 84
0020
0000
1030
0200
,  // measure 85
0310
0000
0000
0000
;
