#TITLE:Go Berzerk;
#SUBTITLE:;
#ARTIST:Lord of Hardcore;
#TITLETRANSLIT:;
#SUBTITLETRANSLIT:;
#ARTISTTRANSLIT:;
#CREDIT:;
#BANNER:go.png;
#BACKGROUND:go-bg.png;
#LYRICSPATH:;
#CDTITLE:;
#MUSIC:go.ogg;
#OFFSET:0.000;
#SAMPLESTART:66.979;
#SAMPLELENGTH:12.000;
#SELECTABLE:YES;
#BPMS:0.000=171.995;
#STOPS:;
#BGCHANGES:;

//---------------dance-single - Renard----------------
#NOTES:
     dance-single:
     Renard:
     Challenge:
     11:
     0.787,0.900,0.239,0.043,0.206:
0000
0000
0000
0000
,
0000
0000
0000
0000
,
0000
0000
0000
0000
,
0000
0000
0000
0000
,
1000
0100
0010
0001
0010
0100
1000
0010
,
0100
0000
0001
0000
0100
0000
0010
0000
1000
0000
0001
1000
0000
0000
0000
0000
,
0001
0100
0010
1000
0100
0010
0001
0010
,
0100
0000
1000
0000
0001
0000
0100
0000
0001
0000
1000
0001
0000
1000
0001
0000
,
1000
0010
0100
0001
0100
0010
0100
1000
,
0100
0010
0100
0001
0100
0010
0010
0010
,
1000
0010
0001
0010
0100
0010
1000
0010
,
0100
0010
0001
0010
0100
0010
0010
0010
,
1000
0100
1000
0010
1000
0001
1000
0100
,
1000
0010
1000
0001
1000
1000
1000
1000
,
0001
0010
0001
0100
0001
1000
0001
0010
,
0001
0100
0001
1000
0001
0001
0001
0000
,
1000
0100
0010
0000
0010
0000
0010
0000
0001
0100
0010
0000
0010
0000
0010
0000
,
1000
0100
0010
0000
0010
0000
0010
0000
0001
0000
0010
0000
0010
0000
0010
0000
,
0100
1000
0010
0000
0010
0000
0010
0000
0100
0001
0010
0000
0010
0000
0010
0000
,
0100
1000
0010
0000
0010
0000
0010
0000
0100
0000
0100
0000
0100
0000
0100
0000
,
0001
1000
0001
0000
0001
0000
0001
0000
1000
0001
1000
0000
1000
0000
1000
0000
,
0001
1000
0001
0000
0001
0000
0001
0000
1000
0000
1000
0000
1000
0000
1000
0000
,
0010
0100
0010
0000
0100
0000
0000
0000
0010
0000
0100
0000
0010
0000
0000
0000
,
0220
0000
0000
0000
0000
0000
1331
M00M
,
1000
0100
0010
0000
0110
0000
0010
0000
0001
0100
0010
0000
0110
0000
0010
0000
,
1000
0100
1000
0000
1100
0000
0000
0000
0001
0010
0001
0000
0011
0000
0000
0000
,
1000
0010
0100
0000
0110
0000
0100
0000
0001
0010
0100
0000
0110
0000
0100
0000
,
1000
0001
1000
0000
1MM1
0000
M11M
0000
1MM1
0000
M11M
0000
1MM1
0000
0000
0000
,
1000
0001
0100
0000
0101
0000
0001
0000
0001
1000
0100
0000
1100
0000
1000
0000
,
1000
0100
0010
0000
0110
0000
0000
0000
0001
0010
0100
0000
0110
0000
0000
0000
,
1000
0001
1000
0000
1001
0000
0000
0000
0100
0000
0010
0000
0110
0000
0000
0000
,
1000
2000
0100
0200
0010
0001
3311
00MM
,
0100
0001
0001
0100
1000
1000
0100
0001
,
0100
1000
1000
0100
0001
0001
0100
1000
,
0100
0010
0010
1000
0100
0100
1000
0010
,
1000
0100
0100
1000
0010
0010
1000
0100
,
0001
0010
0010
1000
0010
0010
0001
0010
,
0001
0010
0010
1000
0010
0010
0001
0010
,
1000
0100
0100
0010
0100
0100
1000
0100
,
0010
0100
0100
1000
0100
0100
0010
0100
,
1000
0100
1000
0000
0100
0000
0010
0000
0001
0010
0001
0000
0010
0000
0001
0000
,
0100
0001
0100
0000
0001
0000
0100
0000
0010
0000
0010
0000
0010
0000
0010
0000
,
1000
0100
1000
0000
0100
0000
0100
0000
0010
0100
0010
0000
0100
0000
0100
0000
,
0010
0001
0010
0000
0001
0000
0001
0000
0100
0000
0010
0000
1000
0000
0100
0000
,
0010
0001
0010
0000
0001
0000
0001
0000
0010
0100
0010
0000
0100
0000
0100
0000
,
1000
0010
1000
0000
0010
0000
0010
0000
0100
0000
0100
0000
0100
0000
0100
0000
,
0001
0010
0001
0000
0010
0000
0001
0000
1000
0001
1000
0000
0001
0000
1000
0000
,
0010
0000
0000
0000
0000
0000
1MM1
0000
M11M
0000
100M
M001
0000
0000
0000
0000
,
0010
1000
0100
0001
0100
1000
0000
0000
,
0010
0001
0100
0001
0010
1000
0000
0000
,
0100
1000
0010
0001
0100
0001
0000
0010
,
0000
1000
0100
0001
0100
1000
0010
0100
,
0001
0010
1000
0010
0001
0100
0000
0001
,
0000
0010
1000
0100
1000
0010
0001
0100
,
0000
0001
0100
1000
0100
0001
0010
1000
,
0000
1000
0010
0001
0100
0010
1000
0100
,
0010
0001
0100
1000
0100
0001
0010
0100
,
1000
0100
0010
0001
0010
0100
1000
0010
,
0100
0001
0100
1000
0100
0010
0001
0010
,
0100
1000
0100
0001
0010
1000
0100
1000
,
0010
0001
0100
0001
0010
0001
0100
0010
,
1000
0100
0010
0001
0010
0001
0100
1000
,
0010
1000
0100
0001
0010
0001
0001
0000
,
100M
0000
10M0
0000
1M00
0000
10M0
0000
100M
0000
1M00
0001
0000
0000
0000
0000
;

//---------------dance-single - Renard----------------
#NOTES:
     dance-single:
     Renard:
     Hard:
     9:
     0.649,0.623,0.000,0.043,0.098:
0000
0000
0000
0000
,
0000
0000
0000
0000
,
0000
0000
0000
0000
,
0000
0000
0000
0000
,
1000
0001
1000
0010
0100
0010
1000
0001
,
1000
0000
0010
0000
0100
0000
0010
0000
1000
0000
0001
1000
0000
0000
0000
0000
,
0001
0100
0001
1000
0010
1000
0001
0100
,
0001
0000
1000
0000
0100
0000
0010
0000
0001
0000
1000
0001
0000
1000
0001
0000
,
1000
0010
0100
0001
0010
0100
1000
0001
,
0100
0010
1000
0100
1000
0001
1000
0001
,
1000
0100
0010
0001
0010
0100
1000
0001
,
0010
0100
1000
0100
0010
0001
1000
0001
,
1000
0000
0001
0000
0100
0000
0010
0000
1000
0000
0001
1000
0000
0001
0000
0000
,
0000
0000
0000
0000
0000
0000
1000
0000
0010
0000
0100
0001
0000
1000
0000
0000
,
0000
0000
0000
0000
0000
0000
0001
0000
0100
0000
0010
1000
0000
0001
0000
0000
,
0200
0000
0000
0000
,
0310
0100
0010
0100
0001
0100
0001
0100
,
1000
0100
1000
0100
0010
0010
0010
0010
,
0100
0001
0100
0001
0100
1000
0100
1000
,
0100
0010
0100
0010
0100
0100
0100
0100
,
0001
0100
0001
0100
1000
0100
1000
0100
,
0001
0100
0001
0100
0010
0010
0010
0010
,
0100
0001
0100
0000
1000
0100
0010
0000
,
0200
0000
0000
0000
0000
0000
0000
0300
,
0010
0100
0010
0000
0100
0000
0001
0000
0010
0000
0100
0000
1000
0000
0100
0000
,
0010
0001
1000
0010
0100
0001
0100
0001
,
0100
0010
0100
0000
0010
0000
1000
0000
0100
0000
0010
0000
0001
0000
0010
0000
,
0100
1000
0001
0100
0010
1000
0010
1000
,
0100
0000
0010
0000
0001
0000
0010
0000
0100
0000
1000
0001
0000
1000
0000
0000
,
0001
0000
0100
0000
0010
0000
1000
0000
0100
0000
1000
0001
0000
1000
0000
0000
,
0001
0100
0001
0000
0100
0000
0000
0000
0010
0000
1000
0000
0100
0000
0000
0000
,
0020
0000
0000
0000
,
0031
0010
0010
0100
0010
0010
1000
0010
,
0100
0010
0010
0001
0010
0010
0100
0010
,
1000
0010
0010
0100
0010
0010
0001
0010
,
0100
0010
0010
1000
0010
0010
0100
0010
,
1000
0010
0010
0100
0010
0010
0001
0010
,
0100
0010
0010
0001
0010
0010
1000
0010
,
0100
0010
0010
0001
0010
0010
0100
0010
,
1000
0010
0001
0010
0100
0010
1000
0010
,
0100
0010
0100
0010
0001
0010
0001
0010
,
0001
1000
0001
1000
0010
0010
0010
0010
,
1000
0100
1000
0100
0010
0001
0010
0001
,
0100
0001
0100
0001
0100
0100
0100
0100
,
0010
1000
0010
1000
0100
1000
0100
1000
,
0001
0010
0001
0010
0001
0001
0001
0001
,
1000
0010
1000
0000
0001
0100
0010
0000
,
2000
0000
0000
0000
,
3100
0010
0001
0010
0100
1000
0000
0001
,
0000
0010
0100
1000
0001
0010
0000
0100
,
0000
0010
0001
1000
0100
0010
0000
0010
,
0000
0100
1000
0001
0010
0001
0000
0010
,
0000
0001
1000
0100
0010
0100
0000
1000
,
0000
0001
0010
0100
0010
0001
0000
1000
,
0000
0001
0010
0100
1000
0001
0000
0010
,
0000
0100
1000
0001
0010
0100
0000
0010
,
0000
0001
0010
0100
1000
0100
0000
0010
,
0000
0001
0010
0100
0010
0001
0000
1000
,
0000
0100
0010
0001
1000
0100
0000
1000
,
0000
0001
0010
0001
1000
0100
0000
0010
,
0000
0100
1000
0001
0010
0100
0000
0010
,
0000
0100
0010
0001
1000
0001
0000
0010
,
0100
1000
0100
0000
1000
0000
0000
0000
0001
0000
0100
0000
0010
0000
0000
0000
,
1000
0000
1000
0000
0010
0000
0010
0000
0100
0000
0001
1000
0000
0000
0000
0000
;

//---------------dance-single - Renard----------------
#NOTES:
     dance-single:
     Renard:
     Medium:
     5:
     0.352,0.381,0.000,0.043,0.000:
0000
0000
0000
0000
,
0000
0000
0000
0000
,
0000
0000
0000
0000
,
0000
0000
0000
0000
,
1000
0000
0000
1000
0000
0000
1000
0000
,
0000
1000
0000
0000
0001
0000
0000
0000
,
0100
0000
0000
0100
0000
0000
0001
0000
,
0000
0010
0000
0000
0001
0000
0001
0000
,
1000
1000
0001
0001
,
0100
0100
0001
0010
,
0100
0100
1000
1000
,
0001
0001
0010
0100
,
1000
0001
0100
0100
,
0001
0010
0100
0100
,
1000
0010
0100
0002
,
2000
0000
0000
3003
,
1000
1000
0001
0001
,
0100
0000
0100
0000
0010
0010
0010
0000
,
1000
1000
0001
0001
,
1000
0000
1000
0000
0010
0010
0010
0000
,
1000
1000
0001
0001
,
1000
0000
1000
0000
0001
0001
0001
0000
,
0100
0000
0100
0000
0001
1000
0001
0000
,
0000
0000
0000
0000
,
1000
0001
1000
0000
0010
0100
0010
0000
,
1000
0001
1000
0000
0001
0000
0000
0000
,
1000
0001
1000
0000
0010
0100
0010
0000
,
1000
0001
1000
0000
0001
0000
0000
0000
,
0100
0000
0001
0000
1000
0100
1000
0000
,
0001
0000
0010
0000
0001
1000
0001
0000
,
0100
0001
1000
0100
,
0020
0000
0000
0000
,
0031
0000
0000
0001
0000
0000
0001
0000
,
0010
0000
0000
0010
0000
0000
0010
0000
,
0100
0000
0000
0100
0000
0000
0100
0000
,
1000
0000
0000
1000
0000
0000
1000
0000
,
0010
0000
0000
0010
0000
0000
0010
0000
,
0100
0000
0000
0100
0000
0000
0100
0000
,
0001
0000
0000
0001
0000
0000
0001
0000
,
1000
0001
1000
0001
,
0100
0000
0100
0001
0000
0000
0100
0000
,
0001
0000
0001
1000
0000
0000
0100
0000
,
1000
0000
1000
0010
0000
0000
1000
0000
,
0001
0000
0001
0010
0000
0000
0001
0000
,
0100
0000
0100
0001
0000
0000
0100
0000
,
0010
0000
0010
1000
0000
0000
0010
0000
,
1000
0001
1000
0001
,
0200
0000
0000
0000
,
0310
0000
1000
0000
0001
0100
0000
0010
,
0000
0000
1000
0000
0001
0100
0000
0001
,
0000
0000
0100
0000
0010
1000
0000
0001
,
0000
1000
0001
1000
,
0100
0000
0010
0000
0001
0010
0000
0100
,
0000
0000
1000
0000
0001
0010
0000
0001
,
0000
0000
1000
0000
0010
0100
0000
0001
,
0000
0100
0010
1000
,
0001
0000
0100
0000
0001
1000
0000
0001
,
0000
0000
0100
0000
0010
1000
0000
0001
,
0000
0000
1000
0000
0100
0010
0000
0001
,
0000
0000
0010
0000
0100
1000
0000
0001
,
0000
0000
0100
0000
0010
1000
0000
0001
,
0000
0000
0100
0000
0001
1000
0000
0001
,
0000
0000
0000
0000
,
0100
0000
0100
0000
0010
1000
0010
0000
;

//---------------dance-single - Renard----------------
#NOTES:
     dance-single:
     Renard:
     Easy:
     2:
     0.230,0.277,0.000,0.043,0.000: // measure 1
0000
0000
0000
0000
,  // measure 2
0000
0000
0000
0000
,  // measure 3
0000
0000
0000
0000
,  // measure 4
0000
0000
0000
0000
,  // measure 5
1000
0000
1000
0000
,  // measure 6
1000
0000
1000
0000
,  // measure 7
0001
0001
0001
0000
,  // measure 8
0100
0000
0000
0000
,  // measure 9
0010
0000
0010
0000
,  // measure 10
0010
0000
0100
0001
,  // measure 11
1000
0000
1000
0000
,  // measure 12
1000
0000
0100
0010
,  // measure 13
0001
0000
0001
0000
,  // measure 14
0001
0000
0010
0100
,  // measure 15
1000
0000
1000
0000
,  // measure 16
0002
0000
0000
0000
,  // measure 17
0103
0000
0100
0000
,  // measure 18
0100
0000
0010
1000
,  // measure 19
0010
0000
0010
0000
,  // measure 20
0010
0000
0100
0001
,  // measure 21
0010
0000
0010
0000
,  // measure 22
0010
0000
0001
0010
,  // measure 23
0100
0000
0100
0000
,  // measure 24
1000
0001
1000
0000
,  // measure 25
0001
0000
0001
0000
,  // measure 26
1000
0001
1000
0001
,  // measure 27
1000
0000
1000
0000
,  // measure 28
0001
1000
0001
1000
,  // measure 29
0010
0000
0010
0000
,  // measure 30
0100
0010
0100
0010
,  // measure 31
0100
0000
0100
0000
,  // measure 32
0020
0000
0000
0000
0000
0000
0000
0030
,  // measure 33
1000
0000
0000
1000
0000
0000
1000
0000
,  // measure 34
0001
0000
0000
0000
,  // measure 35
0001
0000
0000
0001
0000
0000
0001
0000
,  // measure 36
1000
0000
0000
0000
,  // measure 37
0010
0000
0000
0010
0000
0000
0010
0000
,  // measure 38
0100
0000
0000
0000
,  // measure 39
0100
0000
0000
0100
0000
0000
0100
0000
,  // measure 40
0010
0000
0000
0000
,  // measure 41
1000
0000
1000
0000
,  // measure 42
1000
0000
0001
0001
,  // measure 43
0010
0000
0010
0000
,  // measure 44
0010
0000
0001
0001
,  // measure 45
0100
0000
0100
0000
,  // measure 46
0100
0000
0001
0001
,  // measure 47
1000
0000
1000
0000
,  // measure 48
0001
0000
0000
0000
,  // measure 49
1000
0001
1000
0000
,  // measure 50
0001
0100
0001
0000
,  // measure 51
1000
0100
1000
0000
,  // measure 52
0001
0010
0001
0000
,  // measure 53
1000
0010
1000
0000
,  // measure 54
0001
1000
0001
0000
,  // measure 55
0100
0010
0100
0000
,  // measure 56
0001
0000
0000
0000
,  // measure 57
1000
0000
1000
0000
,  // measure 58
1000
0100
0010
0000
,  // measure 59
0001
0000
0001
0000
,  // measure 60
0001
0010
0100
0000
,  // measure 61
1000
0000
0001
0000
,  // measure 62
1000
0001
1000
0000
,  // measure 63
0002
0000
0000
0000
2000
0000
0000
3003
,  // measure 64
0010
0010
0010
0010
;
