#TITLE:Gigadelic (Promised Land Cut);
#SUBTITLE:;
#ARTIST:Teranoid & MC Natsack;
#TITLETRANSLIT:;
#SUBTITLETRANSLIT:;
#ARTISTTRANSLIT:;
#CREDIT:;
#BANNER:giga.png;
#BACKGROUND:giga-bg.png;
#LYRICSPATH:;
#CDTITLE:;
#MUSIC:giga.ogg;
#OFFSET:0.000;
#SAMPLESTART:37.345;
#SAMPLELENGTH:12.000;
#SELECTABLE:YES;
#BPMS:0.000=167.000,168.000=41.750,168.500=83.500,169.000=167.000,183.000=83.500,183.500=167.000,198.000=83.500,198.500=167.000,213.000=83.500,213.500=167.000;
#STOPS:168.000=0.359
,183.000=0.180
,198.000=0.180
,213.000=0.180
;
#BGCHANGES:;

//---------------dance-single - Renard----------------
#NOTES:
     dance-single:
     Renard:
     Challenge:
     11:
     0.773,0.948,0.706,0.164,1.000:
0000
0000
0000
0000
,
0000
0000
0000
0000
,
0000
0000
0000
0000
,
0000
0000
0000
0000
,
0000
0000
0000
0000
,
0000
0000
0000
0000
,
0000
0000
0000
0000
,
0000
0000
0000
0000
,
0000
0000
0000
0000
,
0000
0000
0000
0000
,
1001
0000
0000
1001
0000
0000
0001
1000
0001
1000
0000
0000
,
0110
0000
0000
0110
0000
0000
0010
0100
0010
0100
0000
0000
,
1010
0000
0000
1010
0000
0000
0010
1000
0010
1000
0000
0000
,
0001
0100
0001
0100
0000
0000
0001
0010
0001
0010
0000
0000
,
0011
0000
0000
0011
0000
0000
0001
0010
0001
0010
0000
0000
,
0110
0000
0000
0110
0000
0000
0100
0010
0100
0010
0000
0000
,
1100
1100
1010
1010
,
0010
1000
0001
0100
0000
0001
0100
0000
0000
1001
0000
0000
,
1000
0000
0001
0100
0000
0001
0010
0000
0000
0010
0000
0100
,
1000
0000
0010
1000
0000
0001
1000
0000
0000
1000
0000
0100
,
1000
0000
0010
0100
0000
0001
0100
0000
0010
1000
0000
0100
,
1000
0000
0001
0010
0000
0100
1000
0000
1000
0100
0000
0000
,
1000
0000
0010
1000
0000
0001
1000
0000
0000
1000
0000
0000
,
1000
0000
0001
0010
0000
0001
1000
0000
0000
0001
0000
0000
,
0100
0001
0100
0010
1000
0100
0010
0001
0100
0010
1000
0100
,
0010
0001
0010
0100
1000
0010
0200
0000
0000
0000
0300
0000
,
0110
0000
0000
0101
0000
0000
0001
1000
0100
0010
0000
0000
,
0010
0100
1000
0010
0000
1010
1001
0000
1100
1001
0000
0000
,
1100
0000
0000
1100
0000
0000
0001
1000
0100
1000
0000
0000
,
0010
1000
0001
0100
0000
0101
1001
0000
0000
0000
0000
0000
,
0101
0000
0000
0110
0000
0000
0010
1000
0100
1000
0000
0000
,
0100
1000
0001
1000
0000
1010
1001
0000
1100
1001
0000
0000
,
1100
0000
0000
1001
0000
0001
1000
0100
1000
0010
0000
0010
,
1000
0100
1000
0001
0000
1001
1001
0000
0000
0000
0000
0000
,
1001
0000
0110
0000
1001
0000
1000
0100
0010
0001
0000
0000
,
0011
0000
1100
0000
1001
0000
1000
0010
0100
0001
1000
0100
,
1000
0000
1100
0000
0011
0000
1000
0001
0100
0010
0000
0000
,
1000
0000
0000
0010
0100
0010
0100
0000
0001
1000
0000
0000
,
1100
0000
0011
0000
1001
0000
0001
0100
0010
1000
0100
1000
,
1001
0000
1100
0000
1001
0000
1000
0010
1000
0100
0010
0001
,
0011
0100
1000
0011
0100
1000
0011
0100
1000
0011
0100
1000
,
0001
0000
0000
0100
0000
0000
0010
0000
0000
1000
0000
0000
2200
0000
0000
0000
0010
0000
0001
0000
0000
3300
0000
0000
,
1111
0000
0000
1001
0100
0010
1000
0100
0010
0001
0010
0100
,
1000
0010
0100
0001
0100
0010
1000
0100
0010
0001
0010
0100
,
1000
0001
0100
0010
1000
0100
0010
0001
0010
0100
1000
0010
,
0100
0000
0000
0000
0001
0000
0000
0000
0100
0000
0000
0000
0010
0000
0000
0000
1000
0000
0000
0000
0100
0000
0000
0000
0010
0000
0000
0000
0001
0000
0000
0000
0010
0000
0000
0000
0022
0000
0000
0000
0000
0000
0000
0000
0000
0033
0000
0000
,
1100
0010
0001
0100
0010
1000
0100
0010
0001
0010
0100
1000
,
0011
0100
1000
0010
0100
0001
0100
0010
1000
0100
0010
0001
,
1100
0010
0001
0010
0100
1000
0010
0100
0001
0100
0010
1000
,
1010
0000
0100
0000
0001
0000
0010
0000
0100
0000
1000
0000
2002
0000
0000
3003
0000
0000
0101
0000
0100
0000
0010
0000
,
1000
0100
0010
0001
0010
0100
1000
0001
0010
0110
0010
0100
,
1000
0010
0100
0001
0100
0010
1000
0010
1000
1010
0100
0001
,
1000
0010
0100
0001
0010
0100
1000
0010
0100
1010
0100
0001
,
0010
0100
2000
0002
0000
3003
0001
0100
1000
0100
0010
0001
,
0010
1000
0100
0010
0001
0010
0200
0000
0000
2000
0300
0020
,
0030
02M0
0300
0M02
0000
3003
0001
0100
1000
0100
0010
1000
,
0010
0001
0010
0100
1000
0100
0010
0000
0100
0101
0000
0001
,
1001
0000
1000
0100
0010
0001
0010
0100
0010
1000
0010
0100
,
0010
0001
0100
0010
0100
1000
0100
0001
0100
0010
1000
0100
,
0010
0001
0010
0100
0010
1000
0010
0100
0010
0001
0010
0100
,
1000
0000
0010
0000
0100
0000
0001
0000
1000
0000
0100
0000
0010
0000
0000
0001
0000
0000
0100
0000
0000
0010
0000
0000
,
1000
0000
2000
0200
0000
0000
0011
0000
0000
3300
0000
0000
;

//---------------dance-single - Renard----------------
#NOTES:
     dance-single:
     Renard:
     Hard:
     9:
     0.553,0.662,0.143,0.041,0.870:
0000
0000
0000
0000
,
0000
0000
0000
0000
,
0000
0000
0000
0000
,
0000
0000
0000
0000
,
0000
0000
0000
0000
,
0000
0000
0000
0000
,
0000
0000
0000
0000
,
0000
0000
0000
0000
,
0000
0000
0000
0000
,
0000
0000
0000
0000
,
1000
0000
0000
1000
0000
0000
1000
0000
0001
0100
0000
0000
,
0001
0000
0000
0001
0000
0000
0001
0000
0010
0100
0000
0000
,
1000
0000
0000
1000
0000
0000
1000
0000
0010
0100
0000
0000
,
0001
0000
0000
0001
0000
0000
0001
0000
0010
0100
0000
0000
,
1000
0000
0000
1000
0000
0000
1000
0000
0001
0100
0000
0000
,
0001
0000
0000
0001
0000
0000
0001
0000
1000
0100
0000
0000
,
1000
0000
0000
1000
0000
0000
1000
0000
0001
0010
0000
0000
,
0001
0000
0000
1000
0000
0001
1000
0000
0001
1000
0000
0000
,
1001
0000
0010
0000
0000
1000
0000
0000
0100
1000
0000
0000
,
0001
0000
0010
0000
0000
0001
0000
0000
0100
0001
0000
0000
,
0100
0000
0010
0000
0000
1000
0000
0000
0100
1000
0000
0000
,
0010
0000
0000
0100
0000
0000
0010
0000
0100
0010
0000
0000
,
1000
0000
0001
0000
0000
0100
0000
0000
0010
1000
0000
0000
,
0100
0000
1000
0000
0000
0001
0000
0000
0010
0001
0000
0000
,
1000
0000
0010
0100
0000
0001
1000
0000
0100
1000
0000
0001
,
0010
0100
1000
0001
0000
1000
0001
0000
0000
0000
0000
0000
,
1000
0000
0000
1000
0000
0000
0001
0100
0001
0100
0000
0000
,
0001
0010
0001
0010
0000
0100
1000
0000
0001
1000
0000
0000
,
0010
0000
0000
0010
0000
0000
1000
0100
1000
0100
0000
0000
,
1000
0010
1000
0001
0000
0100
0001
0000
0000
0000
0000
0000
,
1100
0000
0000
0011
0000
0000
0001
1000
0001
0100
0000
0000
,
0001
1000
0010
1000
0000
0100
1000
0000
0001
1000
0000
0000
,
1010
0000
0000
1001
0000
0000
1000
0100
1000
0100
0000
0000
,
1000
0001
0010
0001
0000
1000
0001
0000
0000
0000
0000
0000
,
0001
0000
0100
0000
0010
0000
1000
0010
1000
0010
0000
0000
,
1000
0000
0100
0000
0010
0000
0001
1000
0001
0100
0001
1000
,
0001
0000
1000
0000
0100
0000
0010
0001
0010
0001
0000
0000
,
1000
0000
0000
0100
1000
0010
1000
0000
0001
1000
0000
0000
,
0001
0000
0100
0000
0010
0000
1000
0010
1000
0010
0000
0000
,
1000
0000
0100
0000
0010
0000
0001
1000
0001
0100
0001
1000
,
0001
1000
0001
1000
0001
1000
0010
0100
0010
0100
0010
0100
,
0001
1000
0100
0010
0002
0000
0200
0000
,
1010
0000
0000
0303
0000
0000
0000
0000
0000
0000
0000
0000
0001
0000
0000
0000
0000
0000
0000
0000
0001
0000
0000
0000
0100
0000
0000
0000
0000
0000
0000
0000
0100
0000
0000
0000
0010
0000
0000
0000
0000
0000
0000
0000
0010
0000
0000
0000
,
1000
0000
1000
0100
0000
0100
0010
0000
0010
0001
0000
0001
,
0010
0000
0010
0100
1000
0100
1000
0100
1000
0001
1000
0001
,
1000
0001
1000
0010
1000
0010
1000
0000
0000
1001
0000
0000
,
0001
0000
0100
0010
0000
1000
0100
0010
0001
0010
0100
1000
,
0001
0000
0001
1000
0000
1000
0100
1000
0001
1000
0000
0000
,
0010
0000
0010
1000
0000
1000
0100
0010
0001
0010
0000
0000
,
0100
0000
0100
1000
0000
0000
1001
0000
0000
0001
0000
0001
,
0100
0000
0100
0010
1000
0010
1000
0000
0000
0100
0000
0100
,
1000
0000
1000
0001
0010
0001
0010
0000
0000
0001
0000
0001
,
1000
0000
1000
0010
1000
0010
1000
0000
0000
0001
1000
0100
,
0010
0000
0000
0110
0000
0000
0100
0000
1000
0010
0000
0100
,
0001
0000
0100
0010
0000
1000
0100
0000
0000
1100
0000
1010
,
0000
1001
0000
1100
0000
0000
0100
0000
0100
1000
0000
1000
,
0010
0000
0010
0100
0000
0100
0001
0000
0001
1000
0000
1000
,
0100
0010
0001
0010
0000
0000
0001
0000
0001
0010
0000
0010
,
0100
0000
0100
1000
0100
1000
0010
0000
0010
1000
0000
1000
,
0001
0000
0001
0100
0001
0100
0001
0010
0001
0010
0001
0010
,
0100
0010
0100
0010
0100
1000
0100
0000
1000
0010
0000
1000
,
0001
0000
0000
2200
0000
0000
0010
3300
0000
0000
0000
0000
;

//---------------dance-single - Renard----------------
#NOTES:
     dance-single:
     Renard:
     Medium:
     7:
     0.358,0.473,0.102,0.041,0.276:
0000
0000
0000
0000
,
0000
0000
0000
0000
,
0000
0000
0000
0000
,
0000
0000
0000
0000
,
0000
0000
0000
0000
,
0000
0000
0000
0000
,
0000
0000
0000
0000
,
0000
0000
0000
0000
,
0000
0000
0000
0000
,
0000
0000
0000
0000
,
1000
1000
1000
1000
,
0001
0001
0001
0001
,
1000
1000
0001
0001
,
1000
0001
1000
0001
,
0100
0100
0100
0100
,
0010
0010
0010
0010
,
0100
0100
0010
0010
,
0100
0010
0100
0010
,
1000
0000
0010
0000
0000
0010
0000
0000
0000
0000
0000
0000
,
0100
0000
0001
0000
0000
0001
0000
0000
0000
0000
0000
0000
,
0010
0000
0100
0000
0000
0100
0000
0000
0000
0000
0000
0000
,
0000
0000
0000
0000
0000
0000
1000
0000
0001
1000
0000
0000
,
0000
0000
0001
0000
0000
0001
0000
0000
0000
0000
0000
0000
,
0000
0000
0100
0000
0000
0100
0000
0000
0000
0000
0000
0000
,
0010
1000
0001
0100
,
0001
1000
0001
1000
0000
0000
1001
0000
0000
0000
0000
0000
,
0001
0100
0010
1000
,
0100
0000
0000
1000
0000
0000
0001
0000
1000
0001
0000
0000
,
0100
0010
1000
0100
,
0010
0000
0001
0010
0000
0000
1001
0000
0000
0000
0000
0000
,
0001
0000
0000
0100
0000
0000
0010
0000
1000
0010
0000
0000
,
1000
0000
0100
1000
0000
0001
1000
0000
0000
1001
0000
0000
,
0001
0100
0001
0010
,
0100
0000
1000
0100
0000
0000
1001
0000
0000
0000
0000
0000
,
1000
0000
0001
0000
0100
0000
0010
0000
0000
1000
0000
0000
,
0100
0000
0010
0000
0001
0000
1000
0000
0000
0001
0000
0000
,
0100
0000
0010
0000
1000
0000
0100
0000
0000
1000
0000
0000
,
0010
0000
0000
0100
0010
0100
0010
0000
0100
0010
0000
0000
,
1000
0000
0010
0000
0100
0000
0001
0000
0000
0010
0000
0000
,
0100
0000
1000
0000
0001
0000
0100
0000
0000
0010
0000
0000
,
1000
0000
0100
0000
1000
0000
0001
0000
0010
0000
0001
0000
,
1000
0001
2000
0002
,
3013
0001
0001
0100
,
0100
0010
0010
1000
,
1000
0000
0000
0100
0000
0100
1000
0000
1000
0010
0000
0010
,
0100
0000
0100
0001
0000
0001
1000
0000
0000
1001
0000
0000
,
0001
0000
0000
0100
0000
0000
0010
1000
0010
1000
0000
0000
,
0100
1000
0001
0000
,
1000
0000
0000
0100
0000
0000
0010
0001
0010
0001
0000
0000
,
0010
0100
1001
1000
,
0100
0000
0000
1000
0010
1000
0010
0000
0000
0100
0000
0000
,
0001
0010
0001
1000
,
0001
0000
0000
0100
0001
0100
0001
0000
0000
1000
0000
0100
,
1000
1001
0001
0010
,
0100
0000
0000
1000
0000
0000
0001
0000
0001
0100
0000
0100
,
0010
1000
0001
1000
,
0100
1000
0001
1000
,
0100
1000
0100
1000
0000
0000
0001
0000
0000
0001
0000
0000
,
0100
0100
0110
1000
,
0100
1000
1100
1000
,
1010
1000
0001
0100
,
0002
0000
0000
2000
0000
0000
0010
3003
0000
0000
0000
0000
;

//---------------dance-single - Renard----------------
#NOTES:
     dance-single:
     Renard:
     Easy:
     4:
     0.371,0.504,0.594,0.102,0.026: // measure 1
0000
0000
0000
0000
,  // measure 2
0000
0000
0000
0000
,  // measure 3
0000
0000
0000
0000
,  // measure 4
0000
0000
0000
0000
,  // measure 5
0000
0000
0000
0000
,  // measure 6
0000
0000
0000
0000
,  // measure 7
0000
0000
0000
0000
,  // measure 8
0000
0000
0000
0000
,  // measure 9
0000
0000
0000
0000
,  // measure 10
0000
0000
0000
0000
,  // measure 11
2000
0000
0000
0000
,  // measure 12
0002
0000
0000
3000
,  // measure 13
0200
0000
0000
0003
,  // measure 14
0020
0000
0000
0300
,  // measure 15
2000
0000
0000
0000
0030
0000
0200
0000
0000
0000
3000
0000
,  // measure 16
0020
0000
0000
0000
0300
0000
0002
0000
0000
0000
0030
0000
,  // measure 17
0200
0000
0000
0000
0000
0000
0000
0000
0000
0000
0003
0000
,  // measure 18
0020
0000
0000
0000
0000
0000
0000
0000
0000
0030
0300
0000
,  // measure 19
0110
0010
0010
0010
,  // measure 20
0100
0100
0100
0100
,  // measure 21
0001
0001
0001
0001
,  // measure 22
1000
0000
0000
1000
0000
0000
0100
0000
1000
0100
0000
0000
,  // measure 23
1000
1000
1000
1000
,  // measure 24
0010
0010
0010
0010
,  // measure 25
0100
0100
0100
0100
,  // measure 26
0001
0000
1000
0001
0000
0000
1001
0000
0000
0000
0000
0000
,  // measure 27
0001
1000
0100
1000
,  // measure 28
0010
0100
0101
0110
,  // measure 29
1010
1000
0100
0010
,  // measure 30
0011
0100
1100
0000
,  // measure 31
1000
0010
0100
0001
,  // measure 32
0101
0110
1010
1001
,  // measure 33
1000
0100
0010
0001
,  // measure 34
0011
0100
1100
0000
,  // measure 35
1000
0010
1000
0010
,  // measure 36
0100
0001
0100
0001
,  // measure 37
0011
0011
0110
0110
,  // measure 38
1000
0000
0000
0001
0000
0000
1000
0000
0001
1000
0000
0000
,  // measure 39
0001
0001
1000
1000
,  // measure 40
0110
0110
1001
1001
,  // measure 41
1000
1000
0001
0001
,  // measure 42
1010
0101
1001
0110
,  // measure 43
1001
1000
0100
1000
,  // measure 44
0010
1000
0100
1000
,  // measure 45
0010
1000
0001
0010
,  // measure 46
0001
0100
0001
1001
,  // measure 47
1000
0100
1000
0010
,  // measure 48
0110
0101
1001
1100
,  // measure 49
1000
0001
0010
0001
,  // measure 50
1001
0101
1010
1000
,  // measure 51
0100
0010
0001
1000
,  // measure 52
0001
0101
0110
1010
,  // measure 53
1000
1001
1000
1100
,  // measure 54
1010
1001
0101
0110
,  // measure 55
1010
0000
0000
1001
0000
0000
1000
0000
0000
0001
0000
0100
,  // measure 56
0000
0010
0000
1000
0000
0000
0100
0000
0000
0100
0000
0000
,  // measure 57
1000
1000
1010
1001
,  // measure 58
1100
1001
1000
0001
,  // measure 59
0100
0101
1001
1000
,  // measure 60
0100
1000
1001
1000
,  // measure 61
1010
1000
0101
0011
,  // measure 62
0110
1100
1001
0000
;
