#TITLE:Get Ready 2 Rokk (Remix);
#SUBTITLE:;
#ARTIST:Freezepop feat Izzy Maxwell;
#TITLETRANSLIT:;
#SUBTITLETRANSLIT:;
#ARTISTTRANSLIT:;
#CREDIT:;
#BANNER:rokk.png;
#BACKGROUND:rokk-bg.png;
#LYRICSPATH:;
#CDTITLE:;
#MUSIC:rokk.ogg;
#OFFSET:0.006;
#SAMPLESTART:64.321;
#SAMPLELENGTH:12.000;
#SELECTABLE:YES;
#BPMS:0.000=190.000;
#STOPS:;
#BGCHANGES:;

//---------------dance-single - Renard----------------
#NOTES:
     dance-single:
     Renard:
     Challenge:
     11:
     0.864,1.000,0.550,0.138,0.310:
0000
0000
0000
0000
,
0000
0000
0000
0000
,
0000
0000
0000
0000
,
0000
0000
0000
0000
,
1000
1000
1000
1000
0001
0001
0001
0001
,
0100
0100
0100
0100
0010
0000
0000
0000
,
1000
1000
1000
1000
0100
0100
0100
0100
,
0010
0010
0010
0010
0001
0000
0000
0000
,
1000
0001
0000
0000
0001
0000
0100
0000
0101
0000
0000
0000
0001
0000
1000
0000
,
1100
0000
1001
0000
1010
0000
1000
0100
,
1100
0000
0100
0010
0110
0000
0010
0001
,
0010
0000
0100
1000
0100
0000
1000
0001
1000
0000
0001
0000
0100
0000
0000
0000
,
0010
0000
1000
0000
0100
0000
0010
0000
0001
0020
0000
0000
0100
0000
1000
0000
,
0100
0001
0100
0130
,
0100
0000
1000
0000
0010
0000
0100
0000
0001
0200
0000
0000
0010
0000
1000
0000
,
0010
0001
0010
1300
,
0010
0000
0100
0000
0001
0000
0010
0000
0100
2000
0000
0000
0001
0000
0000
0000
,
0010
0000
0100
0000
0001
0001
3010
0000
,
1000
0000
0100
0000
0010
0000
0001
0000
1000
0002
0000
0000
0100
0000
0000
0000
,
0010
0000
1000
0100
0100
0000
1003
0000
,
1011
0000
1011
0000
,
1011
0000
0000
0000
0000
0000
1011
0000
1001
0000
1001
0000
,
1011
0000
1001
0000
1001
0000
1011
0000
1001
0000
1001
0000
,
0001
0100
0001
0100
0010
0100
0010
0100
,
1000
0100
0010
0100
0001
0010
0100
0010
,
0100
0010
0100
0010
1000
0010
1000
0010
,
0100
0010
0001
0010
0001
0100
0010
0100
,
1000
0100
1000
0100
0010
0100
0010
0100
,
0001
0100
0001
0100
0001
0010
0100
0010
,
1000
0010
1000
0010
0100
0010
0100
0010
,
0001
0010
0001
0010
0100
1000
0010
0100
,
0001
0000
0001
0100
0010
0000
0010
1000
,
0100
0000
0010
0000
0001
0010
0001
0010
0001
0000
1000
0000
0001
1000
0001
1000
,
0001
1000
0100
0010
0001
0010
0100
1000
,
0010
0000
0000
0000
1000
0010
1000
0010
1000
0000
0000
0000
0001
1000
0001
1000
,
0001
1000
0100
0010
0001
0010
0100
1000
,
0001
0000
0100
0000
0001
1000
0001
1000
0001
0000
1000
0000
0001
1000
0001
1000
,
0001
0000
1000
0000
0010
0000
1000
0000
0100
0000
1000
0000
0001
0000
0010
0001
,
0010
0000
0001
0000
1000
0000
0010
1000
0010
0000
1000
0000
0001
0000
0100
0000
,
1000
1000
0100
0001
0100
0100
0010
0100
,
0001
0001
0100
0010
1000
0000
1100
0000
,
0100
0100
0001
0100
0010
0010
0100
1000
,
0001
0001
0100
0010
1000
0000
1010
0000
,
0001
0001
0100
0010
0100
0100
1000
0100
,
0010
0010
0100
0001
0100
0000
0101
0000
,
0001
0001
1000
0100
0100
0100
1000
0010
,
0010
1000
0001
1000
0100
0000
1100
0000
,
1001
0000
1001
0000
1001
0000
1010
1001
,
1100
0000
1100
0000
1100
0011
1100
0011
,
0011
0000
0011
0000
0011
0000
0011
1001
,
0101
0000
0101
0000
0101
1010
0101
1010
,
1000
0010
0001
0010
0100
1000
0100
0001
,
0100
0010
1000
0100
0010
00M0
0000
0000
,
0010
0001
0010
0100
1000
0100
0001
0100
,
0010
0001
0010
1000
0010
00M0
0000
0000
,
0010
0100
1000
0010
0001
0010
0100
1000
,
0100
0010
0100
0001
0100
0M00
0000
0000
,
0001
0100
1000
0100
0010
1000
0010
0001
,
0010
0100
0001
1000
0100
0M00
1100
0000
,
2200
0000
3311
0000
,
1001
2002
3113
0000
,
0202
0000
1313
0000
,
0001
0100
0010
0100
1000
0100
0010
0100
,
0001
0000
1000
0000
0100
0000
0010
0000
0001
0020
0000
0000
0100
0000
0000
0000
,
1000
0100
0001
0031
,
0001
0000
1000
0000
0100
0000
1000
0000
0010
2000
0000
0000
0010
0000
0000
0000
,
0001
0000
0100
0000
0010
0010
3001
0000
,
0001
0000
0100
0000
0001
0000
0010
0000
0001
2000
0000
0000
0001
0000
0000
0000
,
0100
0010
0001
3100
,
0100
0000
1000
0000
0100
0000
0010
0000
0001
0020
0000
0000
0001
0000
0000
0000
,
0100
1000
0100
0031
,
1011
0000
1011
0000
,
1011
0000
1011
0000
,
1011
0000
1011
0000
,
0001
1000
0100
0010
0001
0010
0100
1000
0001
0000
1000
0000
0001
0100
0010
0000
,
1000
0010
0100
0001
1000
0100
1000
0000
0001
0000
1000
0000
0001
0100
0010
0000
,
1000
0010
1000
0010
1000
0010
0100
0001
0100
0001
0100
0001
0010
0001
0010
0001
,
0010
0001
1000
0100
1000
0100
1000
0100
0010
0001
0010
0001
1000
0001
1000
0000
,
0001
0000
0000
0000
0001
0000
0000
0000
0100
0010
0100
0000
0010
1000
0010
0000
,
1000
0100
1000
0000
0001
0000
0010
0000
0100
1000
0100
0000
1000
0001
1000
0000
,
0001
0100
0010
1000
0100
0010
0001
0100
0010
1000
0100
0010
0001
1000
0001
1000
,
0001
0000
0100
0000
0001
1000
0000
0001
0010
0000
0001
1000
0000
0001
0100
0000
,
0001
0100
0010
1000
0100
0010
0001
0010
,
0100
1000
0010
0100
0001
1000
1001
0000
,
1000
0100
0010
0001
0010
0100
1000
0010
,
0100
0001
0010
0100
1000
0010
1010
0000
,
1000
0010
0100
0001
0010
0100
1000
0001
,
0010
0100
1000
0001
0010
0001
0011
0000
,
0001
0100
0010
1000
0100
0010
0001
0010
,
0100
1000
0010
0100
0001
1000
1001
0000
,
2002
0000
0000
0000
,
3113
0000
0000
0000
;

//---------------dance-single - Renard----------------
#NOTES:
     dance-single:
     Renard:
     Hard:
     9:
     0.660,0.665,0.387,0.017,0.000:
0000
0000
0000
0000
,
0000
0000
0000
0000
,
0000
0000
0000
0000
,
0000
0000
0000
0000
,
0000
1000
0001
0100
0010
0000
0000
0000
,
0000
1000
0010
0100
0001
0010
0000
0000
,
0000
0001
0010
0100
1000
0000
0000
0000
,
0000
1000
0100
0010
0001
1000
0010
0100
,
0001
0000
0100
0000
0110
0000
0000
0010
,
1000
0100
0110
0010
,
0001
1000
0001
0100
,
0010
0000
1000
0000
0001
1000
0001
0000
,
1000
0100
0010
0000
0001
0010
0100
0000
,
0001
0010
0100
1000
0100
0010
0001
0000
,
1000
0100
0010
0000
0001
0010
0100
0000
,
0001
0010
0100
1000
0100
0010
0001
0000
,
0001
0010
0100
0000
1000
0100
0010
0000
,
1000
0100
0010
0001
0010
0100
1000
0000
,
0001
0010
0100
0000
1000
0100
0010
0000
,
1000
0100
0010
0001
0010
0100
1000
0000
,
0101
0000
1010
0000
,
1001
0000
0110
0000
,
1001
0000
0110
0000
,
0010
0000
1000
0000
0001
0100
0000
0100
,
0010
0000
1000
0000
0100
0010
0001
0000
,
0010
0000
0100
0000
1000
0001
0000
0001
,
0100
0000
0010
1000
0100
0000
0010
0000
,
0001
0000
1000
0000
0010
0100
0000
0100
,
0001
0000
0010
0000
0100
1000
0001
0000
,
0010
0000
0001
0000
1000
0010
0000
0010
,
0100
0000
0001
1000
0100
0000
1000
0000
,
0001
0000
1000
1000
0010
0000
0100
0000
,
0001
0000
0010
0100
1000
0100
0010
0001
,
1000
0000
0001
0001
0100
0000
0010
0000
,
1000
0000
0100
0010
0001
0010
0100
1000
,
0001
0000
0100
0100
0010
0000
1000
0000
,
0100
0010
0001
0010
0100
1000
0001
0100
,
0010
0000
0010
1000
0100
0000
0100
0010
,
0001
0000
0001
0010
0100
1000
0001
0100
,
0010
1000
0100
1000
0100
1000
0001
1000
,
0010
1000
0001
1000
0100
0000
0000
0000
,
0001
1000
0000
0001
0100
0001
0000
0010
,
0001
1000
0000
0001
0100
0000
0000
0000
,
0001
1000
0100
1000
0001
1000
0010
1000
,
0100
1000
0010
1000
0001
0000
0000
0000
,
0001
1000
0000
0001
0100
0001
0000
0010
,
0001
1000
0000
0001
0100
0000
0001
0000
,
0100
0000
0110
0000
0110
0000
1000
0100
,
0010
0000
0110
0000
0010
0001
0010
0100
,
1000
0000
1100
0000
1001
0000
1000
0001
,
0100
0000
0110
0000
0010
1000
0100
0010
,
0001
0010
0100
1000
0001
0010
0100
0010
,
0001
1000
0100
0010
0100
0000
0110
0000
,
0100
1000
0010
0100
0001
0100
0010
1000
,
0100
1000
0001
0100
0010
0000
0110
0000
,
0010
1000
0100
0010
0001
0010
0100
1000
,
0001
0100
0001
1000
0100
0000
1100
0000
,
1000
0001
0010
0001
1000
0010
0100
0001
,
0010
0100
1000
0010
1000
0000
1001
0000
,
1000
0000
0100
0000
1100
0000
1000
0001
,
0100
0000
0001
0000
1001
0000
0001
0010
,
0001
1000
0101
0100
,
0001
0000
1000
0000
0100
0010
0001
0000
,
1000
0000
0101
0000
0100
0010
1000
0000
,
0100
0010
0001
0010
0100
1000
0001
0100
,
0010
1010
1000
1100
,
1000
0100
0010
0001
0010
0100
1000
0001
,
0010
0011
0001
1001
,
0001
0100
0010
1000
0100
0010
0001
0010
,
0100
0110
0100
1100
,
1000
0010
0100
0001
0010
0100
1000
0001
,
0100
0000
1001
0000
,
0110
0000
1001
0000
,
0110
0000
1001
0000
,
1000
0100
0010
0001
0010
0100
1000
0001
,
0100
0010
1000
0100
0010
0001
0010
0100
,
0010
0100
0010
0100
1000
0100
1000
0001
,
1000
0001
0100
0010
0100
0010
1000
0100
,
0010
0000
0110
0000
0010
0100
1000
0001
,
0010
0001
1000
0001
0100
0010
1000
0100
,
0010
0001
0010
0100
0010
0100
1000
0001
,
0100
0010
1000
0001
0100
0010
1000
0001
,
0100
0000
0110
0000
0010
1000
0100
0000
,
0010
0000
0011
0000
0010
0100
1000
0000
,
0101
0000
1010
0000
1000
0100
0010
0000
,
0011
0000
0110
0000
0100
1000
0010
0100
,
0001
0000
0101
0000
0010
0100
0010
0000
,
1000
0000
1100
0000
1000
0100
0010
0000
,
0001
0000
0011
0000
0010
0100
0010
0000
,
0110
0000
1100
0000
1000
0100
0010
0002
,
2000
0000
0000
0003
,
3010
0000
0000
0000
;

//---------------dance-single - Renard----------------
#NOTES:
     dance-single:
     Renard:
     Medium:
     5:
     0.378,0.430,0.163,0.009,0.000:
0000
0000
0000
0000
,
0000
0000
0000
0000
,
0000
0000
0000
0000
,
0000
0000
0000
0000
,
0000
0000
0000
0000
,
0000
0000
0000
0000
,
0000
0000
0000
0000
,
0000
0000
0000
0000
,
1000
0001
1001
0000
,
0001
1000
1001
0000
,
0100
0000
0110
0000
,
0010
1000
0010
0000
,
0100
0100
0001
0001
,
0010
0000
0100
0010
0100
0000
1000
0000
,
0010
0010
0100
0100
,
0001
0000
0001
1000
0100
0000
1000
0000
,
0001
0001
0010
0010
,
0100
0000
0100
1000
0100
0000
1000
0000
,
0010
0010
0100
0100
,
0001
0000
0001
1000
0001
0000
0100
0000
,
0110
0000
0110
0000
,
0110
0000
0110
0000
,
0110
0000
0110
0000
,
0010
0000
0100
0000
0000
0010
0000
0000
,
0100
0000
0001
1000
,
0100
0000
0010
0000
0000
0001
0000
0000
,
0010
0100
1000
0001
,
0100
0000
0010
0000
0000
1000
0000
0000
,
0010
1000
0100
0010
,
0001
0000
1000
0000
0000
0001
0000
0000
,
0100
0001
1000
0100
,
0010
0001
1000
0000
,
0000
0000
0001
0000
0100
0000
0010
0100
,
0010
0000
1000
0000
,
0100
0010
0001
0010
,
0100
0000
1000
0000
,
0001
0000
0100
0010
0100
0000
0010
0000
,
1000
1000
0001
0001
,
1000
1000
0001
1000
,
0001
0100
0010
1000
,
0100
0010
0001
0000
,
0001
0000
0010
0000
,
0100
0000
1000
0000
,
0010
1000
0001
1000
,
0100
1000
0010
0000
,
0001
1000
0000
0000
0001
1000
0000
0000
,
0010
0100
0000
0000
0110
0000
0000
0000
,
0010
0000
0000
0000
0010
0000
1000
0010
,
1000
0000
0000
0000
,
0001
0000
0000
0000
0001
0000
0100
0001
,
0100
0000
0001
0000
,
0010
0100
0010
0100
,
1000
0100
1000
0100
1000
0000
0000
0000
,
0001
0010
0100
1000
,
0001
0000
0100
0001
0100
0000
0000
0000
,
0001
0010
0100
1000
,
0001
0010
0001
0010
0001
0000
0000
0000
,
1000
0010
0100
0001
,
1000
0000
0001
0100
0001
0000
0000
0000
,
1000
0000
1000
0000
,
0100
0010
0001
0000
,
0001
0000
0001
0000
,
0001
0010
0100
0000
,
1000
1000
0001
0001
,
0100
0010
0100
0010
,
1000
1000
0001
0001
,
0010
0100
0010
0100
,
1000
1000
0001
0001
,
0100
0010
0100
0010
,
1000
1000
0001
0001
,
0010
0100
0010
0100
,
1000
0000
0001
0000
,
1000
0000
0001
0000
,
0110
0000
0110
0000
,
0010
1000
0010
1000
0010
0000
1000
0000
,
0001
0100
0001
0010
,
0100
1000
0100
0010
,
0001
1000
0001
0100
,
0001
0010
0001
0010
0001
0000
0010
0000
,
0100
1000
0001
0100
,
0010
1000
0010
0000
1000
0000
0001
0000
,
0100
0001
0100
0000
0001
0000
1000
0000
,
0100
0000
1000
0000
0001
0010
0000
0000
,
0011
0000
0000
0000
,
0010
0000
0100
0000
1000
0010
0000
0000
,
1010
0000
1001
0000
,
1000
0000
0001
0000
0100
0001
0000
0000
,
0011
0000
0010
0000
,
0100
0000
0000
0000
1000
0001
0000
0000
,
0110
0000
1001
0000
,
2100
0000
0000
0000
,
3001
0000
0000
0000
;

//---------------dance-single - Renard----------------
#NOTES:
     dance-single:
     Renard:
     Easy:
     3:
     0.281,0.352,0.034,0.241,0.000: // measure 1
0000
0000
0000
0000
,  // measure 2
0000
0000
0000
0000
,  // measure 3
0000
0000
0000
0000
,  // measure 4
0000
0000
0000
0000
,  // measure 5
0000
0000
0000
0000
,  // measure 6
0000
0000
0000
0000
,  // measure 7
0000
0000
0000
0000
,  // measure 8
0000
0000
0000
0000
,  // measure 9
1000
0000
0001
0000
,  // measure 10
1000
0000
0001
0000
,  // measure 11
0100
0000
0010
0000
,  // measure 12
0100
0010
0100
0000
,  // measure 13
0020
0000
2030
0000
,  // measure 14
3100
0010
0001
0010
,  // measure 15
0200
0000
2300
0000
,  // measure 16
3001
0010
0100
0010
,  // measure 17
0002
0000
2003
0000
,  // measure 18
3001
0010
0100
1000
,  // measure 19
0002
0000
2003
0000
,  // measure 20
3001
0010
0100
1000
,  // measure 21
0001
0000
0001
0000
,  // measure 22
0001
0000
0001
0000
,  // measure 23
0001
0000
0001
0000
,  // measure 24
2000
0000
0000
3001
,  // measure 25
0100
0000
0000
0000
,  // measure 26
0020
0000
0000
1030
,  // measure 27
0100
0000
0010
0000
,  // measure 28
0002
0000
0000
1003
,  // measure 29
0002
0000
0000
0003
,  // measure 30
0200
0000
0000
0310
,  // measure 31
2000
0000
3200
0000
,  // measure 32
0320
0000
0032
0000
,  // measure 33
0003
0010
0100
1000
,  // measure 34
0002
0000
0203
0000
,  // measure 35
0300
0000
0010
1000
,  // measure 36
0002
0000
0203
0000
,  // measure 37
0000
0310
1000
0100
,  // measure 38
0010
0000
0001
0000
,  // measure 39
0010
0000
0100
1000
,  // measure 40
0001
0000
0100
0000
,  // measure 41
0010
0000
1001
0000
,  // measure 42
1000
0000
0100
0000
,  // measure 43
0010
0000
1001
0000
,  // measure 44
0001
0000
0010
0000
,  // measure 45
0100
0000
1001
0000
,  // measure 46
1000
0000
0010
0000
,  // measure 47
0100
0000
1001
0000
,  // measure 48
0001
0000
0001
0000
,  // measure 49
0001
0000
0001
0100
,  // measure 50
0010
0000
0010
0000
,  // measure 51
0010
0000
0010
1000
,  // measure 52
0100
0000
1000
0000
,  // measure 53
0100
0010
0001
0000
,  // measure 54
0010
0000
0100
0000
,  // measure 55
1000
0001
1000
0000
,  // measure 56
0001
0000
0100
0000
,  // measure 57
0010
1000
0001
0000
,  // measure 58
1000
0000
0100
0000
,  // measure 59
0010
0001
1000
0000
,  // measure 60
0001
0000
0001
0000
,  // measure 61
0100
0000
0100
0000
,  // measure 62
0010
0000
0010
0000
,  // measure 63
1000
0010
1000
0000
,  // measure 64
0100
0100
0010
0000
,  // measure 65
0001
0001
1000
0000
,  // measure 66
0001
0000
0010
0000
,  // measure 67
0100
1000
0100
0000
,  // measure 68
1000
0000
0001
0000
,  // measure 69
0010
0010
0100
0000
,  // measure 70
1000
0000
0001
0000
,  // measure 71
0100
0010
0100
0010
,  // measure 72
1000
0000
1000
0000
,  // measure 73
0001
0000
0001
0000
,  // measure 74
0100
0000
0100
0000
,  // measure 75
0010
0000
0010
0000
,  // measure 76
1000
0100
0010
0001
,  // measure 77
1000
0000
1000
0000
,  // measure 78
0001
0010
0100
1000
,  // measure 79
0001
0000
0001
0000
,  // measure 80
1000
0010
0100
0001
,  // measure 81
0100
0000
0100
0000
,  // measure 82
0001
0100
0010
1000
,  // measure 83
0001
0000
0001
0000
,  // measure 84
2000
0000
0000
0000
,  // measure 85
3001
0000
0100
0000
,  // measure 86
0020
0000
2030
0000
,  // measure 87
3100
0000
0010
0001
,  // measure 88
0020
0000
0000
0000
,  // measure 89
0130
0000
1000
0010
,  // measure 90
0200
0000
0302
0000
,  // measure 91
0023
0000
0000
0000
,  // measure 92
0130
0000
0000
0000
;
