#TITLE:Get It Right;
#SUBTITLE:;
#ARTIST:Helix;
#TITLETRANSLIT:;
#SUBTITLETRANSLIT:;
#ARTISTTRANSLIT:;
#CREDIT:;
#BANNER:get.png;
#BACKGROUND:get-bg.png;
#LYRICSPATH:;
#CDTITLE:;
#MUSIC:get.ogg;
#OFFSET:0.000;
#SAMPLESTART:21.333;
#SAMPLELENGTH:12.000;
#SELECTABLE:YES;
#BPMS:0.000=180.000,31.000=360.000,32.000=180.000,63.000=360.000,64.000=180.000,95.000=360.000,96.000=180.000;
#STOPS:31.000=0.167
,63.000=0.167
,95.000=0.167
,156.000=0.667
;
#BGCHANGES:;

//---------------dance-single - Renard----------------
#NOTES:
     dance-single:
     Renard:
     Hard:
     8:
     0.673,0.652,0.426,0.132,0.000:
0000
0000
0000
0000
,
0000
0000
0000
0000
,
0000
0000
0000
0000
,
0000
0000
0000
0000
,
1000
0001
0000
0110
0000
1100
0000
0110
,
0000
0101
0000
1000
0100
0010
0001
0010
,
0100
1000
0000
0011
0000
1100
0000
0001
,
1000
0010
0100
0001
0010
0100
2000
0000
,
3001
0100
0010
1000
0001
0100
0010
1000
,
0001
0100
0010
1000
1001
0000
0110
0000
,
0100
1000
0001
0010
0100
1000
0001
0100
,
0010
1000
0001
0100
0110
0000
1001
0000
,
1000
0100
0010
0001
0010
0100
1000
0001
,
0010
0100
1000
0001
1001
0000
0110
0000
,
1000
0010
0100
0001
0010
0100
1000
0001
,
0100
0100
0010
0010
1000
1000
0002
0000
,
1003
0000
0101
0000
0010
1000
0000
1100
,
0000
0011
0000
0100
1000
0001
0100
0000
,
0110
0000
0101
0000
0010
1000
0000
0101
,
0000
0010
1000
0000
0100
0010
0000
0001
,
0010
0000
0110
0000
0100
1000
0000
1001
,
0000
1010
0000
0001
0100
0010
1000
0000
,
0001
0000
0100
0010
0000
1000
0001
0000
,
0100
0010
1000
0100
0010
0001
2000
0000
,
3001
0000
0110
0000
1000
0010
0000
0101
,
0000
0110
0000
0010
1000
0100
0010
0001
,
0010
0000
0110
0000
1000
0001
0000
1000
,
0000
0010
1000
0000
0001
0100
0010
1000
,
0001
0000
0110
0000
1000
0001
0000
0110
,
0000
1010
0000
1000
0010
0100
0001
0010
,
0100
0000
0100
1000
0000
1000
0010
0000
,
0200
0000
0000
0000
,
0302
0000
0000
0000
,
2003
0000
0000
0000
,
3200
0000
0320
0000
,
0032
0203
0320
2030
,
3001
0100
0010
1000
0100
0010
0000
0001
,
0000
0010
0100
1000
0001
0010
0000
0100
,
0000
1000
0010
0100
0001
0100
0010
1000
,
0001
0000
2100
0000
3100
0010
MMM1
0000
,
0100
0010
MMM1
0000
0010
1000
0100
0010
,
0100
0010
MMM1
0000
1000
0100
MMM1
0000
,
1000
0010
MMM1
0000
0010
0100
1000
0010
,
0100
0010
MMM1
0000
0010
0100
MMM1
0000
,
0100
0010
MMM1
0000
0010
0100
1000
0100
,
0010
0100
MMM1
0000
1000
0100
MMM1
0000
,
0100
0010
MMM1
0000
0010
1000
0010
0100
,
0010
0100
MMM1
0000
0100
0010
MMM1
0000
,
0010
0100
MMM1
0000
0100
1000
0010
0100
,
0010
0100
MMM1
0000
0100
0010
MMM1
0000
,
0010
0100
MMM1
0000
1000
0100
1000
0100
,
0010
0100
MMM1
0000
0100
0010
MMM1
0000
,
0010
0100
MMM1
0000
0100
1000
0010
0100
,
0010
0100
MMM1
0000
1000
0010
MMM1
0000
,
1000
0100
MMM1
0000
0100
0010
0100
0010
,
0100
0010
MMM1
0000
0110
0000
0101
0000
,
1001
0000
1000
0100
0010
0001
0010
0100
,
1000
0001
1000
0010
1010
0000
0101
0000
,
1001
0000
1000
0100
0010
0001
0010
0100
,
1000
0001
1000
0010
1010
0000
0110
0000
,
0101
0000
0001
0100
0010
1000
0100
0010
,
0001
0010
0100
1000
1100
0000
1100
0000
,
1010
0000
0001
0100
0010
1000
0001
0000
,
0100
0010
1000
0001
0100
0010
1000
0001
,
0100
0010
1000
0100
0010
0001
0010
0100
,
1000
0010
0001
0010
1000
0010
1000
0010
,
0100
0001
0100
0010
1000
0100
0001
0100
,
0001
0100
1000
0010
0100
0001
0100
0010
,
1000
0100
0001
0100
0010
0001
0010
0100
,
1000
0010
0100
0010
0001
0010
1000
0010
,
0100
0001
0100
0010
1000
0100
0010
0100
,
0010
0100
0001
0000
1100
0000
0000
0000
;

//---------------dance-single - Renard----------------
#NOTES:
     dance-single:
     Renard:
     Medium:
     6:
     0.394,0.399,0.020,0.010,0.000:
0000
0000
0000
0000
,
0000
0000
0000
0000
,
0000
0000
0000
0000
,
0000
0000
0000
0000
,
1000
0001
0000
1000
0000
0001
0000
1000
,
0000
0001
0000
1000
0001
0000
1000
0000
,
0010
0100
0000
0010
0000
0100
0000
0010
,
1000
0001
0100
0010
,
1000
1000
0010
0010
,
0100
0000
0100
0000
0001
0010
0001
0010
,
0100
0100
1000
1000
,
0001
0000
0001
0000
0100
0010
0100
0010
,
1000
1000
0001
0001
,
0100
0000
0100
0000
0001
1000
0001
1000
,
0100
0100
1000
0001
,
0010
0100
1000
0001
,
1000
0000
0001
0000
0100
0010
0000
1000
,
0000
0001
0000
0000
0100
0000
0001
0000
,
1000
0000
0100
0000
0010
0001
0000
1000
,
0000
0000
0001
0000
0000
0100
0000
0000
,
0010
0000
1000
0000
0001
0100
0000
0001
,
0000
1000
0000
0000
0100
0000
0010
0000
,
0001
0000
0000
0001
0000
0000
0000
0000
,
1000
0001
0100
0010
,
0100
0000
0000
0000
0100
0000
0000
0010
,
0000
1000
0000
0000
0001
0000
0100
0000
,
0001
0000
0000
0000
1000
0000
0000
0100
,
0000
0100
0010
0001
,
0010
0000
0100
0000
1000
0000
0000
0001
,
0000
0100
0000
0000
0010
0000
1000
0000
,
0001
0100
0001
1000
,
0200
0000
0000
0000
,
1300
0000
1000
0000
,
0001
0000
0001
0000
,
1000
0000
1000
0000
,
0001
0000
0001
0000
,
1000
0001
1000
0001
,
1000
1000
0001
0001
,
1000
0001
0100
0010
,
1000
1010
1000
0001
,
1000
0001
1000
0100
,
0010
0001
1000
0001
,
1000
0001
1000
0100
,
0010
0001
1000
0001
,
1000
0001
1000
0010
,
0100
0001
1000
0001
,
1000
0001
1000
0010
,
0100
0001
1000
0001
,
1000
0001
1000
0010
,
0100
0001
1000
0001
,
1000
0001
1000
0100
,
0010
0001
1000
0001
,
1000
0001
1000
0010
,
0100
0001
1000
0001
,
1000
0001
1000
0100
,
0010
0001
1000
1000
,
0001
1000
1000
0001
,
1000
0001
0100
0100
,
0010
0100
0100
0010
,
0100
0010
0100
0100
,
0001
0100
0100
0001
,
0100
0001
1000
1000
,
0010
1000
1000
0010
,
1000
0000
0010
0000
1000
0010
1000
0000
,
0001
0000
1000
0000
0001
0100
0001
0000
,
0100
0000
0001
0000
1000
0100
1000
0000
,
0001
0000
1000
0000
0001
0010
0001
0000
,
0010
0000
0001
0000
1000
0001
1000
0000
,
0010
1000
0001
0100
,
0001
0000
0010
0000
0100
1000
0100
0000
,
1000
0000
0001
0000
0100
0010
0100
0010
,
0100
0010
0100
0000
0110
0000
0000
0000
;

//---------------dance-single - Renard----------------
#NOTES:
     dance-single:
     Renard:
     Easy:
     2:
     0.259,0.326,0.000,0.081,0.000: // measure 1
0000
0000
0000
0000
,  // measure 2
0000
0000
0000
0000
,  // measure 3
0000
0000
0000
0000
,  // measure 4
0000
0000
0000
0000
,  // measure 5
1000
0000
0000
0000
,  // measure 6
0000
0000
0001
0000
,  // measure 7
1000
0000
0000
0000
,  // measure 8
0001
0001
0001
1000
,  // measure 9
0001
0000
0001
0000
,  // measure 10
0001
0000
0100
0010
,  // measure 11
1000
0000
1000
0000
,  // measure 12
1000
0000
0010
0100
,  // measure 13
0001
0000
0001
0000
,  // measure 14
0001
0000
0100
0010
,  // measure 15
1000
0000
1000
0000
,  // measure 16
0001
0010
0100
1000
,  // measure 17
0001
0000
0001
0000
,  // measure 18
0001
1000
0001
0000
,  // measure 19
1000
0000
1000
0000
,  // measure 20
1000
0001
1000
0000
,  // measure 21
0001
0000
0001
0000
,  // measure 22
1000
0001
1000
0001
,  // measure 23
0100
0000
0100
0000
,  // measure 24
0010
1000
0001
0100
,  // measure 25
0001
0000
0001
0000
,  // measure 26
1000
0000
0001
0000
,  // measure 27
0100
0000
0010
0000
,  // measure 28
1000
0000
0001
1000
,  // measure 29
0001
0000
1000
0000
,  // measure 30
0100
0000
0010
0000
,  // measure 31
0010
0000
0001
0000
,  // measure 32
2000
0000
0000
0000
,  // measure 33
3002
0000
0000
0000
,  // measure 34
0203
0000
0000
0000
,  // measure 35
0302
0000
0000
0000
,  // measure 36
2003
0000
0000
0000
,  // measure 37
3002
0000
0000
0000
,  // measure 38
0023
0000
0000
0000
,  // measure 39
0032
0000
0000
0000
,  // measure 40
1003
0010
1000
0001
,  // measure 41
1000
0001
1000
0000
,  // measure 42
0000
0001
1000
0001
,  // measure 43
1000
0001
1000
0000
,  // measure 44
0000
0001
1000
0001
,  // measure 45
1000
0001
1000
0000
,  // measure 46
0000
0001
1000
0001
,  // measure 47
1000
0001
1000
0000
,  // measure 48
0000
0001
1000
0001
,  // measure 49
1000
0001
1000
1000
,  // measure 50
1000
0001
1000
0001
,  // measure 51
1000
0001
1000
1000
,  // measure 52
1000
0001
1000
0001
,  // measure 53
1000
0001
1000
1000
,  // measure 54
1000
0001
1000
0001
,  // measure 55
1000
0001
1000
1000
,  // measure 56
1000
0001
0100
0000
,  // measure 57
0100
0000
0010
0000
,  // measure 58
0010
0000
0100
0000
,  // measure 59
0100
0000
0010
0000
,  // measure 60
0010
0000
0100
0000
,  // measure 61
0100
0000
0010
0000
,  // measure 62
0010
0000
0100
0000
,  // measure 63
0100
0000
0010
0000
,  // measure 64
0010
0000
1000
0001
,  // measure 65
1000
0000
0001
0000
,  // measure 66
1000
0000
0001
1000
,  // measure 67
0001
0000
1000
0000
,  // measure 68
0001
0000
1000
0100
,  // measure 69
1000
0000
0001
0010
,  // measure 70
0001
0000
1000
0001
,  // measure 71
1000
0000
1000
0100
,  // measure 72
0010
0001
1000
0000
;
