#TITLE:Get Hype (Scott Brown Remix);
#SUBTITLE:;
#ARTIST:Dougal & Gammer;
#TITLETRANSLIT:;
#SUBTITLETRANSLIT:;
#ARTISTTRANSLIT:;
#CREDIT:;
#BANNER:hype.png;
#BACKGROUND:hype-bg.png;
#LYRICSPATH:;
#CDTITLE:;
#MUSIC:hype.ogg;
#OFFSET:0.000;
#SAMPLESTART:39.529;
#SAMPLELENGTH:12.000;
#SELECTABLE:YES;
#BPMS:0.000=170.000;
#STOPS:;
#BGCHANGES:;
#GENRE:Trancecore;

//---------------dance-single - Renard----------------
#NOTES:
     dance-single:
     Renard:
     Hard:
     9:
     0.672,0.587,0.191,0.009,0.000:
0000
0000
0000
0000
,
0000
0000
0000
0000
,
0000
0000
0000
0000
,
0000
0000
0000
0000
,
0101
0000
0010
1000
0000
0100
0010
0000
,
0001
0010
0100
1000
0010
0100
0001
0000
,
0101
0000
0100
0010
0000
0010
1000
0000
,
0100
0010
0001
1000
0001
0100
0001
0000
,
0100
0010
0100
0010
0100
0010
1000
0100
,
0001
0100
0001
0100
1000
0100
1000
0100
,
1000
0010
0100
0010
0100
0010
0100
0001
,
0010
1000
0010
1000
0010
0001
0010
0001
,
0100
0010
0100
0010
0100
0010
1000
0100
,
0001
0100
0001
0100
1000
0100
1000
0100
,
1000
0010
0100
0010
0100
0010
0100
0001
,
0100
1000
0100
1000
0100
0001
0100
0001
,
0100
0010
1000
0100
0001
0100
0000
0100
,
0000
1000
0010
0100
0001
0010
0100
0010
,
0000
0010
0001
0100
0010
1000
0100
0001
,
0000
0001
0100
1000
0010
0100
0001
0100
,
0000
0100
0010
1000
0100
0010
0001
0010
,
0000
0010
0100
1000
0010
0100
0001
0001
,
0000
0001
0100
0010
1000
0100
0010
0010
,
0000
0100
1000
0010
0100
0001
0100
0010
,
1000
1000
1000
1010
,
1001
1100
1010
1001
,
1000
1000
0100
0100
0010
0010
0001
0001
,
1000
0001
0100
0010
1000
0001
0200
0000
,
0301
0100
0010
0100
1000
0100
0001
0100
,
0000
0100
0010
1000
0100
0001
0000
0101
,
0000
0100
1000
0010
0100
0001
0100
0010
,
0000
0010
1000
0100
0010
0001
0010
1000
,
0000
1000
0010
0001
0100
0010
0000
1010
,
0000
0010
0100
0001
0100
1000
0100
0001
,
0000
0001
0010
0100
0010
0100
1000
0100
,
0000
0100
0001
0100
1000
0010
0100
0001
,
0000
0001
0100
0010
1000
0100
0000
1100
,
0000
0100
0010
0001
0100
0010
1000
0001
,
0000
0001
1000
0100
0001
0100
0010
0001
,
0000
0001
0010
0100
1000
0010
0100
0001
,
0000
0001
0100
0010
1000
0010
0000
1010
,
0000
0010
0001
0010
0100
1000
0100
0001
,
0000
0001
0100
0010
1000
0100
0001
0100
,
0000
0100
1000
0010
0100
0000
1001
0000
,
0010
0100
0010
0100
0010
0001
0010
0001
,
0010
1000
0010
1000
0010
0100
0010
0000
,
0100
0010
0100
0010
0100
0001
0100
0001
,
0100
1000
0100
1000
0100
0001
0010
0000
,
0100
0010
0100
0010
1000
0010
1000
0010
,
0001
0010
0001
0010
0100
0010
0100
0000
,
0100
0010
0100
0010
0100
1000
0100
1000
,
0100
0001
0100
0010
0100
1000
0100
0000
,
1000
0100
1000
0010
1000
0001
1000
0000
,
0001
0010
0001
0100
0001
1000
0001
0000
,
1000
0100
1000
0010
1000
0100
1000
0000
,
0001
0010
0001
0100
0001
0010
0001
0000
,
1000
0001
1000
0010
1000
0100
1000
0000
,
0001
1000
0001
0100
0001
0010
0001
0000
,
1000
0001
0100
0000
0001
1000
0010
0000
,
1000
0001
0100
0010
1000
0000
1001
0000
,
0101
0000
0010
0000
1000
0100
0010
0001
,
0000
0001
0010
0100
1000
0000
0010
0100
,
0000
0001
0100
0010
1000
0100
0010
0001
,
0000
0001
0010
0100
1000
0000
0101
0000
,
1010
0000
1000
1100
0000
0100
0110
0000
,
0010
0001
0100
0010
1000
0100
0001
0100
,
0010
0010
0001
0001
0100
0100
0010
0010
,
1000
0001
0100
0010
1000
0001
0100
0000
,
0101
0000
0100
0110
0000
0010
1010
0000
,
1000
0100
0010
0000
0010
0001
0010
0100
,
0000
0100
1000
0010
0100
0001
0100
0010
,
1000
1000
0001
0001
0100
0100
0010
0010
,
1000
0100
0010
0000
0010
0001
0010
0000
,
0100
1000
0010
0100
0000
0100
0001
0100
,
0010
1000
0100
0000
0010
0001
0100
0010
,
1000
0001
0100
0010
1000
0001
0100
0010
,
1000
0000
0000
0000
;

//---------------dance-single - Renard----------------
#NOTES:
     dance-single:
     Renard:
     Challenge:
     10:
     0.841,0.898,0.064,0.009,0.545:
0000
0000
0000
0000
,
0000
0000
0000
0000
,
0000
0000
0000
0000
,
0000
0000
0000
0000
,
1000
0001
1000
0000
0001
0000
0100
0000
0010
0000
0000
0010
1000
0000
0000
1000
,
0001
0100
0001
0000
0010
0000
0100
0000
1000
0000
0000
1000
0010
0000
0000
0010
,
0100
0001
0100
0000
0010
0000
1000
0000
0001
0000
1000
0000
0001
0000
1000
0000
,
0010
1000
0001
0100
0001
1000
0001
0000
,
1000
0000
1000
0100
0010
0000
0010
0001
,
0100
0000
0100
0001
0100
0000
0100
0010
,
1000
0100
0001
0100
1000
0000
1000
0010
,
0001
0010
1000
0010
1000
0000
1000
0010
,
0100
0000
0100
0001
0010
0000
0010
0100
,
1000
0010
0100
0001
0100
0000
0100
0001
,
0010
0100
1000
0100
1000
0000
1000
0100
,
0001
0000
0000
0000
0001
0000
0100
0000
1000
0000
0000
0000
0010
0100
0010
0100
,
0010
0000
0100
0001
0100
0000
0100
0010
,
1000
0000
0000
0000
1000
0000
0010
0000
0100
0000
0001
0000
0010
0000
0001
0010
,
0001
0000
0010
0100
1000
0000
1000
0010
,
0100
0000
0000
0000
0001
0000
1000
0000
0100
0000
0010
0000
0001
0010
0001
0010
,
0001
0000
0010
0100
1000
0000
1000
0010
,
0100
0000
0000
0000
0100
0000
0001
0000
0100
0000
0010
0000
1000
0000
0010
1000
,
0010
0000
1000
0100
0010
0000
0010
0001
,
0010
0100
1000
0010
0100
0001
0100
0001
,
0100
0010
1000
0000
0010
1000
0000
0010
,
0100
0100
0001
0001
,
0010
0010
0100
0100
1000
1000
0010
0010
,
0100
0001
0100
0001
0100
0001
0100
0001
0100
0001
0100
0001
0200
0000
0000
0000
,
0301
0000
0100
0001
0100
0000
0010
0000
1000
0000
0100
0000
0010
0000
0001
0000
,
0010
0000
0100
0000
1000
0000
0001
0100
0001
0000
0100
0000
0010
0000
1000
0000
,
0100
0000
0010
0000
0001
0000
1000
0100
1000
0000
0100
0000
1000
0000
0010
0000
,
0100
0000
0001
0000
0010
0000
0001
1000
0001
0000
1000
0000
0010
0000
0100
0000
,
0001
0000
0010
0000
0100
0000
1000
0000
0001
0000
0100
0001
0100
0000
0010
0000
,
1000
0000
0001
0000
0010
0000
0100
0000
1000
0000
0001
1000
0001
0000
1000
0000
,
0010
0000
0100
0000
0001
0000
0010
0000
0100
0010
0100
0000
1000
0000
0010
0000
,
0100
0000
0001
0000
1000
0000
0001
0000
0100
0001
0100
0000
0010
0000
1000
0000
,
0001
0000
0100
0001
0100
0000
0010
0000
1000
0000
0100
0000
0010
0000
0001
0000
,
0010
0000
0100
0000
1000
0000
0001
0100
0001
0000
0100
0000
0010
0000
1000
0000
,
0100
0000
0010
0000
0001
0000
1000
0100
1000
0000
0100
0000
1000
0000
0010
0000
,
0100
0000
0001
0000
0010
0000
0001
1000
0001
0000
1000
0000
0010
0000
0100
0000
,
0001
0000
0010
0000
0100
0000
1000
0000
0001
0000
0100
0001
0100
0000
0010
0000
,
1000
0000
0001
0000
0010
0000
0100
0000
1000
0000
0001
1000
0001
0000
1000
0000
,
0010
0000
0100
0000
0001
0000
0010
0000
0100
0010
0100
0000
1000
0000
0010
0000
,
0100
0000
0001
0000
1000
0000
0001
0000
0100
0001
0100
0000
0010
0000
1000
0000
,
0001
0100
0010
1000
0001
0000
0100
0000
0010
0000
1000
0000
0100
0000
0010
0000
,
0001
0010
0100
1000
0100
0010
0001
0000
,
1000
0100
0010
0001
0010
0000
0100
0000
1000
0000
0010
0000
0100
0000
0001
0000
,
0100
0010
1000
0001
0100
0001
1000
0000
,
1000
0100
0010
0100
1000
0000
0010
0000
0100
0000
0001
0000
0010
0000
0100
0000
,
1000
0010
0100
0001
0010
0100
0010
0000
,
0001
0010
0100
0010
0001
0000
0100
0000
0010
0000
1000
0000
0001
0000
1000
0000
,
0100
0010
0001
0010
0100
1000
0001
0000
,
0001
0000
0000
0001
0100
0000
0000
0100
0010
0000
1000
0100
1000
0000
0100
0000
,
0010
0001
1000
0010
0100
0001
0101
0000
,
0001
0000
0000
0001
0100
0000
0000
0100
0010
0000
1000
0010
1000
0000
0100
0000
,
1000
0100
0010
0001
1000
1001
1001
0000
,
1000
0000
0000
1000
0010
0000
0000
0010
0100
0000
0001
0000
0010
0000
0001
0010
,
0001
0010
0100
1000
0010
0100
0101
0000
,
0001
0000
0000
0001
0100
0000
0000
0100
0010
0000
1000
0100
1000
0000
0100
0000
,
0010
0001
1000
0001
1000
1001
1001
0000
,
1000
0000
0001
1000
0001
0000
1000
0001
1000
0000
0001
1000
0001
0000
1000
0001
,
1000
0000
0001
1000
0001
0000
1000
0001
1000
0000
0001
1000
0001
0000
1000
0001
,
1000
0000
0001
1000
0001
0000
1000
0001
1000
0000
0001
1000
0001
0000
1000
0001
,
1000
0001
1000
0001
1000
0001
1000
0001
1000
0001
1000
0001
1000
0000
0000
0000
,
0010
0000
0100
0010
0100
0000
0010
0100
0010
0000
0100
0010
0100
0000
0010
0100
,
0010
0000
0100
0010
0100
0000
0010
0100
0010
0000
0100
0010
0100
0000
0010
0100
,
0010
0000
0100
0010
0100
0000
0010
0100
0010
0000
0100
0010
0100
0000
0010
0100
,
0010
0100
0010
0100
0010
0100
0010
0100
0010
0100
0010
0100
0010
0000
0000
0000
,
1000
0000
0001
1000
0001
0000
1000
0001
1000
0000
0001
1000
0001
0000
1000
0010
,
0100
0000
0010
0100
0010
0000
0100
0010
0100
0000
0010
0100
0010
0000
0100
0010
,
1000
0000
0001
1000
0001
0000
1000
0001
1000
0000
0001
1000
0001
0000
1000
0010
,
0100
0000
0010
0100
0010
0000
0100
0010
0100
0000
0010
0100
0010
0000
0100
0010
,
1000
0100
1000
0100
1000
0000
0000
0000
0001
0010
0001
0010
0001
0000
0000
0000
,
0001
0100
0001
0100
0001
0000
0000
0000
0100
0010
0100
0010
0100
0000
0000
0000
,
0010
1000
0010
1000
0010
0000
1000
0000
0001
1000
0001
1000
0001
0000
1000
0000
,
0001
0000
0100
0010
1000
0000
0001
0000
0010
0000
0100
0000
1000
0000
0001
0000
,
0110
0000
0000
0000
;

//---------------dance-single - Renard----------------
#NOTES:
     dance-single:
     Renard:
     Medium:
     6:
     0.413,0.449,0.009,0.009,0.000:
0000
0000
0000
0000
,
0000
0000
0000
0000
,
0000
0000
0000
0000
,
0000
0000
0000
0000
,
0001
0000
0000
0100
0000
0000
0010
0000
,
1000
0100
0010
0001
,
1000
0001
1000
0000
0001
0000
0100
0000
,
0010
0000
1000
0000
0001
0100
0001
0000
,
0100
0000
0000
0010
0000
0000
1000
0000
,
0100
0000
0000
0010
0000
0000
0001
0000
,
0100
0000
0000
0001
0000
0000
1000
0000
,
0001
0000
0000
0001
0000
0000
0001
0000
,
0100
0000
0000
0010
0000
0000
1000
0000
,
0100
0000
0000
0010
0000
0000
0001
0000
,
0010
0000
0000
0100
0000
0000
0100
0000
,
1000
0000
0000
1000
0000
0000
1000
0000
,
0010
0100
0001
0001
,
0001
0000
0001
0000
0001
0000
0001
0010
,
0000
0010
0100
0000
1000
0000
0010
0100
,
0000
0100
0001
0000
1000
0000
0100
0000
,
0010
0010
0100
0100
,
0100
0000
0100
0000
0100
0000
0100
1000
,
0000
1000
0010
0000
0100
0000
0001
0010
,
0000
0010
0001
0000
1000
0000
0001
0000
,
0100
0000
0100
0000
,
0010
0000
0010
0000
,
1000
0001
1000
0001
,
0100
0010
0100
0010
0100
0010
0200
0000
,
0310
1000
0010
0000
0100
0001
0000
0010
,
0000
0010
0001
0000
0100
0000
0000
0010
,
0000
0010
1000
0000
0100
0000
0000
0010
,
0000
0010
0001
0000
1000
0000
0000
0001
,
0000
0100
0001
0000
0100
0010
0000
1000
,
0000
1000
0001
0000
0100
0000
0000
0001
,
0000
0001
1000
0000
0100
0000
0000
0010
,
0000
0010
0001
0000
1000
0001
0100
0001
,
0000
0001
1000
0000
0100
0010
0000
0001
,
0000
0001
0010
0000
0100
0000
1000
0001
,
0000
0001
1000
0000
0010
0000
0100
0001
,
0000
0001
1000
0000
0001
0000
0010
0001
,
1000
0001
1000
0000
0001
0100
0000
0001
,
0000
0001
1000
0000
0100
0000
0010
0001
,
0000
0001
1000
0000
0010
0000
0100
0001
,
0000
0001
1000
0000
0001
0000
0100
0010
,
1000
1000
1000
0010
,
0100
0000
0100
0000
0001
0000
0010
0001
,
0010
0010
0100
1000
,
0010
0000
0010
0000
0100
0000
0001
1000
,
0001
0001
0001
0100
,
0010
0000
0010
0000
1000
0000
0100
1000
,
0100
0100
0010
0001
,
1000
0001
1000
0000
0001
1000
0001
0000
,
0100
0000
0100
0000
0010
0000
0010
1000
,
0010
0000
0010
1000
0010
0000
0000
0000
,
0100
0000
0100
0000
0100
0000
0100
0001
,
0100
0000
0100
0001
0100
0000
0000
0000
,
0001
0000
0001
0000
0001
0000
0001
0010
,
0001
0000
0001
0010
0001
0000
0000
0000
,
1000
0000
1000
0000
1000
0000
1000
0100
,
1000
0000
1000
0100
1000
0000
0001
0000
,
1000
1000
1000
1000
,
1000
0000
1000
0000
1000
0000
1000
0010
,
0000
0010
1000
0000
1000
0000
1000
0010
,
0000
0010
1000
0000
1000
0000
1000
0000
,
0100
0001
0001
0001
,
0001
0000
0001
0000
0001
0000
0001
0100
,
0000
0100
0001
0000
0001
0000
0001
0100
,
0000
0100
0001
0000
0100
0000
1000
0000
,
0010
0010
0100
0100
,
0001
0001
0100
0100
,
0001
0001
1000
1000
,
0001
0000
0100
0000
0001
1000
0001
0000
,
1000
0010
0100
0001
,
0010
0100
1000
0001
,
0100
0001
1000
0001
,
1000
0100
1000
0000
0001
0100
0001
0000
,
1001
0000
0000
0000
;

//---------------dance-single - Renard----------------
#NOTES:
     dance-single:
     Renard:
     Easy:
     2:
     0.236,0.345,0.036,0.000,0.000: // measure 1
0000
0000
0000
0000
,  // measure 2
0000
0000
0000
0000
,  // measure 3
0000
0000
0000
0000
,  // measure 4
0000
0000
0000
0000
,  // measure 5
0001
0000
0000
1000
0000
0000
0001
0000
,  // measure 6
0000
0000
1000
0000
,  // measure 7
0001
0000
0100
0000
,  // measure 8
0010
0000
0010
0000
,  // measure 9
1000
1000
1000
0000
,  // measure 10
0001
0000
0001
0000
,  // measure 11
0100
0000
0000
0100
,  // measure 12
0010
0000
0000
0000
,  // measure 13
1000
0000
1000
1000
,  // measure 14
0001
0000
0001
0000
,  // measure 15
0010
0000
0000
0010
,  // measure 16
0100
0000
0100
0000
,  // measure 17
1000
0000
0000
0001
0000
0000
1000
0000
,  // measure 18
0001
0000
0001
0000
,  // measure 19
1000
0000
0000
0001
0000
0000
1000
0000
,  // measure 20
0001
0000
0001
0000
,  // measure 21
0100
0000
0000
0010
0000
0000
0100
0000
,  // measure 22
0010
0000
0010
0000
,  // measure 23
1000
0000
0000
1000
0000
0000
1000
0000
,  // measure 24
0001
0000
0001
0000
,  // measure 25
0100
0000
0100
0000
,  // measure 26
0001
0000
0001
0000
,  // measure 27
1000
0000
0001
0000
,  // measure 28
1000
0001
1000
0001
,  // measure 29
1000
1000
1000
0000
,  // measure 30
0001
0000
0001
0000
,  // measure 31
0010
0000
0100
0000
,  // measure 32
1000
0000
0000
0000
,  // measure 33
0001
0001
0001
0000
,  // measure 34
1000
0000
1000
0000
,  // measure 35
0100
0000
0010
0000
,  // measure 36
0001
0000
0001
0000
,  // measure 37
1000
0000
0001
0000
,  // measure 38
1000
0001
1000
0000
,  // measure 39
0010
0000
0100
0000
,  // measure 40
0010
0100
0010
0000
,  // measure 41
1000
0000
0001
0000
,  // measure 42
0010
0000
0100
0000
,  // measure 43
1000
0001
1000
0000
,  // measure 44
0001
0100
0010
1000
,  // measure 45
0010
0010
0010
0000
,  // measure 46
0100
0000
0100
0000
,  // measure 47
0001
0001
0001
0000
,  // measure 48
1000
0000
1000
0000
,  // measure 49
0100
0100
0100
0000
,  // measure 50
0010
0000
0010
0000
,  // measure 51
0001
0001
0001
0000
,  // measure 52
1000
0000
1000
0000
,  // measure 53
0010
0000
0010
0000
,  // measure 54
1000
0000
1000
0000
,  // measure 55
0001
0100
0001
0000
,  // measure 56
1000
0100
1000
0000
,  // measure 57
0001
0000
0001
0000
,  // measure 58
0010
0000
0010
0000
,  // measure 59
0100
1000
0010
0100
,  // measure 60
1001
0000
1001
0000
,  // measure 61
1010
0000
0100
0000
,  // measure 62
0001
0000
0010
0100
,  // measure 63
1000
0000
0001
0000
,  // measure 64
1000
0000
1000
0001
,  // measure 65
0100
0000
0100
0000
,  // measure 66
0010
0000
1000
0100
,  // measure 67
0010
0000
0001
0010
,  // measure 68
0100
1000
0001
0000
,  // measure 69
0100
0000
0100
0000
,  // measure 70
0010
0000
0010
0000
,  // measure 71
1000
0001
1000
0000
,  // measure 72
0001
0100
0001
0100
,  // measure 73
0010
0000
0010
0000
,  // measure 74
1000
0000
1000
0000
,  // measure 75
0001
0100
0010
1000
,  // measure 76
0001
0100
0010
1000
,  // measure 77
1001
0000
0000
0000
;
