#TITLE:Gang Bang Society;
#SUBTITLE:;
#ARTIST:Hardcore Authority;
#TITLETRANSLIT:;
#SUBTITLETRANSLIT:;
#ARTISTTRANSLIT:;
#CREDIT:;
#BANNER:gang.png;
#BACKGROUND:gang-bg.png;
#LYRICSPATH:;
#CDTITLE:;
#MUSIC:gang.ogg;
#OFFSET:0.000;
#SAMPLESTART:38.320;
#SAMPLELENGTH:12.000;
#SELECTABLE:YES;
#BPMS:0.000=175.275;
#STOPS:;
#BGCHANGES:;

//---------------dance-single - Renard----------------
#NOTES:
     dance-single:
     Renard:
     Hard:
     8:
     0.720,0.610,0.036,0.060,0.000:
0000
0000
0000
0000
,
0000
0000
0000
0000
,
0000
0000
0000
0000
,
0000
0000
0000
0000
,
0001
0100
0010
1000
0000
1000
0100
0010
,
0000
0010
0001
0010
0100
0010
0100
0010
,
0100
1000
0010
0100
0000
0100
0001
0010
,
0000
0010
0100
1000
0010
0100
0010
0100
,
0010
1000
0010
1000
0010
1000
0010
1000
,
0001
0100
0001
0100
0001
0010
0001
0010
,
0100
0010
0100
0010
0100
0010
0100
0010
,
0100
1000
0100
1000
0010
1000
0010
1000
,
0010
0100
0010
0100
0010
0100
0010
0100
,
0001
0100
0001
0100
0001
1000
0001
1000
,
0010
1000
0010
1000
0010
1000
0010
1000
,
0100
0010
0001
0010
0100
1000
0001
0010
,
0100
1000
0001
0010
0100
1000
0001
0010
,
0100
1000
0001
0010
0100
1000
0001
0010
,
0200
0000
0000
0000
,
0000
0000
0000
0300
,
0100
1000
0100
0100
0010
0100
0100
0001
,
0100
1000
0100
0100
0010
0100
0100
0001
,
0010
0100
0010
0010
1000
0010
0010
0001
,
0010
0100
0010
0010
0001
0010
0010
1000
,
0100
1000
0100
0100
0010
0100
0100
0001
,
0100
1000
0100
0100
0010
0100
0100
0001
,
0010
0100
0010
0010
1000
0010
0010
0000
,
2002
0000
0000
3103
,
1000
0001
1000
1000
0001
1000
1000
0001
,
0001
0100
0001
0001
0100
0001
0001
0100
,
0100
0010
0100
0100
0010
0100
0100
0010
,
0010
1000
0010
0010
1000
0010
0010
1000
,
1000
0100
1000
1000
0100
1000
1000
0100
,
0100
0010
0100
0100
0010
0100
0100
0010
,
0010
0001
0010
0010
0001
0010
0010
0001
,
0001
1000
0001
0001
1000
0001
0001
1000
,
0010
0100
0010
0010
0001
0010
0010
1000
,
0100
1000
0100
0100
0010
0100
0100
0010
,
0001
0010
0001
0001
0100
0001
0001
1000
,
0100
0010
0100
0100
0001
0100
0100
1000
,
0010
0100
0010
0010
0001
0010
0010
0100
,
0001
0010
0001
0001
1000
0100
0100
0010
,
0001
0001
0100
0010
0010
1000
0100
0000
,
2002
0000
0000
3103
,
1000
0100
0010
0001
1000
0100
0010
0001
,
1000
0100
0010
0001
0010
0001
0010
0001
,
1000
0100
0010
0001
1000
0100
0010
0001
,
1000
0100
0010
0001
0010
0001
0010
0001
,
1000
0010
0100
0001
1000
0010
0100
0001
,
1000
0010
0100
0001
0100
0001
0100
0001
,
1000
0010
0100
0001
1000
0010
0100
0001
,
1000
0010
0100
0001
0100
0000
1001
0000
,
0001
0010
0100
1000
0001
0010
0100
1000
,
0001
0010
0100
1000
0100
1000
0100
1000
,
0001
0010
0100
1000
0001
0010
0100
1000
,
0001
0010
0100
1000
0100
1000
0100
1000
,
0001
0100
0010
1000
0001
0100
0010
1000
,
0001
0100
0010
1000
0010
1000
0010
1000
,
0001
0100
0010
1000
0001
0100
0010
1000
,
0001
0100
0100
1000
0100
1000
0100
1000
;

//---------------dance-single - Renard----------------
#NOTES:
     dance-single:
     Renard:
     Medium:
     5:
     0.394,0.610,0.096,0.036,0.000:
0000
0000
0000
0000
,
0000
0000
0000
0000
,
0000
0000
0000
0000
,
0000
0000
0000
0000
,
0000
0000
0000
0000
,
0000
0000
0000
0000
,
0000
0000
0000
0000
,
0000
0000
0000
0000
,
1000
0000
0100
0010
0001
0000
0010
0000
,
0100
0000
1000
0100
1000
0000
0100
0000
,
1000
0000
0100
0010
0001
0000
0010
0000
,
0100
0000
1000
0100
0010
0000
0100
0000
,
1000
0000
0100
0010
0001
0000
0010
0000
,
0100
0000
1000
0100
0010
0000
0100
0000
,
1000
0000
0100
0010
0001
0000
0010
0000
,
0100
0000
1000
0100
0010
0001
0010
0100
,
1000
0001
0010
0100
1000
0001
0010
0100
,
1000
0001
0010
0100
1000
0001
0010
0100
,
2000
0000
0000
0000
,
0000
0000
0000
0000
,
3001
0000
0001
0100
0000
0000
0010
0000
,
1000
0000
1000
0100
0000
0000
0010
0000
,
0001
0000
0001
1000
0000
0000
0010
0000
,
0100
0000
0100
0001
0000
0000
1000
0000
,
0100
0000
0100
0010
0000
0000
0001
0000
,
1000
0000
1000
0010
0000
0000
0100
0000
,
0001
0000
0001
1000
0000
0000
0100
0000
,
1000
0000
0000
0000
,
0001
0000
0001
0100
0000
0000
0001
0000
,
1000
0000
1000
0100
0000
0000
1000
0000
,
0001
0000
0001
0010
0000
0000
0001
0000
,
1000
0000
1000
0010
0000
0000
1000
0000
,
0001
0000
0001
0100
0000
0000
0001
0000
,
1000
0000
1000
0100
0000
0000
1000
0000
,
0001
0000
0001
0010
0000
0010
0001
0000
,
1000
0000
1000
0010
0000
0010
1000
0000
,
0001
0000
0100
0010
0000
0000
1010
0000
,
1000
0000
0100
0010
0000
0000
0011
0000
,
0010
0000
0100
1000
0000
0000
1001
0000
,
0001
0000
0100
0010
0000
0000
1010
0000
,
1000
0000
0100
0010
0000
0000
0110
0000
,
0010
0000
0001
1000
0000
0000
1001
0000
,
0001
0000
0100
0010
0000
0000
0110
0000
,
0020
0000
0000
0000
,
1030
1000
1000
0100
,
0010
0010
0010
0001
,
0100
0100
0100
0010
,
1000
0100
0010
0001
,
1000
0000
0100
1000
0000
0000
0001
0010
,
0000
0000
0001
0100
0000
0100
0000
0100
,
0000
0000
0010
1000
0000
0000
0001
0100
,
0000
0000
0001
0010
0000
0010
0000
0010
,
0100
1000
0001
0010
,
0001
0000
1000
0010
0000
0010
0000
0010
,
0100
0001
1000
0100
,
0010
0000
0001
1000
0000
1000
0000
1000
,
0001
0100
0010
1000
,
0100
0000
0010
0001
0000
1000
0000
0001
,
0100
0010
1000
0001
,
0210
0000
0000
0001
0000
0001
0000
0301
;

//---------------dance-single - Renard----------------
#NOTES:
     dance-single:
     Renard:
     Easy:
     2:
     0.246,0.323,0.012,0.180,0.000: // measure 1
0000
0000
0000
0000
,  // measure 2
0000
0000
0000
0000
,  // measure 3
0000
0000
0000
0000
,  // measure 4
0000
0000
0000
0000
,  // measure 5
1000
0000
1000
0000
,  // measure 6
0001
0000
0001
0001
,  // measure 7
0100
0000
0100
0000
,  // measure 8
0010
0000
0000
0000
,  // measure 9
0010
0000
0200
0000
,  // measure 10
0301
0000
0020
0000
,  // measure 11
0130
0000
2000
0000
,  // measure 12
3010
0000
0200
0000
,  // measure 13
0302
0000
0023
0000
,  // measure 14
0230
0000
2300
0000
,  // measure 15
3002
0000
2003
0000
,  // measure 16
3200
0000
0320
0000
,  // measure 17
0001
0000
0001
0000
,  // measure 18
0002
0000
0000
0000
,  // measure 19
0000
0000
0000
0000
,  // measure 20
0000
0000
0000
0033
,  // measure 21
0001
0000
0001
0000
,  // measure 22
1000
0000
1000
0000
,  // measure 23
0001
0000
0001
0000
,  // measure 24
1000
0000
1000
0000
,  // measure 25
0010
0000
0010
0000
,  // measure 26
0100
0000
0100
0000
,  // measure 27
0010
0000
0010
0000
,  // measure 28
0200
0000
0000
0000
,  // measure 29
0301
0001
0001
0000
,  // measure 30
1000
1000
1000
0000
,  // measure 31
0001
1000
0001
0000
,  // measure 32
1000
0001
1000
0000
,  // measure 33
0010
0010
0010
0000
,  // measure 34
0100
0100
0100
0000
,  // measure 35
0010
0100
0010
0000
,  // measure 36
0100
0010
0100
0000
,  // measure 37
0001
0000
0001
0100
,  // measure 38
0010
0000
0010
1000
,  // measure 39
0100
0000
0100
0010
,  // measure 40
0001
0000
1000
0001
,  // measure 41
0100
0000
0001
1000
,  // measure 42
0100
0000
0010
0001
,  // measure 43
1000
0000
0010
0100
,  // measure 44
1001
0000
0000
0000
,  // measure 45
0001
0000
0001
0000
,  // measure 46
0001
0000
1000
1000
,  // measure 47
1000
0000
1000
0000
,  // measure 48
1000
0000
0010
0010
,  // measure 49
0100
0000
0100
0000
,  // measure 50
0001
0000
0001
0001
,  // measure 51
0010
0000
0010
0000
,  // measure 52
0010
0000
0100
0100
,  // measure 53
1000
0000
0001
0000
,  // measure 54
0100
0001
1000
0000
,  // measure 55
0001
0000
1000
0000
,  // measure 56
0100
1000
0001
0000
,  // measure 57
0100
0000
0010
0000
,  // measure 58
1000
0000
0100
0010
,  // measure 59
0001
0000
1000
0000
,  // measure 60
0200
0000
0001
0001
,  // measure 61
0300
0000
0000
0000
;
