#TITLE:Funky Compressor;
#SUBTITLE:;
#ARTIST:Hecate;
#TITLETRANSLIT:;
#SUBTITLETRANSLIT:;
#ARTISTTRANSLIT:;
#CREDIT:;
#BANNER:;
#BACKGROUND:;
#LYRICSPATH:;
#CDTITLE:;
#MUSIC:funky.ogg;
#OFFSET:0.000;
#SAMPLESTART:21.333;
#SAMPLELENGTH:12.000;
#SELECTABLE:YES;
#BPMS:0.000=90.000;
#STOPS:158.500=0.222
;
#BGCHANGES:;
#GENRE:Shuffle Hop;

//---------------dance-single - Renard----------------
#NOTES:
     dance-single:
     Renard:
     Challenge:
     9:
     0.686,0.631,0.419,0.000,0.820:
0000
0000
0000
0000
,
0000
0000
0000
0000
0000
0100
1001
0000
,
0001
0000
0001
0100
0000
0000
0010
0000
0010
1000
0000
0000
0100
0000
0100
0010
0000
0000
0001
0000
0000
0010
0000
0100
,
1000
0000
0000
0001
0000
0100
0010
0000
0000
1000
0000
0010
1000
0000
0001
1000
0000
0000
1001
0000
0000
0000
0000
0000
,
0001
0000
0001
0100
0000
0000
0010
0000
0010
1000
0000
0100
0010
0000
0000
0001
0000
0010
0100
0000
0000
1000
0000
0000
,
0001
0000
0010
0100
0000
1000
0100
0000
0000
0010
0000
0000
0001
0010
0100
1000
0000
0000
0001
0010
0100
1000
0000
0000
,
1000
0000
0001
0100
0000
0010
1000
0000
0100
0010
0000
0001
0010
0000
0100
1000
0000
0001
0100
0000
0010
1000
0000
0000
,
0010
0000
1000
0001
0000
0100
0010
0000
1000
0001
0000
0000
0100
0000
0010
1000
0000
0000
0010
1000
0001
0100
0000
0000
,
0010
0000
0000
1000
0000
0000
1100
0000
0000
0010
0000
0001
0000
0000
0000
0001
0000
0010
0100
0000
0000
1000
0000
0000
,
1001
0000
0000
1010
0000
0000
1001
0000
0000
1000
0000
0100
0000
0000
0000
1000
0000
0010
1000
0000
0000
0001
0000
0000
,
0101
0001
0011
0010
0110
0100
1100
1000
,
1010
0010
0110
0100
0100
0101
1100
0110
,
0100
0000
0000
0001
0000
0000
0100
0000
0000
0010
0000
1000
0000
0000
0100
1000
0000
0000
0100
0000
0000
1000
0000
0001
,
0010
0000
0000
0100
0000
1000
0001
0000
0000
0010
0000
0100
1000
0000
0000
0001
0000
0100
0010
0000
0000
1000
0000
0010
,
0100
0000
0000
0001
0000
0100
0010
0000
0000
1000
0000
0100
0010
0000
0000
0001
0000
0000
0010
0000
0000
0100
0000
0000
,
1100
1000
1001
0000
0101
0110
1001
0000
,
1000
0000
0100
0010
0000
0001
0010
0000
0100
1000
0000
0001
0010
0000
0100
1000
0000
0001
0010
0000
0000
0011
0000
0000
,
1000
0000
0100
0010
0000
0001
1000
0000
0000
0100
0000
0000
0010
0100
1000
0001
0000
0000
0010
0100
1000
0001
0000
0000
,
0010
0000
0100
1000
0001
0000
0010
0000
0000
0100
0000
0000
1000
0000
0001
0100
0000
0010
1000
0000
0000
0010
0000
0000
,
0100
0000
0001
0100
0000
0010
1000
0000
0000
0010
0000
0000
0100
0000
0000
0001
0000
0100
0000
0000
0010
1000
0000
0000
,
0010
0000
1000
0100
0000
0010
0001
0000
0010
0100
0000
1000
0001
0000
0010
0100
0000
1000
0001
0100
0001
0100
0000
0000
,
0010
0000
0010
1000
0000
0100
0010
0000
0001
0010
0000
0100
1000
0100
1000
0100
0000
0000
1000
0010
1000
0010
0000
0000
,
1000
0000
1000
0010
0000
0010
0100
0001
0100
0001
0000
0000
0010
0000
0010
0100
0000
0100
1000
0100
1000
0100
0000
0000
,
1000
0001
1000
0001
0000
0000
1000
0001
1000
0001
0000
0000
0100
0001
0100
0001
0010
0100
1000
0000
0000
1001
0000
0000
,
0001
0000
0100
0010
0000
1000
0100
0000
0010
0100
0000
1000
0000
0000
0001
0010
0000
0100
1000
0000
0000
1001
0000
0000
,
0001
0000
0100
0010
0000
1000
0100
0000
0010
0001
0000
0010
0100
0000
1000
0001
0000
1000
0001
0000
0000
1001
0000
0000
,
0001
0000
0100
0010
0000
0000
1000
0000
0100
0010
0000
0000
0001
0000
0010
0100
0000
0000
0100
0000
1000
0010
0000
0000
,
1000
0000
0010
0100
0000
0000
0001
0000
0100
0010
0000
0000
1000
0000
0000
1001
0000
0000
1100
0000
0000
0011
0000
0000
,
1001
0000
0000
0001
0000
0100
0010
0000
0000
0010
0000
1000
0100
0000
0000
1100
0000
0000
0011
0000
0000
0010
0000
0100
,
1000
0000
0000
0001
0000
0100
0010
0000
1000
0010
0000
0100
0000
0000
0001
0100
0000
0000
0110
0000
0000
0010
0000
1000
,
0100
0000
0000
0010
0000
0001
0010
0000
0000
0100
0000
1000
0000
0000
0001
0100
0000
0000
1010
0000
0000
1000
0000
0010
,
0100
0000
0001
0010
0000
0000
0110
0000
0000
0100
0000
1000
0010
0000
0100
0001
0000
0000
0101
0000
0000
1010
0000
0000
,
1001
0000
0000
1100
0000
0000
0011
0000
0000
0010
0000
0100
0000
0000
1000
0100
0000
0010
0001
0000
0000
0010
0000
0000
,
0001
0000
0010
0100
0000
1000
0001
0000
0000
0010
0000
0000
0100
1000
0010
0100
0000
0000
0001
0100
0010
1000
0000
0000
,
0100
0000
0010
0001
0000
0010
0100
0000
0000
1100
0000
0000
1000
0000
0010
0100
0000
0001
0100
0000
0000
0110
0000
0000
,
0010
0000
1000
1001
0000
0000
0001
0000
0100
0101
0000
0000
0100
0000
0010
0110
0000
0000
1001
0000
0000
0110
0000
0000
,
1000
0000
0010
0100
0000
0001
0010
0000
0100
1000
0000
0001
0010
0000
0100
1000
0000
0100
0010
0001
0010
0100
1000
0001
,
0010
0000
0100
1000
0000
0001
0100
0000
0000
0010
0000
0000
1000
0010
0100
0001
0000
0000
0001
0100
0010
1000
0000
0000
,
1000
0000
0100
0010
0001
0000
0010
0000
0100
1000
0000
0010
0100
0000
0001
0100
0000
0010
1000
0000
0100
1000
0000
0000
,
0001
0000
0010
0100
0000
1000
0001
0000
0010
0100
0000
1000
0100
0010
0001
1000
0001
0010
0100
1000
0000
0000
0000
0000
;

//---------------dance-single - Renard----------------
#NOTES:
     dance-single:
     Renard:
     Hard:
     8:
     0.525,0.612,0.438,0.000,0.396:
0000
0000
0000
0000
,
0000
0000
0000
1001
,
0001
0000
0001
0100
0000
0000
0010
0000
0000
0000
0000
0000
1000
0000
1000
0100
0000
0000
0010
0000
0000
0000
0000
0000
,
0001
0000
0001
0100
0000
0000
0001
0000
0000
0000
0000
0000
1000
0000
0100
1000
0000
0000
1001
0000
0000
0000
0000
0000
,
0001
0100
0010
1000
0100
0010
0001
0010
,
0100
0000
0000
1000
0000
0000
0001
0000
0000
0100
0000
0000
0010
1000
0010
1000
0000
0000
0001
0100
0001
0100
0000
0000
,
0001
1000
0100
0010
0001
0010
0100
1000
,
0001
0000
0000
1000
0000
0000
0001
0000
0000
0100
0000
0000
0010
0100
0010
0100
0000
0000
0001
1000
0001
1000
0000
0000
,
1000
0000
0000
0100
0000
0000
0010
0000
0000
0001
0000
0010
0000
0000
0000
0100
0000
1000
0100
0000
0000
0000
0000
0000
,
1000
0000
0000
0010
0000
0000
0100
0000
0000
0001
0000
0100
0000
0000
0000
0010
0000
1000
0010
0000
0000
1000
0000
0000
,
0100
0010
0001
0010
0100
0110
0100
1100
,
1000
1001
0001
0101
0001
1001
1001
0000
,
1000
0000
0000
0001
0000
0000
0100
0000
0000
0010
0000
1000
0000
0000
1000
0010
0000
0000
0100
0000
0000
0000
0000
0000
,
0001
0000
0000
0010
0000
0000
0100
0000
0000
1000
0000
0100
0000
0000
0000
1000
0000
0000
1010
0000
0000
0000
0000
0000
,
0110
0000
0000
0000
0000
0000
0101
0000
0000
0000
0000
1001
0000
0000
0000
1100
0000
0000
1001
0000
0000
0000
0000
0000
,
0001
0000
0000
0100
0000
0000
0110
0000
0000
0000
0000
0000
1010
0000
0000
1000
0000
0001
0000
0000
0100
0010
0000
0000
,
1000
0010
0100
0001
0100
0010
1000
0100
,
0010
0000
0000
0001
0000
0000
0010
0000
0000
0100
0000
0000
1000
0100
0010
0001
0000
0000
1000
0100
0010
0001
0000
0000
,
1000
0100
0010
0001
0001
0010
0100
1000
,
0001
0000
0000
0100
0000
0000
0010
0000
0000
1000
0000
0000
0010
0000
1000
0001
0000
0000
1001
0000
0000
0001
0000
0000
,
0100
0000
0100
0010
0000
0010
1000
0000
1000
0100
0000
0100
0010
0000
0010
0001
0000
0001
0010
0000
0010
0100
0000
0100
,
1000
0000
1000
0001
0000
0001
0100
0000
0100
0010
0000
0010
1000
0000
1000
0100
0000
0100
0010
0000
0010
0001
0000
0001
,
1000
0000
1000
0001
0000
0001
0100
0000
0100
0010
0000
0010
1000
0000
1000
0001
0000
0001
1000
0000
1000
0100
0000
0100
,
0010
0000
0010
0001
0000
0001
0010
0000
0010
0100
0000
0100
1000
0000
1000
0010
0000
0010
0100
0000
0000
0101
0000
0000
,
1001
0000
0000
1100
0000
0000
0011
0000
0000
1000
0000
0100
0000
0000
0000
1000
0000
0000
0010
0000
0000
0100
0000
0000
,
0101
0000
0000
0011
0000
0000
1100
0000
0000
1001
0000
0000
1001
0000
0000
1000
0000
0010
1000
0000
0000
0001
0000
0000
,
0101
0011
1100
1001
1001
0100
1001
0100
,
1001
0010
1001
0010
0001
0110
0110
0000
,
1000
0000
0000
0010
0000
0000
0100
0000
0000
0001
0000
0100
0000
0000
0100
0010
0000
0000
1000
0000
0000
0000
0000
0000
,
0100
0000
0000
1000
0000
0000
0001
0000
0000
0010
0000
0100
0000
0000
0000
1000
0000
0000
1010
0000
0000
0000
0000
0000
,
1010
0000
0000
0000
0000
0000
1001
0000
0000
0000
0000
0101
0000
0000
0000
0110
0000
0000
1010
0000
0000
0000
0000
0000
,
1000
0000
0000
0100
0000
0000
0010
0000
0000
0000
0000
0000
0001
0000
0000
0010
0000
0100
1000
0000
0000
0001
0000
0000
,
0100
0000
0000
0010
0000
0000
1000
0000
0000
0010
0000
0100
0000
0000
0000
0001
0000
0100
0001
0000
0000
0000
0000
0000
,
0100
0000
0000
0010
0000
0000
1000
0000
0000
0100
0000
1000
0000
0000
0000
0010
0000
1000
0010
0000
0000
1000
0000
0000
,
0001
0000
0000
0100
0000
0000
0001
0000
1000
0100
0000
0000
0010
0000
0001
0010
0000
0000
0100
0000
1000
0001
0000
0000
,
1000
0000
0000
0000
0000
0000
0001
0000
0000
0000
0000
0000
0001
0100
0010
1000
0000
0000
1000
0010
0100
0001
0000
0000
,
0100
0000
0000
0001
0000
0000
1000
0000
0000
0100
0000
0010
0000
0000
0000
0001
0000
0000
0010
0000
0000
0000
0000
0000
,
0100
0000
0000
1000
0000
0000
0010
0000
0000
0100
0000
0001
0000
0000
0000
0001
0000
0100
0010
0000
0000
0000
0000
0000
,
1010
0000
0000
0000
0000
0000
1001
0000
0000
0000
0000
0101
0000
0000
0000
0011
0000
0000
0110
0000
0000
0000
0000
0000
,
0100
0000
1000
0010
0000
0000
0100
0000
0000
0001
0000
0000
1000
0001
1000
0001
1000
0001
1000
0001
0000
0000
0000
0000
;

//---------------dance-single - Renard----------------
#NOTES:
     dance-single:
     Renard:
     Medium:
     5:
     0.409,0.389,0.214,0.000,0.061:
0000
0000
0000
0000
,
0000
0000
0000
1001
,
0001
0000
0100
0000
0010
1000
0100
0000
,
1000
0000
0001
0000
0100
0001
1001
0000
,
0001
0100
1000
0100
0001
0100
1000
0100
,
0001
0100
1000
0100
0001
0100
0101
0000
,
0001
0010
1000
0010
0001
0010
1000
0010
,
0001
0010
1000
0010
0011
0000
0011
0000
,
0001
0100
0010
1000
0100
0010
0001
0100
,
0010
1000
0100
1000
0001
0010
0100
1000
,
0010
0100
0001
1000
0100
0010
0100
0010
,
0100
1000
0100
0001
0100
1000
1000
0000
,
0001
0100
0010
1000
0010
0100
0001
1000
,
1100
0000
1001
0000
0101
0001
0011
0000
,
0110
0000
1100
0000
1000
0010
0100
0000
,
0001
1000
1100
0000
1000
0001
0101
0000
,
0001
1000
0001
1000
0010
0100
0010
0100
,
0001
1000
0100
1000
0010
1000
0001
1000
,
0010
0100
0001
1000
0100
1000
0010
1000
,
0001
0100
0001
0010
0100
1000
0010
0000
,
0100
0000
0000
0001
0000
0000
1000
0000
1000
0100
0000
0000
1000
0000
0000
0001
0000
0000
0100
0000
0100
0001
0000
0000
,
0010
0000
0000
0100
0000
0000
1000
0000
1000
0010
0000
0000
0100
0000
0000
0001
0000
0000
0010
0000
0010
0100
0000
0000
,
1000
0000
0000
0010
0000
0000
0100
0000
0100
0001
0000
0000
1000
0000
0000
0100
0000
0000
0010
0000
0010
0001
0000
0000
,
0010
0000
0000
0100
0000
0000
1000
0000
1000
0010
0000
0000
0100
0000
0000
0001
0000
0000
1000
0000
0000
0001
0000
0000
,
0100
1000
0100
0001
0010
1000
0010
0001
,
0100
1000
0100
0001
0010
1000
0010
0001
,
0100
0010
1000
0100
0001
0100
1000
0010
,
0001
0010
1000
0100
0001
0100
1000
0000
,
0001
0100
0001
1000
0001
0100
1010
0000
,
1000
0100
0010
0001
0010
0100
1001
0000
,
0001
0000
0000
0100
0000
0000
0010
0000
0000
1000
0000
0100
0000
0000
0000
1000
0000
0000
1001
0000
0000
0000
0000
0000
,
0001
0100
0110
0000
1010
0000
1001
0000
,
0001
0100
0001
1000
0100
0010
0001
0010
,
0100
0000
0000
1000
0000
0000
0010
0000
0000
0100
0000
0000
0001
0000
0000
0010
0000
0000
0001
0000
0010
0001
0000
0000
,
0010
0000
0000
0100
0000
0000
1000
0000
0100
1000
0000
0000
0010
0000
0000
1000
0000
0000
0001
0000
0000
0100
0000
0000
,
0001
0000
0000
1000
0000
0000
0100
0000
0000
0010
0000
0000
0001
0000
1000
0001
0000
0000
1001
0000
0000
0000
0000
0000
,
0001
0001
0100
0100
0010
1000
0100
0000
,
0010
0001
0010
0100
1000
0001
0101
0000
,
0001
1000
0100
1000
0001
0010
1001
0000
,
0001
0000
0000
0100
0000
0000
1001
0000
0000
0000
0000
0000
1000
0000
0000
0001
1000
0000
0000
0001
0000
0000
0000
0000
;

//---------------dance-single - Renard----------------
#NOTES:
     dance-single:
     Renard:
     Easy:
     2:
     0.238,0.240,0.065,0.000,0.005: // measure 1
0000
0000
0000
0000
,  // measure 2
0000
0000
0000
1001
,  // measure 3
0001
0101
1000
1100
,  // measure 4
0001
0011
1000
1010
,  // measure 5
1000
0000
0001
1000
0001
0000
0000
0000
,  // measure 6
0100
0000
0010
0100
0010
0000
0000
0000
,  // measure 7
1000
0000
0100
0010
0001
0000
0000
0000
,  // measure 8
0001
0000
0010
0100
1000
0000
0000
0000
,  // measure 9
0001
0001
1000
0000
,  // measure 10
1000
0000
1000
0000
0001
1000
0001
0000
,  // measure 11
0100
0000
0100
0000
0010
0100
0000
0100
,  // measure 12
0000
0010
0000
1000
0000
0001
0001
0000
,  // measure 13
1000
0001
0100
0100
,  // measure 14
0001
1000
0100
0100
,  // measure 15
1000
0010
0100
0100
,  // measure 16
0001
0010
0001
0000
0011
0000
0000
0000
,  // measure 17
0001
0000
1000
0000
0100
0010
0001
0000
,  // measure 18
0010
0000
0100
0000
1000
0001
1000
0000
,  // measure 19
0010
0000
0100
0000
0010
1000
0010
0000
,  // measure 20
0100
0000
0001
0000
1000
0001
1000
0000
,  // measure 21
0001
0001
0100
0000
0010
0000
0100
0000
,  // measure 22
0010
0010
1000
0000
0100
0000
1000
0000
,  // measure 23
0001
0001
0010
0000
0001
0000
1000
0000
,  // measure 24
0100
0100
1000
0000
0010
0000
0100
0000
,  // measure 25
0001
0000
0100
0000
0010
1000
0010
0000
,  // measure 26
0100
0000
0001
0000
1000
0100
1000
0000
,  // measure 27
0001
0010
0100
0100
,  // measure 28
1000
0000
0010
0000
0100
0001
0001
0000
,  // measure 29
0100
0000
0001
0000
1000
0100
1000
0000
,  // measure 30
0001
0000
1000
0000
0001
0100
0001
0000
,  // measure 31
0010
0000
0001
0000
1000
0010
1000
0000
,  // measure 32
0001
0010
0001
0000
1001
0000
0000
0000
,  // measure 33
0001
0001
0100
0100
,  // measure 34
0010
0000
0010
0000
1000
0100
0010
0000
,  // measure 35
0001
0000
0001
0000
0010
0100
1000
0000
,  // measure 36
0001
0000
1000
0000
0001
1000
0001
0000
,  // measure 37
0100
0100
0010
0010
,  // measure 38
1000
0000
1000
0000
0001
1000
0001
0000
,  // measure 39
1000
1000
0100
0100
,  // measure 40
0010
0000
0000
0001
0000
0000
1000
0000
0001
0000
0000
0000
;
