#TITLE:Free Your Mind (Styles Remix);
#SUBTITLE:;
#ARTIST:CLSM;
#TITLETRANSLIT:;
#SUBTITLETRANSLIT:;
#ARTISTTRANSLIT:;
#CREDIT:;
#BANNER:mind.png;
#BACKGROUND:mind-bg.png;
#LYRICSPATH:;
#CDTITLE:;
#MUSIC:mind.ogg;
#OFFSET:0.000;
#SAMPLESTART:63.483;
#SAMPLELENGTH:12.000;
#SELECTABLE:YES;
#BPMS:0.000=175.740;
#STOPS:;
#BGCHANGES:;

//---------------dance-single - Renard----------------
#NOTES:
     dance-single:
     Renard:
     Challenge:
     9:
     0.651,0.651,0.255,0.033,0.181:
0000
0000
0000
0000
,
0000
0000
0000
0000
,
0000
0000
0000
0000
,
0000
0000
0000
0000
,
1001
0000
0110
0000
0000
0010
1000
0000
,
0001
0000
0100
0001
0000
0000
1100
0000
,
1000
0000
1100
0000
0010
0001
0000
0100
,
0000
0010
0000
1000
0000
0001
0000
1001
,
0000
0101
0000
0110
0000
1010
0000
1100
,
0000
1000
0100
0000
0010
0001
0010
0100
,
0000
0110
0000
1100
0000
0011
0000
0011
,
0000
0010
0100
0000
1000
0001
0100
0010
,
0000
0110
0000
1010
0000
1001
0000
1001
,
0000
1000
0100
0000
0010
0001
0010
0100
,
0000
0110
0000
1100
0000
1001
0000
1001
,
0000
0001
0100
0000
0010
0100
0000
0100
,
0010
1000
0001
0000
1000
0100
0000
0010
,
0000
0001
0010
0000
0100
0001
0000
0100
,
0000
1000
0010
0000
0001
0010
0000
1000
,
0000
0000
0000
0000
,
0010
0000
1000
0001
0000
0001
0100
0000
,
0001
1000
0100
0000
0010
0001
0010
0000
,
0100
0000
1000
0001
0000
0001
0100
0000
,
0000
0010
1000
0000
0100
0010
0001
0010
,
0100
0000
0100
1000
0000
0000
1100
0000
,
0000
1000
0001
0000
0010
0001
1000
0000
,
0010
0000
0010
1000
0000
1000
0001
0000
,
0000
0100
0001
0000
1000
0100
1000
0000
,
0001
0000
0001
0000
0010
0100
1000
0000
,
0100
0000
0100
0000
1000
0010
0100
0000
,
0001
0000
0100
0000
0010
1000
0100
0000
,
1000
0000
0100
0010
0000
0010
0001
0000
,
0010
0000
0011
0000
0010
0100
1000
0000
,
0100
0000
1100
0000
1000
0010
0100
0001
,
0100
0000
0001
0100
0000
0000
0110
0000
,
0010
0000
1000
0100
0000
0100
1000
0000
,
1000
0100
0001
0100
0000
0100
0010
0001
,
0010
1000
0010
0100
0000
0100
0001
0100
,
0010
1000
0010
0100
0000
0100
0010
0001
,
0010
1000
0010
0100
0000
0100
0010
0001
,
0100
1000
0100
0010
0000
0010
0001
0010
,
1000
0010
0100
0010
0000
0010
0100
1000
,
0100
0001
0100
0001
0000
0001
0100
0010
,
1000
0010
0001
0010
0000
0010
1000
0010
,
1010
0000
0010
1000
0000
0000
0000
0000
,
0101
0000
0001
0100
0000
0000
0000
0000
,
0011
0010
0100
1000
0010
0100
0001
2000
,
0002
0000
0000
3003
,
1000
0001
0100
0000
0010
1000
0000
0100
,
0000
0000
0010
0000
0000
0000
0001
0010
0001
0000
0000
0010
0000
0000
0100
0000
,
1000
0000
0010
0100
0000
0001
0000
0100
,
0000
0000
0010
0000
0000
0000
1000
0100
0010
0000
0000
0001
0000
0000
0010
0000
,
0100
0000
1000
0000
0000
0010
0000
0110
,
0000
0000
0110
0000
0000
0000
0010
1000
0010
0000
0000
1000
0000
0000
0100
0000
,
0010
0000
0001
0010
0000
0100
0000
1000
,
0000
0000
0001
0000
0000
0000
0010
0001
0010
0000
0000
0001
0000
0000
0010
0000
,
0001
0010
0100
1000
0010
0100
0001
0100
,
0010
0000
1000
0000
0100
0000
0010
0100
0010
0000
0000
0100
0000
0000
1000
0000
,
0010
0100
0001
0100
0010
1000
0100
0010
,
0001
0000
1000
0000
0001
0000
0100
0001
0100
0000
0000
0001
0000
0000
1000
0000
,
0100
0010
0001
0000
1000
0010
0000
0100
,
0000
0000
0001
0000
0000
0000
0100
0001
0100
0000
0000
0010
0000
0000
1000
0000
,
0100
0010
0001
0010
0100
1000
0010
0100
,
0000
0000
0110
0000
0000
0000
0010
0100
0010
0000
0000
0100
0000
0000
0010
0000
,
0100
0001
0010
0100
1000
0010
0100
0001
,
1000
0000
0100
0000
0001
0000
0100
0001
0100
0000
0000
0010
0000
0000
0001
0000
,
0010
0100
1000
0010
0100
0001
0100
1000
,
0100
0000
0010
0000
1000
0000
0010
1000
0010
0000
0000
1000
0000
0000
0100
0000
,
0010
0001
0010
0100
0001
0100
1000
0010
,
0100
0000
0001
0000
0010
0000
0001
0010
0001
0000
0000
0010
0000
0000
0100
0000
,
1000
0010
0100
0001
0100
1000
0100
0010
,
0001
0000
0010
0000
1000
0000
0100
1000
0100
0000
0000
1000
0000
0000
0100
0000
,
0010
0001
0010
0100
0001
0100
1000
0010
,
0100
0000
0001
0000
1000
0000
0100
1000
0100
0000
0000
1000
0000
0000
0001
0000
,
0010
0100
1000
0010
0001
0010
0100
1000
,
0100
0000
0001
0000
0010
0000
0100
0010
0100
0000
0000
0010
0000
0000
0100
0000
,
0001
0100
1000
0010
0100
0001
0100
1000
,
0100
0000
0010
0000
1000
0000
0010
1000
0010
0000
0000
1000
0000
0000
0100
0000
,
0010
0001
0010
0100
1000
0001
0100
0010
,
2000
0001
0000
0001
0000
0001
0000
3001
,
1000
0000
0001
0100
0001
0000
0100
0000
0010
0000
1000
0000
0100
0000
0010
0000
,
0001
0000
1000
0100
1000
0000
0001
0000
0010
0000
0100
0000
1000
0000
0000
0000
,
0001
0000
0100
0010
0100
0000
0010
0000
1000
0000
0100
0000
0010
0000
0001
0000
,
1000
0000
0100
1000
0100
0000
1000
0000
0001
0000
0010
0000
0100
0000
0000
0000
,
1000
0000
0010
0100
0010
0000
0100
0000
0001
0000
0010
0000
0100
0000
1000
0000
,
0001
0000
0100
0001
0100
0000
0001
0000
1000
0000
0010
0000
1000
0000
0000
0000
,
0001
0100
0010
1000
0100
0010
0001
0010
0100
1000
0001
0100
0010
1000
0100
0010
,
0002
0000
0000
0000
0000
0000
0000
0003
;

//---------------dance-single - Renard----------------
#NOTES:
     dance-single:
     Renard:
     Hard:
     9:
     0.606,0.645,0.280,0.000,0.000:
0000
0000
0000
0000
,
0000
0000
0000
0000
,
0000
0000
0000
0000
,
0000
0000
0000
0000
,
1000
0000
1001
0000
0000
0001
0100
0000
,
0010
0000
1000
0001
0000
0100
0001
0000
,
1000
0000
0100
0000
0010
0001
0000
1001
,
0000
0110
0000
1001
0000
0110
0000
0010
,
1000
0001
1000
0001
1000
0100
1000
0100
,
0010
0100
0010
0100
0010
0001
0010
0001
,
0100
0001
0100
0001
0100
0010
0100
0010
,
1000
0010
1000
0010
1000
0001
0100
0010
,
1000
0100
1000
0100
0010
0100
0010
0100
,
0010
0001
0010
0001
1000
0001
1000
0001
,
0100
0001
0100
0001
0100
0010
0100
0010
,
1000
0100
0010
0001
0010
0100
1000
0001
,
0100
0000
0000
0000
0010
1000
0000
1001
,
0000
1001
0000
0110
0000
0110
0000
0000
,
0000
0000
0000
0000
0010
1000
0000
0001
,
0000
0000
0000
0000
,
0100
0000
0001
0000
0000
1000
0100
0000
,
0010
0000
0001
1000
0000
1000
0010
0000
,
0100
0000
0001
0000
0000
1000
0100
0000
,
0010
0000
0001
1000
0000
0001
0100
0000
,
0010
0000
1010
0000
0000
1000
0100
0000
,
0010
0000
0001
1000
0000
0001
0100
0000
,
0010
0000
0110
0000
0000
0010
1000
0000
,
0001
0100
0001
1000
,
0100
0000
0100
0010
0001
0000
0001
0010
,
0100
0000
0100
0010
0001
0000
0001
0010
,
0100
0000
0100
0010
0001
0000
0100
0000
,
0010
1000
0010
0100
,
0010
0000
0010
1000
0010
0000
0010
0100
,
0010
0000
0010
1000
0010
0000
1000
0010
,
0100
0000
0100
0010
1000
0000
0001
0000
,
1000
0100
0010
0001
,
1000
0000
1000
0001
0000
1000
0001
0100
,
0010
0000
0010
1000
0000
0001
1000
0100
,
0010
0000
0010
0001
0000
1000
0001
0100
,
0010
0000
1000
0010
0000
1000
0001
0100
,
0010
0000
1000
0100
0000
0010
0001
0010
,
0100
0000
0100
1000
0000
0010
0100
0001
,
0100
0000
0010
1000
0000
0001
0100
0010
,
1000
0000
0100
0010
0000
0001
1000
0001
,
0100
0000
0100
0010
0000
0000
0000
0000
,
0010
0000
0010
0100
0000
0000
0000
0000
,
0001
1000
0001
1000
0010
0100
0000
0101
,
0000
1010
0000
1001
0000
1100
0000
0011
,
0000
0000
0001
0000
0010
0100
0000
1000
,
0000
0010
0100
0001
0100
0000
0010
1000
,
0100
0000
0110
0000
0010
0001
0010
0100
,
0000
0100
1000
0010
0100
0100
0001
0100
,
0010
0000
1000
0010
0000
0110
0000
0101
,
0000
0101
0000
0001
0100
0010
1000
0100
,
0010
0000
0010
0010
0001
0000
0001
0010
,
0100
1000
0010
0100
0001
0100
0100
0010
,
1000
0000
1000
0010
0100
0000
0100
0001
,
0010
0100
1000
0010
0100
0001
0100
0100
,
0010
0000
0010
1000
0010
0000
0010
0100
,
0001
0000
0001
0000
0100
0010
0100
0000
,
0010
1000
0010
0000
0100
0001
1000
0100
,
0010
0001
0010
0100
1000
0001
0100
0010
,
1000
0001
0100
0010
,
1010
0010
0110
0100
0101
0001
0011
0010
,
0110
0000
0100
1000
0010
0100
0001
0000
,
0001
0100
0010
1000
0100
0010
0001
0010
,
0100
0000
0100
1000
0000
1001
0000
0110
,
0000
0010
1000
0001
0100
0010
1000
0100
,
0010
0000
0010
0001
0010
0000
0010
0100
,
1000
0001
0100
0010
1000
0010
0100
0001
,
0100
0000
0100
0010
0000
0010
1000
0100
,
0000
0100
0010
0001
0010
0100
1000
0001
,
0100
0000
0100
0001
0000
1000
0100
0010
,
0001
0000
0001
0010
0000
0100
1000
0001
,
0100
0000
0100
0010
0000
1000
0100
0010
,
0001
0000
0001
1000
0000
1000
0001
0100
,
0010
0100
0010
0100
0010
1000
0010
1000
,
0001
1000
0001
1000
0100
1000
0100
0010
,
0001
0010
0100
1000
0000
0101
0000
1010
,
0000
0000
0000
0000
,
1000
0001
0100
0000
0001
1000
0100
0000
,
0010
0001
0010
0100
1000
0001
0100
0000
,
0010
1000
0001
0000
0100
0010
1000
0000
,
0100
0010
0001
0010
0100
1000
0001
0000
,
0100
0010
1000
0000
0100
0010
0001
0000
,
0010
0100
1000
0001
0100
0010
1000
0000
,
1001
0001
0101
0100
0110
0010
1010
1000
,
1001
0000
0000
0000
;

//---------------dance-single - Renard----------------
#NOTES:
     dance-single:
     Renard:
     Medium:
     5:
     0.386,0.394,0.049,0.008,0.000:
0000
0000
0000
0000
,
0000
0000
0000
0000
,
0000
0000
0000
0000
,
0000
0000
0000
0000
,
1000
0000
0001
0000
0000
0100
0001
0000
,
1000
0000
0100
0000
0000
0010
0001
0000
,
1000
0000
0001
0000
0100
0010
0000
1000
,
0000
0001
0000
0100
0000
0010
0000
1000
,
0000
0100
0000
0010
0000
0001
0000
0010
,
0100
0010
0000
0100
0000
1000
0000
0010
,
0000
0100
0000
0001
0000
1000
0000
0100
,
1000
0100
0000
0010
0000
0001
0000
1000
,
0000
0001
0000
0100
0000
0010
0000
1000
,
0001
1000
0000
0001
0000
0100
0000
0010
,
0000
1000
0000
0100
0000
0010
0000
0001
,
0000
1000
0001
0000
1000
0001
0000
0100
,
0020
0000
0000
0000
,
0000
0000
0000
0000
,
0000
0000
0000
0000
,
0030
0000
0000
0000
,
1000
0000
1000
0100
0000
0100
0010
0000
,
0000
0001
0010
0100
,
0001
0000
0001
0010
0000
0010
0100
0000
,
0000
1000
0010
0100
,
1000
0000
1000
0010
0000
0010
0100
0000
,
0000
0001
1000
0100
,
0010
0000
0010
0001
0000
0001
1000
0000
,
0001
0100
0010
1000
,
0001
0001
0100
0100
,
0001
0000
0001
0000
0100
0000
0100
0010
,
1000
1000
0100
0100
,
1000
0000
1000
0000
0100
0000
0100
0010
,
0001
0001
1000
1000
,
0001
0000
0100
0000
0010
0000
1000
0010
,
1000
0100
0010
0001
,
0010
0100
1000
0001
,
0100
0000
0010
0100
0000
0000
0010
0000
,
1000
0000
0100
1000
0000
0000
0001
0000
,
0010
0000
0001
1000
0000
0000
0001
0000
,
0100
0000
0010
1000
0000
0000
0001
0000
,
0100
0000
0001
1000
0000
0000
0100
0000
,
0010
0000
0001
1000
0000
0000
0001
0000
,
0100
0000
0010
1000
0000
0000
0001
0000
,
0100
0001
1000
0100
,
0010
0000
0010
0001
0000
0000
0000
0000
,
1000
0000
1000
0010
0000
0000
0000
0000
,
0100
0000
0100
0000
0001
1000
0001
1000
,
0001
0000
0000
0000
,
1000
0000
1000
0000
0000
0100
0000
0010
,
0000
0001
0000
0010
0100
0000
1000
0000
,
0010
0000
0100
0000
0000
0001
0000
1000
,
0000
0100
0000
0010
0001
0000
1000
0000
,
0001
0000
0100
0000
0000
0001
0000
1000
,
0000
0100
0000
0010
0001
0000
1000
0000
,
0001
0000
0100
0000
0000
0010
0000
1000
,
0000
0001
0000
0100
0001
0000
1000
0000
,
0100
0000
0010
0000
0000
0001
0000
0010
,
0000
0100
0000
1000
0001
0000
0100
0000
,
0010
0000
1000
0000
0000
0010
0000
0100
,
0000
0001
0000
1000
0100
0000
1000
0000
,
0001
0000
0010
0000
0000
0001
0000
1000
,
0000
0010
0000
0100
0001
0000
1000
0000
,
0100
0010
0001
1000
,
0110
0000
0000
0000
,
0010
1000
0100
0010
,
0001
1000
0001
0100
,
0010
0000
0010
1000
0000
0001
0000
1001
,
0000
0000
1000
0100
,
0010
0001
0010
0100
,
1000
0001
0100
0010
,
1000
0000
1000
0010
0000
0010
0000
1001
,
0000
0000
1000
0100
,
0010
0001
0010
0100
,
1000
0001
0100
0010
,
1000
0000
1000
0001
0000
0001
0000
0110
,
0000
0000
0010
1000
,
0001
0100
0001
1000
,
0100
0010
0001
0010
,
0100
0000
0100
1000
0000
0001
0000
1001
,
0000
0000
0000
0000
,
1000
0001
1000
0001
,
0100
0000
0010
0000
0100
0010
0100
0010
,
0100
0010
1000
0001
,
1000
0000
0100
0000
1000
0001
1000
0001
,
1000
0001
0100
0010
,
1000
0000
0100
0000
0010
0001
0010
0001
,
0010
0100
1000
0010
,
1001
0000
0000
0000
;

//---------------dance-single - Renard----------------
#NOTES:
     dance-single:
     Renard:
     Easy:
     2:
     0.247,0.322,0.058,0.041,0.000: // measure 1
0000
0000
0000
0000
,  // measure 2
0000
0000
0000
0000
,  // measure 3
0000
0000
0000
0000
,  // measure 4
0000
0000
0000
0000
,  // measure 5
1000
0000
1000
0001
,  // measure 6
0100
0000
0100
0001
,  // measure 7
1000
0100
0010
0001
,  // measure 8
1000
0000
0000
0000
,  // measure 9
0001
0000
0001
0001
,  // measure 10
1000
0000
1000
1000
,  // measure 11
0010
0000
0010
0010
,  // measure 12
0100
0000
0100
0100
,  // measure 13
0001
0000
0001
0001
,  // measure 14
1000
0000
1000
1000
,  // measure 15
0100
0000
0100
0100
,  // measure 16
0010
0000
0001
0000
,  // measure 17
2000
0000
0000
0000
,  // measure 18
0000
0000
0000
0000
,  // measure 19
0000
0000
0000
0000
,  // measure 20
3000
0000
0000
0000
,  // measure 21
0001
0000
0110
0000
,  // measure 22
1001
0000
1100
0000
,  // measure 23
1000
0000
0110
0000
,  // measure 24
1001
0000
1100
0000
,  // measure 25
1000
0000
0001
0000
,  // measure 26
0100
0001
0100
0000
,  // measure 27
0001
0000
1000
0000
,  // measure 28
0010
1000
0010
1000
,  // measure 29
0020
0000
0000
0000
,  // measure 30
0130
0001
0010
0000
,  // measure 31
0200
0000
0000
0000
,  // measure 32
1300
0010
0100
0000
,  // measure 33
0002
0000
0000
0000
,  // measure 34
0013
0100
1000
0000
,  // measure 35
0002
0000
0000
0000
,  // measure 36
0103
0010
1000
0000
,  // measure 37
0010
0000
0000
0100
,  // measure 38
0001
0000
0000
0000
,  // measure 39
1000
0000
0000
0100
,  // measure 40
0010
0000
0001
0000
,  // measure 41
1000
0000
0000
0010
,  // measure 42
0100
0000
0000
0000
,  // measure 43
0001
0000
0000
1000
,  // measure 44
0100
0000
1000
0000
,  // measure 45
0001
0001
0000
0000
,  // measure 46
1000
1000
0000
0000
,  // measure 47
0010
0000
0010
0000
,  // measure 48
0100
0000
0001
0000
,  // measure 49
1000
0100
1000
0100
,  // measure 50
1000
0000
1000
0000
,  // measure 51
0001
0010
0001
0010
,  // measure 52
0001
0000
0001
0000
,  // measure 53
0100
0001
0100
0001
,  // measure 54
0100
0000
0100
0000
,  // measure 55
0010
1000
0010
1000
,  // measure 56
0010
0000
1000
0000
,  // measure 57
0100
0000
0010
0000
,  // measure 58
0001
0000
1000
0000
,  // measure 59
0001
0100
0001
0000
,  // measure 60
1000
0000
0010
0000
,  // measure 61
1000
0000
0001
0000
,  // measure 62
0100
0000
0001
1000
,  // measure 63
0001
0000
1000
0000
,  // measure 64
0010
0000
0000
0000
,  // measure 65
1000
0000
1000
0000
,  // measure 66
1000
0000
0001
0100
,  // measure 67
0001
0000
0001
0000
,  // measure 68
0010
0000
0100
1000
,  // measure 69
0100
0000
1000
0000
,  // measure 70
1000
0000
0001
0010
,  // measure 71
0001
0000
1000
0000
,  // measure 72
0001
0000
0100
0001
,  // measure 73
0100
0000
0001
0000
,  // measure 74
1000
0000
0100
1000
,  // measure 75
0100
0000
1000
0000
,  // measure 76
0001
0000
0010
0000
,  // measure 77
0100
0000
1000
0000
,  // measure 78
0010
0000
0100
0000
,  // measure 79
0001
0000
0001
0000
,  // measure 80
1000
0000
0000
0000
,  // measure 81
0001
0001
0001
0001
,  // measure 82
0001
0001
0001
0001
,  // measure 83
1000
1000
1000
1000
,  // measure 84
1000
1000
1000
1000
,  // measure 85
0010
0010
0010
0010
,  // measure 86
0010
0010
0010
0010
,  // measure 87
0100
0100
0100
0100
,  // measure 88
1001
0000
0000
0000
;
