#TITLE:Frankenstein;
#SUBTITLE:;
#ARTIST:The Edgar Winter Group;
#TITLETRANSLIT:;
#SUBTITLETRANSLIT:;
#ARTISTTRANSLIT:;
#CREDIT:;
#BANNER:frank.png;
#BACKGROUND:frank-bg.png;
#LYRICSPATH:;
#CDTITLE:;
#MUSIC:frank.ogg;
#OFFSET:0.000;
#SAMPLESTART:32.682;
#SAMPLELENGTH:12.000;
#SELECTABLE:YES;
#BPMS:0.000=95.070,30.500=96.030,32.500=95.730,34.000=97.750,34.500=99.350,35.250=93.330,36.000=96.550,37.500=95.510,38.250=93.690,41.000=96.730,43.500=93.690,44.000=95.110,49.250=96.950,52.000=93.890,58.000=98.350,59.500=96.730,66.500=93.910,72.500=95.730,78.000=94.090,81.000=96.330,89.500=94.690,93.500=92.850,97.000=95.730,100.250=95.330,104.250=97.190,108.250=95.570,119.000=94.690,128.250=95.710,140.250=93.850,141.500=95.310,151.000=93.670,153.250=95.690,154.750=94.690,155.000=96.110,155.250=98.930,157.750=97.510,159.750=90.470,160.500=93.650,163.250=97.170,164.750=96.410,168.250=94.590,176.250=95.790;
#STOPS:;
#BGCHANGES:;

//---------------dance-single - Renard----------------
#NOTES:
     dance-single:
     Renard:
     Challenge:
     10:
     0.788,0.696,0.866,0.067,1.000:
0000
0000
0000
0000
,
0101
0101
0000
0110
0000
1010
0000
1000
0100
0000
0110
0000
0011
0000
0000
0000
,
0011
0011
0000
0110
0000
0100
1000
0000
0001
0100
0010
1000
0100
0010
0001
0010
,
0011
0011
0000
0110
0000
0110
0000
0100
1000
0000
1001
0000
1001
0000
1000
0000
,
0010
0000
0000
0100
0000
0000
0000
0000
0000
0101
0000
0000
0000
0000
0000
0101
0000
0000
0010
0000
0000
0000
0000
0000
1000
0000
0100
0000
0010
0000
0001
0000
0010
0000
0100
0000
1000
0000
0001
0000
0010
0000
0100
0000
1000
0000
0001
0000
,
1000
0100
0010
0001
0000
0010
0100
1000
0001
0100
0010
1000
0000
0010
1000
0001
,
0100
0000
0000
0000
0000
0000
0000
0000
0000
0000
0000
0000
0000
0000
0000
0000
0000
0000
0000
0000
0000
0000
0000
0000
0001
0000
0000
0000
0000
0000
0000
0000
0100
0000
0000
0000
0000
0000
0000
0000
0001
0000
0000
0000
0000
0000
0000
0000
1000
0000
0000
0000
0000
0000
0000
0000
0000
0000
0000
0000
0000
0000
0000
0000
0000
0000
0000
0000
0000
0000
0000
0000
1001
0000
0000
0000
0000
0000
0000
0000
0000
0000
0000
0000
0000
0000
0000
0000
0000
0000
0000
0000
0000
0000
0000
0000
0000
0000
0000
0000
0000
0000
0000
0000
0000
0000
0000
0000
0001
0000
0000
0000
0000
0000
0100
0000
0000
0000
0000
0000
0001
0000
0000
0000
0000
0000
0000
0000
0000
0000
0000
0000
1000
0000
0000
0000
0000
0000
0100
0000
0000
0000
0000
0000
1000
0000
0000
0000
0000
0000
0000
0000
0000
0000
0000
0000
0001
0000
0000
0000
0000
0000
1000
0000
0000
0000
0000
0000
0001
0000
0000
0000
0000
0000
0000
0000
0000
0000
0000
0000
1000
0000
0000
0000
0000
0000
0000
0000
0000
0000
0000
0000
,
1001
0000
0000
0000
0000
0000
0101
0000
0000
0000
0000
0000
0110
0000
0000
0000
0000
0000
1010
0000
0000
0000
0000
0000
0001
0000
0100
0000
0010
0000
1000
0000
0000
0000
0000
0000
0001
0000
0000
0100
0000
0000
1000
0000
0000
0000
0000
0000
,
1000
0000
0000
0000
0000
0000
0000
0000
0000
0000
0000
0000
0100
0000
0000
0000
0000
0000
0000
0000
0000
0000
0000
0000
0001
0000
0000
0000
0000
0000
0000
0000
0000
0000
0000
0000
0000
0000
0000
0000
0000
0000
0000
0000
0000
0000
0000
0000
0001
0000
0000
0000
0000
0000
0000
0000
1000
0000
0000
0000
0000
0000
0000
0000
0100
0000
0000
0000
0000
0000
0000
0000
0010
0000
0000
0000
0000
0000
0000
0000
0000
0000
0000
0000
0000
0000
0000
0000
0000
0000
0000
0000
0000
0000
0000
0000
0001
0000
0000
0000
0000
0000
0000
0000
0000
0000
0000
0000
1000
0000
0000
0000
0000
0000
0100
0000
0000
0000
0000
0000
1000
0000
0000
0000
0000
0000
0000
0000
0000
0000
0000
0000
0100
0000
0000
0000
0000
0000
0000
0000
0000
0000
0000
0000
0010
0000
0000
0000
0000
0000
0000
0000
0000
0000
0000
0000
0001
0000
0000
0000
0000
0000
0000
0000
0000
0000
0000
0000
1001
0000
0000
0000
0000
0000
0000
0000
0000
0000
0000
0000
0000
0000
0000
0000
0000
0000
0000
0000
0000
0000
0000
0000
,
0001
0100
0010
1000
0000
0000
1000
0010
0100
0001
0010
0100
0000
0000
1000
0001
,
0100
0000
0000
0000
0000
0000
0000
0000
0000
0000
0000
0000
0000
0000
0000
0000
0000
0000
0000
0000
0000
0000
0000
0000
0100
0000
0000
0000
0000
0000
0000
0000
0001
0000
0000
0000
0000
0000
0000
0000
1000
0000
0000
0000
0000
0000
0000
0000
0100
0000
0000
0000
0000
0000
0000
0000
0000
0000
0000
0000
0000
0000
0000
0000
0000
0000
0000
0000
0000
0000
0000
0000
1100
0000
0000
0000
0000
0000
0000
0000
0000
0000
0000
0000
0000
0000
0000
0000
0000
0000
0000
0000
0000
0000
0000
0000
0000
0000
0000
0000
0000
0000
0000
0000
0000
0000
0000
0000
0010
0000
0000
0000
0000
0000
0001
0000
0000
0000
0000
0000
0010
0000
0000
0000
0000
0000
0000
0000
0000
0000
0000
0000
0001
0000
0000
0000
0000
0000
0000
0000
0000
0000
0000
0000
0010
0000
0000
0000
0000
0000
0000
0000
0000
0000
0000
0000
0100
0000
0000
0000
0000
0000
0000
0000
0000
0000
0000
0000
1000
0000
0000
0000
0000
0000
0000
0000
0000
0000
0000
0000
0000
0000
0000
0000
0000
0000
0000
0000
0000
0000
0000
0000
,
0001
0100
0010
1010
0000
1000
0100
0010
0001
0010
0100
0110
0000
0100
1000
0001
,
0100
0000
0000
0000
0000
0000
0000
0000
0000
0000
0000
0000
0000
0000
0000
0000
0000
0000
0000
0000
0000
0000
0000
0000
0001
0000
0000
0000
0000
0000
0000
0000
0100
0000
0000
0000
0000
0000
0000
0000
0001
0000
0000
0000
0000
0000
0000
0000
1000
0000
0000
0000
0000
0000
0000
0000
0000
0000
0000
0000
0000
0000
0000
0000
0000
0000
0000
0000
0000
0000
0000
0000
0101
0000
0000
0000
0000
0000
0000
0000
0000
0000
0000
0000
0000
0000
0000
0000
0000
0000
0000
0000
0000
0000
0000
0000
0000
0000
0000
0000
0000
0000
0000
0000
0000
0000
0000
0000
0000
0000
0000
0000
0000
0000
0000
0000
0000
0000
0000
0000
1001
0000
0000
0000
0000
0000
0000
0000
0000
0000
0000
0000
0100
0000
0000
0000
0000
0000
0001
0000
0000
0000
0000
0000
0100
0000
0000
0000
0000
0000
0000
0000
0000
0000
0000
0000
0010
0000
0000
0000
0000
0000
0000
0000
0000
0000
0000
0000
1000
0000
0000
0000
0000
0000
0000
0000
0000
0000
0000
0000
0000
0000
0000
0000
0000
0000
0000
0000
0000
0000
0000
0000
,
1001
0000
0000
0000
0000
0000
0000
0000
1010
0000
0000
0000
0000
0000
0010
1000
0010
0000
1000
0000
0000
0000
0001
0100
0001
0000
1000
0000
0000
0000
1000
0100
,
1000
0000
0100
0010
0001
0000
1001
0000
0000
0000
0101
0000
1010
0000
0000
0000
,
0101
0000
0000
0000
0000
0000
0000
0000
1010
0000
0000
0000
0000
0000
1000
0100
1000
0000
0100
0000
0000
0000
0010
0001
0010
0000
0001
0000
0000
0000
0001
0000
,
0010
0000
0100
0000
1100
0000
1010
0000
0000
0000
1000
0001
0100
0010
1000
0001
,
0100
0010
0000
1010
0000
1001
0000
1000
0100
0000
0011
0000
0110
0000
1000
0000
,
0001
0100
0010
1000
0010
1000
0001
0000
0001
0100
1000
0001
0010
0100
0001
0100
,
1000
0100
0000
1100
0000
0101
0000
0100
0010
1000
0100
0010
0001
0010
0100
0000
,
0110
0110
0000
1100
0000
1000
0001
0000
1000
0100
0010
0001
1000
0001
1000
0001
,
1000
0000
0001
0100
0010
0000
1000
0100
0010
0001
0010
0000
0110
0000
0100
1000
,
0010
0000
1000
0010
0100
0000
0001
0100
0010
1000
0001
0000
1001
0000
1000
0100
,
1100
0000
0100
0010
0110
0000
0010
0001
0011
0000
0001
0100
0101
0000
0100
0010
,
0110
0000
0010
0000
1000
0100
0010
0001
0010
0100
1000
0001
0010
0100
1000
0001
,
1000
0000
0001
0000
0100
0000
0010
0000
1000
0000
0100
0000
0010
0000
0001
0000
0010
0000
0100
1000
0100
0000
0010
0001
0010
0000
0100
1000
0100
0000
1000
0000
,
1100
0000
0100
0010
0001
0010
0100
1000
0000
0100
1000
0000
1010
0000
0101
0000
,
0011
0000
0011
0000
0001
0010
0100
1000
0000
0100
1000
0010
1000
0001
0100
0001
,
0011
0000
0101
0000
0001
1000
0100
0010
0000
0010
0100
1000
0001
0100
0110
0000
,
1010
0000
1001
0000
1000
0100
0010
0001
0000
0001
0010
0000
0011
0000
0101
0000
,
1001
0000
1000
0010
0100
0001
1000
0010
0000
1001
0000
1000
0100
0010
0001
0000
,
1000
0100
0010
0001
0010
0100
1000
1100
0000
0100
1000
0010
0100
0000
0101
0000
,
0001
0100
0010
1000
0100
0010
0001
0011
0000
0110
0000
0100
1000
0001
0100
0000
,
0010
1000
0010
0100
0001
0010
0100
0010
0000
0100
0010
0100
1000
0000
1100
0000
,
1000
0100
1000
0100
0010
0100
0010
0100
0010
0001
0010
0001
0100
0001
0100
0001
,
0101
0000
0001
0100
0010
1000
0001
1000
0100
0010
0001
0000
0001
0010
0100
0000
,
0110
0000
0100
1100
0000
1000
1010
0000
0010
0011
0000
0010
0110
0000
0100
0101
,
0000
0001
0010
0100
1000
0001
0010
1001
0000
0000
0101
0000
0001
1000
1100
0000
,
0100
1000
0100
1000
0100
0010
0100
0010
0100
0001
0100
0001
0100
0010
0100
0000
,
0010
0001
0010
0001
0010
0100
0010
0100
0010
1000
0010
0100
0010
0001
1000
0000
,
0101
0000
0100
0010
1000
1010
0000
1100
0000
1001
0000
1000
0100
0000
1100
0000
,
0011
0000
0000
0000
0000
0000
0001
0000
0000
0100
0000
0000
0001
0000
0000
1000
0000
0000
0001
0000
0000
0000
0000
0000
0101
0000
0000
0000
0011
0000
0000
0000
1001
0000
0000
0000
1100
0000
0000
0000
1010
0000
0000
0000
1001
0000
0000
0000
,
2001
0000
0100
0000
0010
0000
0001
3000
0201
0000
0010
0000
1000
0000
0010
0300
,
0102
0000
0010
0000
0100
0000
1000
0003
2100
0000
0010
0000
0001
0000
0100
3000
,
1020
0000
1000
0000
0100
0000
0001
0030
0021
0000
0100
0000
1000
0000
1000
0030
,
1200
0000
0010
0000
0001
0000
1000
0300
1002
0000
0100
0000
0010
0000
1000
0003
,
1001
0000
0000
0000
;

//---------------dance-single - Renard----------------
#NOTES:
     dance-single:
     Renard:
     Hard:
     8:
     0.500,0.564,0.219,0.135,0.462:
0000
0000
0000
0000
,
1000
0001
0000
1001
0000
1001
0000
1000
0001
0000
1000
0000
1001
0000
0000
0000
,
0010
0100
0000
0010
0000
0100
0010
0000
1000
0000
0001
0000
0100
0000
0001
0000
,
1000
0001
0000
1001
0000
1001
0000
0001
1000
0000
0001
0000
1001
0000
0000
0000
,
1000
0001
0000
0100
0000
0010
1000
0000
0001
0000
0000
0000
1001
0000
0000
0000
,
1000
0100
1000
0100
0000
0000
0001
0010
0001
0010
0001
0010
0000
0000
0001
1000
,
0001
0000
1000
0001
1000
0000
1010
0000
0000
0000
0101
0000
0000
0000
0000
0000
,
0001
0000
0000
0000
1000
0000
0100
0000
1000
0000
0001
0000
0100
0000
0001
1000
,
0001
1000
0010
0200
0000
0000
0000
0000
,
0301
0000
1000
0000
0001
0100
0010
1000
,
0001
0000
0100
0001
0100
0000
0001
0000
0000
0000
1000
0000
0100
0000
0000
0000
,
0010
0000
0001
1000
0000
0000
0001
0000
0100
0000
0010
1000
0000
0000
0001
0000
,
0100
0000
0010
1000
0010
0000
1000
0000
0000
0000
0010
0000
0010
0000
0000
0000
,
0100
0000
0000
0000
0100
0000
0000
0000
0001
0001
0000
0000
1000
1000
0000
0000
,
0010
0100
0001
1000
0000
1001
1001
0000
,
1000
0000
0000
0000
0100
0000
0000
0000
0010
0010
0000
0000
0001
0001
0000
0000
,
1000
0010
0100
0001
0000
1001
1001
0000
,
1000
0001
0000
1001
0000
1001
0000
0001
1000
0000
0001
0000
1001
0000
0001
0000
,
0100
0010
0000
0110
0000
0010
0100
0000
0010
1000
0010
1000
0010
1000
0010
1000
,
0010
0100
0000
0110
0000
0110
0000
0010
0100
0000
0001
0000
1000
0001
1000
0000
,
1000
0100
0000
0011
0000
0001
0010
0000
0100
0000
1000
0000
0001
0000
0100
0000
,
0010
0000
0000
0000
1000
0000
0000
0010
1000
0000
0001
0000
0100
0000
0001
0000
,
0010
0000
0000
0000
0100
0000
0000
1000
0001
0000
1000
0000
0001
0000
0100
0000
,
0010
0000
0000
0000
1000
0000
0000
0010
1000
0000
0010
0000
0100
0000
0001
0000
,
1000
0000
0100
0000
0010
0000
0000
0001
1000
0000
0001
0000
0100
0000
0010
0000
,
1000
0000
0010
0000
0100
0000
0001
0000
1000
0000
0001
1000
0001
1000
0001
0000
,
1000
0000
0001
0000
0100
0001
1000
0001
0000
0001
1000
0000
0010
0000
0100
0000
,
0001
0000
1000
0000
0001
0100
0010
1000
0000
1000
0010
0000
0100
0000
0001
0000
,
1000
0000
0001
0000
1000
0100
1000
0001
0000
0001
1000
0000
0001
0000
0010
0000
,
0100
0000
1000
0000
0001
0100
0001
1000
0000
1000
0001
0000
0100
0000
0010
0000
,
1000
0000
0001
0000
0100
0001
0100
0001
0000
0101
0000
0000
0000
0000
0000
0000
,
0001
0000
1000
0000
0100
1000
0100
1000
0000
0000
0000
0000
1001
0000
0000
0000
,
0001
0000
0100
0000
0010
1000
0010
1000
0000
1010
0000
0000
0001
0000
0100
0000
,
0001
0000
0010
0000
0001
1000
0001
1000
0000
0000
0001
0000
0100
0000
0000
0000
,
0010
0000
1000
0010
1000
0000
0001
0100
0001
0000
0001
0010
0001
0000
1000
0100
,
1000
0000
0001
0100
0010
1000
0001
0100
0000
0100
0010
0000
1000
0000
0000
0000
,
0001
0100
0010
1000
0010
0100
0001
0100
0010
1000
0010
0100
0001
0100
0010
1000
,
0010
0100
0001
0010
0100
1000
0100
0010
0001
0000
0010
0000
0100
0000
1000
0000
,
0001
0000
1000
0000
0001
0000
0100
0000
0010
0000
1000
0010
1000
0000
0010
0000
,
0100
0000
0001
0000
0100
0000
0001
1000
0001
0000
1000
0000
0100
0000
0010
0000
,
0001
0000
0000
1000
0001
1000
0000
0110
0000
0110
0000
0010
1000
0000
0001
0000
,
0100
0000
0000
0000
0000
0000
0000
0000
0000
0001
0000
0000
1000
0000
0000
0001
0000
0000
1000
0000
0000
0000
0000
0000
0001
0000
0000
0000
0001
0000
0000
0000
0001
0000
0000
0000
0100
0000
0000
0000
0100
0000
0000
0000
0100
0000
0000
0000
,
0020
0000
1000
0100
0200
0030
0002
0300
,
2003
0000
0100
0100
0200
3000
0320
0000
,
0002
0030
0100
0203
0020
0030
2000
3000
,
0002
0000
0023
0000
0031
0010
0002
0000
,
2020
3333
0000
0000
;

//---------------dance-single - Renard----------------
#NOTES:
     dance-single:
     Renard:
     Medium:
     5:
     0.303,0.329,0.008,0.067,0.164:
0000
0000
0000
0000
,
1000
0000
0000
0001
0000
0001
0000
0000
0100
0000
0001
0000
1000
0000
0000
0000
,
0100
0000
0000
0010
0000
0000
0010
0000
0001
0000
1000
0000
0001
0000
0100
0000
,
0010
0000
0000
1000
0000
1000
0000
0000
0001
0000
0100
0000
0001
0000
0000
0000
,
1000
0000
0000
0100
0000
0000
0100
0000
0010
0000
0000
0000
1001
0000
0000
0000
,
0001
0000
0000
0100
0000
0000
0010
0000
1000
0000
0000
0100
0000
0000
0010
0000
,
0001
1000
0001
0100
0000
0001
0001
0000
,
1000
0000
0100
0010
0001
1000
0001
0100
,
0001
0000
0100
0000
0001
1000
0001
0000
0000
0000
1000
0000
1000
0000
0000
0000
,
0100
0000
0000
0010
0000
0000
0001
0000
0010
0000
0000
0100
0000
0000
1000
0000
,
0010
0100
0001
1000
0000
0001
0001
0000
,
1000
0000
0000
1000
0000
0000
0001
0000
0100
0000
0000
0100
0000
0000
0001
0000
,
0010
0000
0010
0100
0000
1000
0010
0000
,
0100
0000
0000
0000
0100
0000
0000
0000
0010
0100
0000
0000
0010
0100
0000
0000
,
0010
0100
0001
1000
0000
0000
0000
0000
,
0100
0000
0000
0000
0100
0000
0000
0000
1000
0001
0000
0000
1000
0001
0000
0000
,
0100
0010
1000
0001
0000
0000
0100
0000
,
0001
0000
0000
1000
0000
0100
0000
0000
1000
0000
0000
0000
0001
0000
0000
0000
,
0010
0000
0000
0001
0000
0000
1000
0000
0001
0000
0100
0000
0010
0000
1000
0000
,
0100
0000
0000
1000
0000
0001
0000
0000
0100
0000
0001
0000
1000
0000
0000
0000
,
0100
0000
0010
0001
1000
0000
0001
0000
,
0100
0000
0100
0000
0100
0001
1000
0000
,
0100
0000
0100
0000
1000
0001
0010
0001
,
1000
0000
1000
0000
0001
0001
0100
0001
,
1000
0000
0100
0000
0010
0001
1000
0001
,
0100
0000
0001
0000
0100
0001
1000
0100
,
1000
0000
0000
0000
1000
0000
0000
0001
0000
0000
0100
0000
0010
0000
1000
0000
,
0100
0000
0000
0000
0010
0000
0000
0001
0000
0000
1000
0000
0001
0000
0100
0000
,
0010
0000
0000
0000
0010
0000
0000
1000
0000
0000
0100
0000
0010
0000
0001
0000
,
1000
0000
0000
0000
0001
0000
0000
0100
0000
0000
0010
0000
1000
0000
0010
0000
,
1000
0000
0000
0000
0001
0000
0000
0100
0000
0100
0000
0000
0000
0000
0000
0000
,
0001
0000
0000
0000
1000
0000
0000
0100
0000
0000
0000
0000
0000
0000
0000
0000
,
1000
0000
0000
0000
0001
0000
0000
0010
0000
0010
0000
0000
0000
0000
0000
0000
,
0100
0000
0000
0000
1000
0000
0000
0100
0000
0000
0000
0000
0000
0000
0000
0000
,
1000
0000
0000
1000
0001
0000
0000
0001
0100
0000
0000
0100
0001
0000
0000
0000
,
1000
0000
0000
0000
0100
0000
0000
0010
0000
0000
0001
0000
0000
0000
0000
0000
,
1000
0000
0000
1000
0000
0000
0001
0000
0000
0001
0000
0000
0100
0000
0000
0100
,
0000
0010
1000
0010
0100
0000
0100
0001
,
1000
0000
1000
0000
0100
0010
0100
0010
,
0001
0000
0001
0000
0010
0100
0010
0100
,
1000
1000
0000
0000
,
0001
0000
0001
0000
0100
0000
0001
1000
,
0200
0000
0320
0000
,
0032
0000
2003
0000
,
3002
0000
0103
0010
2000
0000
3010
0100
,
0002
0000
1003
0100
0020
0000
0031
1000
,
0001
0000
0000
0000
;

//---------------dance-single - Renard----------------
#NOTES:
     dance-single:
     Renard:
     Easy:
     2:
     0.226,0.290,0.008,0.067,0.000: // measure 1
0000
0000
0000
0000
,  // measure 2
1000
0000
1000
0000
1000
0001
1000
0000
,  // measure 3
0001
0001
1000
0000
,  // measure 4
0001
0000
0001
0000
1000
0001
1000
0000
,  // measure 5
0001
0001
0100
0010
,  // measure 6
1000
0000
0010
0000
1000
0001
1000
0000
,  // measure 7
0001
0100
0001
0010
,  // measure 8
0001
0000
0010
0000
0001
0010
0001
0000
,  // measure 9
0010
0100
1000
0010
,  // measure 10
0100
0000
0001
0000
0100
0001
0100
0000
,  // measure 11
0001
1000
0100
1000
,  // measure 12
0001
0000
0001
0000
1000
0010
1000
0000
,  // measure 13
0001
0100
0001
1000
,  // measure 14
0100
0000
1000
0000
0001
1000
0001
0000
,  // measure 15
1000
0001
1000
0001
0000
0000
0000
0000
,  // measure 16
0100
0100
0010
0100
,  // measure 17
0010
0100
0010
0100
0000
0010
0100
0000
,  // measure 18
0010
0010
1000
0002
,  // measure 19
1003
0001
0100
0000
,  // measure 20
0010
1000
0001
2000
,  // measure 21
3100
1000
0001
0000
,  // measure 22
0010
0001
0010
0001
,  // measure 23
1000
0100
1000
0100
,  // measure 24
1000
0010
1000
0010
,  // measure 25
0100
0001
0100
0001
,  // measure 26
1000
0100
0010
0001
,  // measure 27
1000
0000
1000
0000
0001
0100
0001
0000
,  // measure 28
1000
0000
1000
0000
0100
1000
0100
0000
,  // measure 29
1000
0000
0001
0000
0010
0001
0010
0000
,  // measure 30
0001
0000
1000
0000
0010
1000
0010
0000
,  // measure 31
0100
0100
0010
0000
,  // measure 32
0100
0001
1000
0000
,  // measure 33
0001
1000
0100
0000
,  // measure 34
0010
0001
1000
0000
,  // measure 35
0001
0100
0001
1000
,  // measure 36
0100
1000
0001
0000
0100
0000
0100
0000
,  // measure 37
0020
2030
3200
0320
,  // measure 38
0032
2003
3001
0100
,  // measure 39
0010
0010
1000
0001
,  // measure 40
0100
0000
0001
0000
1000
0000
0100
1000
,  // measure 41
0100
1000
0000
0000
,  // measure 42
0001
0010
0000
0000
,  // measure 43
0001
0000
1000
0000
,  // measure 44
0010
0000
0100
0000
,  // measure 45
0001
0000
1000
0000
,  // measure 46
0001
0100
0010
1000
,  // measure 47
1001
0000
0000
0000
;
