#TITLE:Four Ton Mantis;
#SUBTITLE:;
#ARTIST:Amon Tobin;
#TITLETRANSLIT:;
#SUBTITLETRANSLIT:;
#ARTISTTRANSLIT:;
#CREDIT:;
#BANNER:mantis.png;
#BACKGROUND:mantis-bg.png;
#LYRICSPATH:;
#CDTITLE:;
#MUSIC:mantis.ogg;
#OFFSET:0.000;
#SAMPLESTART:41.228;
#SAMPLELENGTH:12.000;
#SELECTABLE:YES;
#BPMS:0.000=92.995;
#STOPS:;
#BGCHANGES:;

//---------------dance-single - Renard----------------
#NOTES:
     dance-single:
     Renard:
     Challenge:
     9:
     0.450,0.478,0.472,0.079,0.226:
0000
0000
0000
0000
,
0000
0000
0000
0000
,
0000
0000
0000
0000
,
0000
0000
0000
0000
,
0001
0000
0000
1000
0000
0000
1001
0000
0000
0001
0000
0100
0010
0000
1000
0100
0000
0000
1100
0000
0000
0100
0000
1000
,
0010
0000
0000
0100
0000
0000
0110
0000
0000
0010
0000
1000
0100
0000
0010
0001
0000
0000
0011
0000
0000
0010
0000
0100
,
1000
0000
0000
0001
0000
0000
0101
0000
0000
0001
0000
0100
0010
0000
1000
0100
0000
0000
1100
0000
0000
0100
0000
1000
,
0001
0000
0000
0010
0000
0000
0011
0000
0000
0001
0000
0010
0100
0000
1000
0001
0000
0000
1001
0000
0000
0001
0000
0000
,
0100
0000
0000
0010
0000
0000
1010
0000
0000
1000
0000
0100
0010
0000
0001
0010
0000
0000
0011
0000
0000
0010
0000
0100
,
1000
0000
0000
0001
0000
0000
1001
0000
0000
0001
0000
0100
0010
0000
1000
0100
0000
0000
1100
0000
0000
0100
0000
1000
,
0010
0010
0010
0010
0010
0010
0010
0010
,
0010
0010
0010
0010
0010
0010
0010
0010
,
0100
0111
0100
1110
,
0100
1011
0100
1111
,
0100
1110
0100
0111
,
0100
1011
0100
1111
,
0001
0101
1000
1100
0001
0101
1000
1100
,
0001
0101
1000
1100
1000
1001
1001
0000
,
1000
1010
0001
0011
1000
1010
0001
0011
,
1000
0000
1010
0000
0001
0000
0011
0000
0001
0000
1000
0000
0001
1000
0000
0000
,
0001
0000
0000
0100
0000
0100
0010
0000
0000
1000
0000
0100
0010
0000
0001
0010
0000
0000
0011
0000
0000
0000
0000
0000
,
0010
0000
0000
0100
0000
0100
1000
0000
0000
0010
0000
1000
0001
0000
0100
0010
0000
0000
1010
0000
0000
1000
0000
0100
,
0010
0000
0000
0001
0000
0000
0011
0000
0000
0001
0000
0010
0100
0000
1000
0001
0000
0000
1001
0000
0000
0001
0000
0100
,
0010
0000
0000
0010
1000
0010
1000
0000
0000
0001
0100
0001
0100
0000
0001
1000
0000
0000
1001
0000
0000
0000
0000
0000
,
1000
0000
0000
0100
0000
0010
0001
0000
0000
0010
0000
0100
1000
0000
0001
0100
0000
0000
0101
0000
0000
0001
0000
0100
,
0010
0000
0000
1000
0000
0100
0010
0000
0000
0001
0000
0010
0100
0000
1000
0001
0000
0000
1001
0000
0000
0001
0000
0100
,
0010
0000
0010
1000
0000
0000
0100
0000
0000
0010
0000
0000
0001
0000
0001
0010
0000
0000
0100
0000
0000
1000
0000
0000
,
0010
0000
0000
0000
0000
0000
0100
0000
0000
0000
0000
0000
0001
0000
0000
0000
0001
0000
0100
0000
0000
0000
0000
0000
0010
0000
0000
1000
0000
0000
0001
0000
0000
0000
0000
0000
1000
0000
0000
0001
0000
0000
0000
0000
0000
0000
0000
0000
,
0020
0002
1000
0130
,
0010
2000
0100
3010
,
1000
0200
1313
0101
,
0100
0001
0010
1000
0100
0000
1100
0000
,
0200
2000
0001
0310
,
0100
0002
0010
0103
,
0001
0020
3131
1010
,
0010
1000
0100
0001
0010
0000
0011
0000
,
1010
0000
0000
0000
;

//---------------dance-single - Renard----------------
#NOTES:
     dance-single:
     Renard:
     Hard:
     7:
     0.410,0.443,0.423,0.207,0.123:
0000
0000
0000
0000
,
0000
0000
0000
0000
,
0000
0000
0000
0000
,
0000
0000
0000
0000
,
1000
0000
0001
0000
0101
0000
0000
0000
0001
0000
0000
1000
0100
0000
0010
0000
,
0001
0000
1000
0000
1001
0000
0000
0000
0100
0000
0000
0001
1000
0000
0100
0000
,
0010
0000
0001
0000
0011
0000
0000
0000
0010
0000
0000
0100
1000
0000
0001
0000
,
0100
0000
0010
0000
0110
0000
0000
0000
0010
0000
0000
1000
0010
0000
0100
0000
,
0001
0001
1000
0100
0010
0001
1000
0000
,
0001
0001
0010
0100
1000
0001
0100
0001
,
1000
0000
0000
1000
0001
0000
0000
0001
1000
0000
0000
1000
0001
0000
0000
0001
,
0100
0010
0100
0010
0100
0000
0000
0000
,
0202
0313
0202
1303
,
0202
0313
0202
1303
,
0202
0313
0202
1303
,
0202
0313
0202
1303
,
0001
0000
0100
0000
0010
0000
0000
0010
1000
0000
0100
0000
0010
0000
0000
0000
,
0001
0000
0010
0000
0100
0000
0000
1000
0001
0000
0100
0000
0010
0000
0000
0000
,
1000
0000
0010
0000
0100
0000
0000
0001
1000
0000
0100
0000
0010
0000
0001
0000
,
1000
0000
0001
1000
0001
0000
0100
0000
0010
0000
0100
0010
0000
0100
0010
0000
,
1000
0010
1010
1000
0001
0100
0101
0000
,
0001
0010
0011
0010
0200
1300
1100
0000
,
1000
0001
0101
0002
0013
0010
0011
0000
,
1000
0100
1100
0000
1000
0000
0001
0000
,
1000
1100
0001
0101
1000
1100
0001
0101
,
1000
1010
0001
0011
1000
1100
0001
0101
,
1000
0000
0100
0000
0010
0000
0001
0010
0100
1000
0001
0000
0110
0000
0000
0000
,
1000
0000
0001
0000
0110
0000
0001
0010
0100
1000
0001
0000
0110
0000
1001
0000
,
1000
0000
1100
0000
0001
0000
0011
0000
0001
0100
0010
1000
0001
0000
0000
0000
,
0001
0101
1000
1010
2000
3100
0010
0001
,
0001
1000
0110
0000
1001
1000
0000
0100
,
0010
0000
0001
0010
0100
1000
0001
0100
,
0010
0000
1000
0000
0200
0000
0000
0000
0310
0000
0001
1000
0001
0000
0100
0000
,
0010
0000
1000
0000
0002
0000
0000
0000
0103
0000
0001
1000
0001
0000
1000
0000
,
0100
0010
0001
0000
0011
0000
0000
0000
0110
0000
1100
0000
0000
0000
0011
0000
,
0110
0000
0000
0000
0100
0000
1000
0000
0001
0000
0100
0010
1000
0001
0100
0000
,
0110
0000
0000
0000
;

//---------------dance-single - Renard----------------
#NOTES:
     dance-single:
     Renard:
     Medium:
     4:
     0.316,0.372,0.423,0.177,0.000:
0000
0000
0000
0000
,
0000
0000
0000
0000
,
0000
0000
0000
0000
,
0000
0000
0000
0000
,
1000
0000
0101
0000
0001
1000
1100
0000
,
0001
0000
0011
0000
0001
1000
1010
0000
,
1000
0000
0101
0000
0001
1000
1100
0000
,
0001
0000
1000
0000
0010
0100
0010
0100
,
0001
0000
1001
1000
0100
0000
0110
0000
,
0010
0000
1001
0001
0100
0000
0110
0000
,
0010
0010
0100
0100
0010
0010
0100
0100
,
0010
0000
0000
0000
,
2002
3013
0000
0110
,
2002
3013
0000
0110
,
2002
3013
0000
0110
,
2002
3013
0000
0110
,
1000
1000
1001
0000
0001
0001
1001
0000
,
1000
1000
1001
0000
0001
0000
1001
0000
,
0100
0100
0110
0000
0010
0010
0110
0000
,
0100
0100
0110
0000
2002
0000
0000
3003
,
1000
0000
1001
0000
0001
0100
0010
1000
,
0001
0101
0011
1100
,
1000
0000
1010
0000
0100
0001
0010
0100
,
1000
0101
1000
0011
,
1000
0000
0011
0000
0001
0010
0100
1000
,
0001
0110
1000
0110
,
1000
0000
1001
0000
0001
1000
0010
0100
,
0001
0000
0110
0000
0010
1000
0100
0010
,
0001
1000
0001
0100
0010
1000
0020
0000
,
0130
0002
0000
0013
0200
2300
3020
0230
,
0301
0000
0101
0000
0001
1000
0000
0100
,
0010
0000
0001
1000
0001
0100
0010
0000
,
1010
0000
0010
0100
0000
0100
0001
0000
,
0001
0010
0000
0010
0100
1000
0010
0100
,
0001
0000
1001
0000
0110
0110
0000
1000
,
0010
0000
0100
0001
0010
0200
2000
0000
,
3301
0000
0000
0000
;

//---------------dance-single - Renard----------------
#NOTES:
     dance-single:
     Renard:
     Easy:
     1:
     0.143,0.177,0.157,0.335,0.000: // measure 1
0000
0000
0000
0000
,  // measure 2
0000
0000
0000
0000
,  // measure 3
0000
0000
0000
0000
,  // measure 4
0000
0000
0000
0000
,  // measure 5
0000
1001
0000
0110
,  // measure 6
0000
1010
0000
0101
,  // measure 7
0000
0011
0000
1100
,  // measure 8
0000
1010
0000
0101
,  // measure 9
2002
0000
0010
0000
,  // measure 10
0000
0000
0010
0010
,  // measure 11
0000
0000
0010
0010
,  // measure 12
3013
0000
0000
0000
,  // measure 13
0202
0003
0020
0030
,  // measure 14
2000
3000
0020
0030
,  // measure 15
0002
0003
0020
0030
,  // measure 16
2000
3000
0020
0330
,  // measure 17
0020
0000
2000
3000
,  // measure 18
0200
0300
0002
0003
,  // measure 19
0200
0300
2000
0000
,  // measure 20
0000
0000
0000
3030
,  // measure 21
2200
3000
0020
0030
,  // measure 22
0002
0000
0000
0003
,  // measure 23
0002
0003
0020
0030
,  // measure 24
2000
0000
0000
3300
,  // measure 25
0120
0000
2000
3000
,  // measure 26
0200
0000
0000
0300
,  // measure 27
0002
0003
0200
0300
,  // measure 28
2000
0000
3030
0000
,  // measure 29
0011
0000
0110
0000
,  // measure 30
2100
0000
3020
0000
,  // measure 31
0230
0000
0000
0000
,  // measure 32
0000
0000
0000
0000
,  // measure 33
0301
0000
0010
0000
,  // measure 34
0100
0000
1000
0000
,  // measure 35
0020
0000
0000
0000
,  // measure 36
0000
0000
0000
0030
,  // measure 37
1001
0000
0000
0000
;
