#TITLE:Foul Play in Fun Land;
#SUBTITLE:;
#ARTIST:Totally Radd!!;
#TITLETRANSLIT:;
#SUBTITLETRANSLIT:;
#ARTISTTRANSLIT:;
#CREDIT:;
#BANNER:foul.jpg;
#BACKGROUND:foul-bg.jpg;
#LYRICSPATH:;
#CDTITLE:;
#MUSIC:foul.ogg;
#OFFSET:0.000;
#SAMPLESTART:74.688;
#SAMPLELENGTH:12.000;
#SELECTABLE:YES;
#BPMS:0.000=143.000;
#STOPS:;
#BGCHANGES:;

//---------------dance-single - Renard----------------
#NOTES:
     dance-single:
     Renard:
     Hard:
     8:
     0.747,0.723,0.387,0.783,0.179:
0000
0000
0000
0000
,
0000
0000
0000
0000
,
0000
0000
0000
0000
,
0000
0000
0000
0000
0000
1000
1001
0001
,
0100
0010
0100
0010
1000
0010
1000
0010
,
0100
0001
0100
0001
0010
0001
0010
0001
,
1000
0100
1000
0100
0010
0100
0010
0100
,
0010
0001
0010
0001
1000
0001
1000
0001
,
0100
0010
0100
0010
1000
0001
1000
0001
,
0010
0100
0010
0100
1000
0001
1000
0001
,
1000
0010
1000
0010
0100
0001
0100
0001
,
1000
0000
0100
0000
0010
0000
0001
0000
0010
0000
0100
1000
0100
0000
0010
0001
,
0020
0130
1000
0020
0130
0002
0103
0020
,
0130
0002
0103
0020
1030
0020
1030
0100
,
0020
0031
0010
0200
1300
0200
0310
0200
,
0301
0200
0310
0200
1300
0020
0130
0001
,
0200
0310
0100
0002
0103
0020
0130
2000
,
3100
0020
0130
0002
0103
0020
0130
0001
,
0020
0130
1000
0200
0310
0200
0301
0200
,
0310
0000
0200
0000
1300
0000
0020
0000
0130
0000
0002
0000
0103
0000
0001
1000
,
0200
0310
0001
0200
0310
2000
3010
0200
,
0310
2000
3010
0200
0301
0200
0301
0010
,
0200
1300
0100
0020
0031
0020
0130
0020
,
1030
0020
0130
0020
0031
0200
0310
1000
,
0020
0130
0010
2000
3010
0200
0310
0002
,
0013
0200
0310
2000
3010
0200
0310
1000
,
0200
0310
0001
0020
0130
0020
1030
0020
,
0130
0000
0020
0000
0031
0000
0200
0000
0310
0000
2000
0000
3010
0000
1000
0010
,
2000
3001
0100
0020
1030
0100
0020
0031
,
0010
0200
1300
0010
M10M
M10M
M01M
M01M
,
2000
3100
0010
0002
1003
0010
0200
0301
,
0010
0200
0310
0001
1MM0
1MM0
0MM1
0MM1
,
2000
3001
0100
0020
1030
0100
0020
0031
,
0010
0200
1300
0010
M10M
M10M
M01M
M01M
,
2000
3100
0010
0002
1003
0010
0200
0301
,
0010
0200
0310
0001
1MM0
1MM0
0MM1
0MM1
,
2M00
00M0
000M
0000
0M00
00M0
000M
0000
0M00
00M0
000M
0000
32M0
000M
M320
0000
,
0M00
000M
M000
0000
0M00
000M
M000
0000
0M00
000M
M000
0000
0M32
M000
02M3
0000
,
M000
00M0
000M
0000
M000
00M0
000M
0000
M000
00M0
000M
0000
M320
000M
2M30
0000
,
00M0
000M
32M0
0000
000M
M000
032M
0000
M000
0M00
0031
0000
1000
0100
0010
0001
,
1000
0000
0100
1000
0100
0000
1000
0100
1000
0000
0100
1000
0100
0000
1000
0100
,
0010
0000
0100
0010
0100
0000
0010
0100
0010
0000
0100
0010
0100
0000
0010
0100
,
0010
0000
0001
0010
0001
0000
0010
0001
0010
0000
0001
0010
0001
0000
0010
0001
,
0100
0000
0010
1000
0010
0000
0100
0001
0100
0010
1000
0000
0001
0000
0100
0001
,
1000
0100
0110
0000
0100
1100
0000
1000
,
1010
0000
0010
0110
0000
0100
0001
0010
,
0100
1000
1001
0000
0001
0101
0000
0100
,
0110
0000
0010
1010
0000
1000
0100
0010
,
0001
1000
1001
0000
1000
1010
0000
0010
,
0110
0000
0100
0101
0000
0001
0010
0100
,
1000
0010
0110
0000
0010
1010
0000
1000
,
0110
0110
0000
1MM1
0000
0110
1001
0MM0
,
0001
0100
1010
0000
1000
1100
0000
0010
,
0011
0000
1000
1100
0000
1000
0010
0100
,
0001
1000
1100
0000
0010
0011
0000
0001
,
1001
0000
1000
1010
0000
1000
0100
0010
,
0001
0010
0110
0000
0100
1100
0000
1000
,
1010
0000
0010
0110
0000
0100
0001
0010
,
0100
1000
1100
0000
1000
1001
0000
0001
,
0110
1MM1
0000
M11M
0000
1MM1
M11M
1MM1
;

//---------------dance-single - Renard----------------
#NOTES:
     dance-single:
     Renard:
     Challenge:
     10:
     0.886,0.955,0.387,0.696,0.541:
0000
0000
0000
0000
,
0000
0000
0000
0000
,
0000
0000
0000
0000
,
0000
0000
0000
0000
0000
0001
1001
1000
,
0001
0010
0001
0010
0100
1000
0100
1000
0001
0010
0001
0010
0100
1000
0100
1000
,
0001
0100
0001
0100
0010
1000
0010
1000
0001
0100
0001
0100
0010
1000
0010
1000
,
0001
0010
0001
0010
0100
1000
0100
1000
0001
0010
0001
0010
0100
1000
0100
1000
,
0001
0100
0001
0100
0010
1000
0010
1000
0001
0100
0001
0100
0010
1000
0010
1000
,
0100
1000
0100
1000
0001
0010
0001
0010
0100
1000
0100
1000
0001
0010
0001
0010
,
0001
0100
0001
0100
0010
1000
0010
1000
0001
0100
0001
0100
0010
1000
0010
1000
,
0100
1000
0100
1000
0001
0010
0001
0010
0100
1000
0100
1000
0001
0010
0001
0010
,
0001
0100
0001
0100
0010
1000
0010
1000
0001
0000
0010
0001
0010
0000
0100
1000
,
020M
031M
0001
M200
M310
200M
301M
020M
,
031M
200M
301M
02M0
03M1
M200
M301
0010
,
020M
130M
0100
M020
M031
002M
013M
002M
,
103M
M020
M130
0M20
0M31
020M
031M
1000
,
002M
013M
0010
2M00
3M10
020M
031M
M002
,
M013
020M
031M
2M00
3M10
020M
031M
1000
,
020M
031M
0001
M020
M130
002M
103M
M020
,
M130
0000
0M20
0000
0M31
0000
020M
0000
031M
0000
2M00
0000
3M10
0000
1000
0001
,
M020
M130
1000
002M
013M
M002
M103
002M
,
013M
00M2
01M3
002M
103M
0M20
1M30
0100
,
M020
M031
0010
020M
130M
M200
M310
02M0
,
03M1
M200
M310
020M
130M
M020
M130
0001
,
M200
M310
0100
00M2
01M3
002M
013M
20M0
,
31M0
002M
013M
M002
M103
002M
013M
0001
,
002M
013M
1000
020M
031M
M200
M301
020M
,
031M
0000
02M0
0000
13M0
0000
002M
0000
013M
0000
M002
0000
M103
0000
0001
0100
,
0002
1003
0010
0200
0301
0010
0200
1300
,
0100
0020
0031
0100
M01M
M01M
M10M
M10M
,
0002
0013
0100
2000
3001
0100
0020
1030
,
0100
0020
0130
1000
0MM1
0MM1
1MM0
1MM0
,
0002
1003
0010
0200
0301
0010
0200
1300
,
0100
0020
0031
0100
M01M
M01M
M10M
M10M
,
0002
0013
0100
2000
3001
0100
0020
1030
,
0100
0020
0130
1000
0MM1
0MM1
1MM0
1MM0
,
0100
1000
0100
1000
0100
1000
0100
1000
0001
0010
0001
0010
0001
0010
0001
0010
,
0100
1000
0100
1000
0100
1000
0100
1000
0001
0010
0001
0010
0001
0010
0001
0010
,
0001
0100
0001
0100
0001
0100
0001
0100
0010
1000
0010
1000
0010
1000
0010
1000
,
0001
0100
0001
0100
0001
0100
0001
0100
0010
1000
0010
1000
0001
0010
0100
1000
,
0001
0000
0010
0001
0010
0000
0001
0010
0001
0000
0010
0001
0010
0000
0001
0010
,
0100
0000
0010
0100
0010
0000
0100
0010
0100
0000
0010
0100
0010
0000
0100
0010
,
0100
0000
1000
0100
1000
0000
0100
1000
0100
0000
1000
0100
1000
0000
0100
1000
,
0010
0000
0100
0001
0100
0000
0010
1000
0010
0100
0001
0000
1000
0000
0010
1000
,
0001
0010
0110
0000
0010
0011
0000
0001
,
0101
0000
0100
0110
0000
0010
1000
0100
,
0010
0001
1001
0000
1000
1010
0000
0010
,
0110
0000
0100
0101
0000
0001
0010
0100
,
1000
0001
1001
0000
0001
0101
0000
0100
,
0110
0000
0010
1010
0000
1000
0100
0010
,
0001
0100
0110
0000
0100
0101
0000
0001
,
0110
0110
0000
1MM1
0000
0110
1001
0MM0
,
1000
0010
0101
0000
0001
0011
0000
0100
,
1100
0000
0001
0011
0000
0001
0100
0010
,
1000
0001
0011
0000
0100
1100
0000
1000
,
1001
0000
0001
0101
0000
0001
0010
0100
,
1000
0100
0110
0000
0010
0011
0000
0001
,
0101
0000
0100
0110
0000
0010
1000
0100
,
0010
0001
0011
0000
0001
1001
0000
1000
,
0110
1MM1
0000
M11M
0000
1MM1
M11M
1MM1
;

//---------------dance-single - Renard----------------
#NOTES:
     dance-single:
     Renard:
     Medium:
     5:
     0.378,0.492,0.116,0.068,0.000:
0000
0000
0000
0000
,
0000
0000
0000
0000
,
0000
0000
0000
0000
,
0000
0000
0000
0000
,
1000
0000
0001
0000
1000
0100
0010
0001
,
1000
0000
0001
0000
1000
0100
0010
0001
,
1000
0000
0001
0000
1000
0100
0010
0001
,
1000
0100
0010
0001
,
1000
0000
0001
0000
0010
0100
1000
0001
,
1000
0000
0001
0000
0010
0100
1000
0000
,
0001
0000
0010
0000
0100
1000
0001
1000
,
0001
0000
0100
0000
0010
1000
0010
0000
,
0100
0000
0000
0001
0000
1000
0000
0100
,
0000
0010
0000
0001
0000
1000
0000
0000
,
0010
0000
0000
0100
0000
0001
0000
1000
,
0000
0100
0000
0010
0000
0001
0000
0000
,
1000
0000
0000
0001
0000
0100
0000
0010
,
0000
1000
0000
0100
0000
0010
0000
0000
,
0001
0000
0000
1000
0000
0001
0000
0010
,
0000
0100
0000
1000
0000
0010
0000
0000
,
0100
0000
0001
0100
0000
0010
0000
1000
,
0000
0100
0000
0010
0000
0001
0000
0000
,
1000
0000
0100
1000
0000
0001
0000
0010
,
0000
0001
0000
1000
0000
0010
0000
0000
,
0100
0000
0001
0100
0000
0010
0000
1000
,
0000
0100
0000
0010
0000
0001
0000
0000
,
1000
0000
0001
0010
0000
0100
0000
1000
,
0000
0010
0000
0100
0000
0001
0000
0000
,
0100
0001
0100
0001
0000
0000
0100
0001
,
0100
0001
0000
0000
0100
0001
0100
0000
,
0001
0100
0001
0100
0000
0000
0001
0000
,
1000
0100
0010
0001
,
1000
0100
1000
0100
0000
0000
1000
0100
,
1000
0100
0000
0000
1000
0100
1000
0000
,
0100
1000
0100
1000
0000
0000
0100
1000
,
0100
1000
0000
0000
0010
0100
0001
0000
,
2000
0000
0000
0000
0000
0000
3001
0200
,
0000
0000
0000
0000
0000
0000
0310
2000
,
0000
0000
0000
0000
0000
0000
3100
0020
,
0000
0032
0000
0023
0000
0230
0000
0000
,
1300
0001
1000
0001
1000
0001
1000
0001
,
0100
0010
0100
0010
0100
0010
0100
0010
,
1000
0001
1000
0001
1000
0001
1000
0001
,
0010
0100
0010
0100
1000
0001
1000
0001
,
0100
0000
0110
0000
0000
1010
0000
0000
,
1001
0000
0000
1100
0000
1000
0100
0010
,
0001
1000
0001
0000
0000
0010
0000
0000
,
0100
0000
0000
1000
0000
0000
0010
0000
,
0100
0000
0110
0000
0000
1001
0000
0000
,
1100
0000
0000
0011
0000
0000
0001
0010
,
0100
1000
0001
0000
0000
0100
0000
0000
,
0010
0000
0000
0100
0000
0010
1000
0010
,
1000
0000
0010
0000
0000
0100
0000
0000
,
0001
0000
0000
1000
0000
0100
0010
0001
,
0000
0000
0011
0000
0000
0110
0000
0000
,
1100
0000
0000
1001
0000
1000
0010
0100
,
0001
0000
0100
0000
0010
1000
0010
0000
,
1000
0000
0100
0010
0001
0000
0010
0000
,
0100
0000
1000
0000
0001
0100
0001
0000
,
0100
0010
0000
1000
0000
0001
0100
0010
;

//---------------dance-single - ----------------
#NOTES:
     dance-single:
     Renard:
     Easy:
     2:
     0.262,0.260,0.019,0.039,0.000: // measure 1
0000
0000
0000
0000
,  // measure 2
0000
0000
0000
0000
,  // measure 3
0000
0000
0000
0000
,  // measure 4
0000
0000
0000
0000
,  // measure 5
1000
1000
1000
1000
,  // measure 6
0001
1000
0001
1000
,  // measure 7
0001
0001
0001
0001
,  // measure 8
1000
0001
1000
0001
,  // measure 9
1000
1000
1000
1000
,  // measure 10
0001
1000
0001
1000
,  // measure 11
0001
0001
0001
0001
,  // measure 12
1000
0001
1000
0001
,  // measure 13
0100
0000
0100
0010
,  // measure 14
1000
0100
0010
0001
,  // measure 15
0010
0000
0010
0100
,  // measure 16
1000
0010
0100
0001
,  // measure 17
0100
0000
0100
0001
,  // measure 18
1000
0100
0010
0001
,  // measure 19
0010
0000
0010
0100
,  // measure 20
1000
0010
0100
0001
,  // measure 21
0100
0000
0100
0001
,  // measure 22
1000
0100
1000
0001
,  // measure 23
1000
0000
1000
0001
,  // measure 24
0010
0001
1000
0010
,  // measure 25
1000
0000
1000
0001
,  // measure 26
1000
0001
1000
0001
,  // measure 27
0100
0000
0100
0010
,  // measure 28
0100
0010
0100
0010
,  // measure 29
1000
0000
0010
0000
,  // measure 30
0100
0000
0001
1000
,  // measure 31
0100
0000
0010
0000
,  // measure 32
0001
0000
0010
0100
,  // measure 33
1000
0000
0001
0000
,  // measure 34
0100
0000
0010
1000
,  // measure 35
0010
0000
1000
0000
,  // measure 36
0001
0000
0100
0001
,  // measure 37
1000
0000
0000
0000
,  // measure 38
0100
0000
0000
0000
,  // measure 39
0010
0000
0000
0000
,  // measure 40
0001
0000
0001
0000
,  // measure 41
1000
1000
1000
1000
,  // measure 42
0100
0100
0100
0100
,  // measure 43
0010
0010
0010
0010
,  // measure 44
0001
0001
0001
0001
,  // measure 45
1000
0100
1000
0100
,  // measure 46
1000
0100
2000
0000
,  // measure 47
3001
0010
0001
0010
,  // measure 48
0001
0010
0002
0000
,  // measure 49
0103
0001
0100
0001
,  // measure 50
0100
0001
0200
0000
,  // measure 51
0310
1000
0010
1000
,  // measure 52
0010
0000
1000
0000
,  // measure 53
0001
0100
0001
1000
,  // measure 54
0100
0010
0002
0000
,  // measure 55
0013
0100
1000
0010
,  // measure 56
0100
0001
1000
0000
,  // measure 57
0100
0010
0000
0001
,  // measure 58
0010
0100
1000
0010
,  // measure 59
0100
0001
0100
0010
,  // measure 60
1000
0000
0000
1001
0000
0000
0000
0110
;
