#TITLE:Forza Azzurri;
#SUBTITLE:;
#ARTIST:Cranky;
#TITLETRANSLIT:;
#SUBTITLETRANSLIT:;
#ARTISTTRANSLIT:;
#CREDIT:;
#BANNER:forza.png;
#BACKGROUND:forza-bg.png;
#LYRICSPATH:;
#CDTITLE:;
#MUSIC:forza.ogg;
#OFFSET:0.000;
#SAMPLESTART:26.571;
#SAMPLELENGTH:12.000;
#SELECTABLE:YES;
#BPMS:0.000=160.000,36.000=163.300,38.000=163.080,40.000=165.000;
#STOPS:;
#BGCHANGES:;

//---------------dance-single - Renard----------------
#NOTES:
     dance-single:
     Renard:
     Challenge:
     10:
     0.798,0.871,0.809,0.018,0.522:
0000
0000
0000
0000
,
0000
0000
0000
0000
,
0000
0000
0000
0000
,
0000
0000
0000
0000
,
0001
0000
0000
1000
0000
0100
0000
1000
0100
0000
1000
0000
0000
0010
0000
0100
,
0010
0000
0100
0000
0000
0001
0000
0100
0001
0000
0100
0000
0000
0001
0000
0010
,
0100
0000
0010
0000
0000
0100
0000
1000
0100
0000
1000
0000
0000
0010
0000
1000
,
0010
0000
1000
0000
0000
0010
0000
0100
0001
0000
0100
0000
0000
0001
0000
0100
,
0001
0100
0010
1000
0100
0010
0001
0010
,
1100
0000
0000
1010
0000
0000
1001
0000
0000
0000
0100
0000
1000
0000
0010
0000
,
1000
0000
0000
1000
0010
0000
0100
0000
0001
0000
0010
0100
0010
0000
0100
0000
,
1000
0000
0000
1000
0010
0000
0100
0000
0001
0000
1000
0001
1000
0000
0001
0000
,
0101
0000
0000
0011
0000
0000
1001
0000
0000
0000
0001
0100
0010
0000
1000
0000
,
1100
0000
0000
1010
0000
0000
1001
0000
0000
0000
1000
0100
0010
0000
0001
0000
,
0001
0000
0000
0011
0000
0000
1100
0000
0000
0000
1000
0010
1000
0000
0010
0000
,
0100
0000
0000
0100
0001
0000
0100
0000
0000
0000
0010
1000
0010
0000
1000
0000
,
1100
0000
0000
1010
0000
0000
1001
0000
0000
0000
1010
0000
1100
0000
1100
0000
,
1001
0000
0000
1010
0000
0000
1100
0000
0000
0000
1100
0000
1010
0000
1010
0000
,
0101
0000
0101
0000
0000
0000
0001
0010
0100
0000
1000
0000
1001
0000
0000
0000
,
1010
0000
1001
0000
1100
0000
0011
0011
,
0000
0000
0010
0100
1000
0000
0010
0000
1010
0000
0000
0000
1001
0000
0000
0000
,
1100
0000
0000
0000
1001
0000
0001
0100
0010
0000
1000
0000
0100
0000
1000
0000
,
1001
0000
0000
0001
0100
0000
0000
0000
0010
0000
0000
0000
1001
0000
1001
0000
,
0000
0000
0010
0100
0110
0000
0110
0000
0000
0000
0000
0000
0000
0000
0000
0000
,
0010
0000
1000
0000
0001
0000
0100
0001
0000
0001
0100
0000
0010
0000
1000
0000
,
0100
0010
0001
0010
0100
1000
0001
0100
,
0010
0000
1000
0000
0100
0000
0010
0100
0000
0100
1000
0000
0010
0000
0100
0000
,
0001
0100
0001
0100
0001
0000
0100
0000
0010
0100
0010
0100
0010
0000
0100
0000
,
0010
0000
1000
0000
0100
0000
0010
0001
0000
0001
0010
0000
0100
0000
1000
0000
,
0001
0100
0010
1000
0100
0010
0001
0010
,
0100
0000
0100
0000
1000
0000
0010
0100
0000
0100
0001
0000
0100
0000
0010
0000
,
1000
0000
0010
1000
0010
0000
1000
0000
0001
0000
0100
0001
0100
0000
0001
0000
,
0001
0000
1000
0100
0000
1000
0100
0000
0010
0000
0001
0010
0000
0001
0010
0000
,
0100
0000
1000
0100
0000
1000
0100
0000
1000
0000
0010
1000
0000
0010
1000
0000
,
0001
0000
0100
0001
0000
0100
0001
0000
1000
0000
0001
1000
0000
0001
1000
0000
,
0100
0000
1000
0100
0000
1000
0100
0000
0010
0000
0100
0010
0000
0100
0010
0000
,
0001
0000
0010
0001
0000
0010
0001
0000
1000
0000
0001
1000
0000
0001
1000
0000
,
0001
0000
0100
0001
0000
0100
0001
0000
0100
0000
0010
0100
0000
0010
0100
0000
,
0010
0000
1000
0010
0000
1000
0010
0000
1000
0000
0001
1000
0000
0001
1000
0000
,
0001
0000
0100
0001
0000
0100
0001
0000
0100
0000
0010
0100
0000
0010
0100
0000
,
0110
0000
0000
1010
0000
0000
1001
0000
0000
0000
0001
0000
0100
0000
0010
0000
,
1010
0000
0000
1100
0000
0000
1001
0000
0000
0000
0001
1000
0100
0000
1000
0000
,
0001
0000
0000
0010
0000
0000
0100
0000
0000
0000
1000
0000
0010
0000
0100
0000
,
0001
0000
0000
0100
0000
0000
0010
0000
0000
0000
1000
0000
0100
0000
0010
0000
,
0011
0000
0000
0101
0000
0000
1001
0000
0000
0000
0001
0100
0010
0000
1000
0000
,
1010
0000
0000
1100
0000
0000
1001
0000
0000
0000
0001
0000
1000
0000
0100
0000
,
0010
0001
0010
0100
1000
0001
0100
0010
,
0010
0000
0000
0010
1000
0000
0000
1000
0100
0000
0010
0000
0001
0000
0010
0000
,
0011
0000
0100
1000
1010
0000
0010
0100
,
0101
0000
0001
0010
0110
0000
0100
1000
,
1010
0000
0010
0100
0101
0000
0001
0010
,
0110
0000
0100
1000
1010
0000
0010
0100
,
0101
0000
0001
0100
0110
0000
0010
1000
,
1010
0000
1000
0100
1100
0000
0100
1000
,
0010
0000
0000
0010
1000
0000
0000
1000
0001
0000
0000
0001
0100
0000
0010
0000
,
0110
0000
0000
0101
0000
0000
0110
0000
0000
0000
1010
0000
1001
0000
1100
0000
,
1000
0000
0001
0100
0001
0000
0000
0000
1000
0000
0100
0000
0010
0000
0001
0000
,
0010
0100
1000
0001
0010
0100
1000
0001
,
1000
0000
0100
1000
0100
0000
0000
0000
1000
0000
0010
0000
0100
0000
0001
0000
,
1000
0000
0001
0100
0001
0000
0100
0010
0100
0000
0010
1000
0010
0000
1000
0000
,
0100
0000
0010
0001
0010
0000
0001
0000
0010
0000
0100
0000
1000
0000
0001
0000
,
0100
0000
0010
0100
0010
0000
0100
0000
0010
0000
1000
0000
0100
0000
0010
0000
,
0001
0000
1000
0001
1000
0000
0001
0000
0100
0000
0001
0100
0001
0000
0100
0000
,
0001
0000
0010
0001
0010
0000
0001
0000
0010
0000
0001
0000
0010
0000
0000
0000
,
0011
0000
0110
0000
0000
0000
0100
1000
0010
0000
1000
0000
1010
0000
0000
0000
,
1001
0000
1100
0000
0001
0010
0100
1000
,
0000
0000
0001
1000
0001
0000
0100
0000
0101
0000
0000
0000
1010
0000
0000
0000
,
1001
0000
0000
0000
1100
0000
0100
1000
0010
0000
0100
0000
0001
0000
1000
0000
,
1001
0000
0000
0001
0100
0000
0000
0000
1010
0000
0000
0000
1001
0000
1100
0000
,
0000
0000
0100
1000
0010
0000
1000
0000
1001
0000
1001
0000
0000
0000
0001
0100
,
0001
0000
0010
0000
0011
0000
0000
0010
0100
0000
1000
0000
0001
0000
0000
0100
,
0010
1000
1001
0000
0110
0000
2002
0000
,
0000
0000
0000
0000
,
0000
0000
0000
3003
;

//---------------dance-single - Renard----------------
#NOTES:
     dance-single:
     Renard:
     Hard:
     9:
     0.604,0.619,0.491,0.000,0.095:
0000
0000
0000
0000
,
0000
0000
0000
0000
,
0000
0000
0000
0000
,
0000
0000
0000
0000
,
0000
0000
0000
0000
,
0000
0000
0000
0000
,
0000
0000
0000
0000
,
0000
0000
0000
0000
,
1000
0100
0010
0001
0010
0100
1000
0010
,
0100
0100
1001
0110
,
1001
0000
1010
0000
0100
0001
0010
0100
,
1000
0000
0011
0000
0100
1000
0010
0100
,
0001
0000
1010
0000
1000
0100
0010
0001
,
0010
0000
0110
0000
0100
1000
0010
0100
,
0001
0000
1010
0000
1000
0100
0010
0001
,
1000
0000
0101
0000
0001
0100
0010
1000
,
1000
0000
1000
0001
0001
0000
0001
0100
,
0100
0010
1000
0001
0100
0010
1000
0001
,
0100
0010
0000
0010
1000
0001
0101
0000
,
1001
0000
1010
0000
1001
0000
1000
0100
,
0000
0100
0010
0001
1001
0000
1010
0000
,
0101
0000
0001
1000
0100
0010
0001
0010
,
0100
0000
1100
0000
1010
0000
1001
1001
,
0000
0110
0110
0110
0000
0000
0000
0000
,
0010
0000
1010
0000
1000
0010
0100
0000
,
0001
0011
0010
0110
,
0100
0000
1100
0000
1000
0010
0100
0000
,
0001
0100
0010
1000
0100
0010
0001
1000
,
0010
0000
0110
0000
0010
0100
0001
0000
,
0010
0000
0110
0000
0100
1000
0010
0100
,
0001
1000
0100
0010
0001
1000
0001
0100
,
0010
1000
0100
0010
0001
1000
0001
0000
,
0100
0000
0100
0010
1000
0000
1000
0010
,
0100
0000
0100
0010
1000
0010
0100
0001
,
0010
0000
0010
0100
1000
0000
1000
0100
,
0010
0000
0010
0100
1000
0100
0010
0001
,
1000
0000
0001
0100
0001
0000
1000
0010
,
1000
0000
0100
0010
0001
0000
0010
0100
,
1000
0000
0001
0100
0010
0000
1000
0010
,
0100
0000
0001
0010
0100
1000
0010
0100
,
0001
0000
0110
0000
0010
1000
0100
0010
,
0001
0000
0110
0000
0100
1000
0010
0100
,
0010
0000
0101
0000
0001
0100
0010
1000
,
0100
0000
0101
0000
0001
0100
0010
1000
,
0100
0000
1100
0000
1000
0100
0010
0001
,
1000
0000
1100
0000
0100
1000
0010
0100
,
0001
0010
0100
1000
0010
0100
0001
0100
,
0010
0000
0110
0000
1001
1001
0110
0000
,
0010
1000
0101
0000
0001
0100
0010
1000
,
0100
0000
0100
0010
0001
0000
0001
0100
,
0100
0000
0010
1000
0100
0000
0100
0010
,
0010
0000
0001
1000
0010
0000
0100
0001
,
0100
0000
0010
0100
0010
0000
0010
1000
,
0010
0000
0010
0100
0010
0000
0010
0100
,
0001
0000
0000
0001
1000
0000
0000
1000
0010
0000
0000
0010
0100
0000
0000
0100
,
0010
0000
0000
1000
0000
0000
0001
0000
0000
0000
0100
0000
0010
0000
1000
0000
,
0100
0000
0000
0100
0010
0000
0001
0000
0010
0000
0100
0000
1000
0000
0010
0000
,
0100
0000
0000
0100
0001
0000
0100
0000
0010
0000
1000
0000
0100
0000
0010
0000
,
0001
0000
0000
0001
1000
0000
0010
0000
0100
0000
0001
0000
1000
0000
0010
0000
,
0100
0000
0001
0100
0001
0000
0001
1000
0001
0000
1000
0000
0100
0000
0010
0000
,
0001
0010
0100
1000
0010
0100
0001
0100
,
0010
0000
0000
0010
1000
0000
0001
0000
0100
0000
0000
0010
1000
0000
0100
0000
,
0010
0000
0001
0010
0001
0000
0010
0000
0100
0000
1000
0000
0001
0000
0100
0000
,
0010
0000
0100
0010
0100
0000
0010
0000
1000
0000
0100
0000
0010
0000
0000
0000
,
0011
0000
0011
0000
0000
0000
0010
0100
1000
0000
0100
0000
1000
0000
0000
0000
,
1010
0000
1010
0000
1010
0000
1000
0001
,
0000
0000
0100
0001
0100
0000
0001
0000
0010
0000
0000
0000
0011
0000
0000
0000
,
0110
0000
0000
0000
0100
0000
1000
0010
1000
0000
0010
0000
0100
0000
0001
0000
,
0010
0000
0000
0001
0010
0000
0000
0000
0001
0000
0000
0000
0110
0000
0110
0000
,
0000
0000
0010
0100
1000
0000
0010
0000
0110
0000
0110
0000
0000
0000
0100
0001
,
0010
0000
0100
0000
0010
0000
0000
0000
0110
0000
0000
0100
1000
0000
0010
0000
,
0100
0001
0100
0000
0110
0000
1001
0000
;

//---------------dance-single - Renard----------------
#NOTES:
     dance-single:
     Renard:
     Medium:
     6:
     0.402,0.522,0.191,0.000,0.000:
0000
0000
0000
0000
,
0000
0000
0000
0000
,
0000
0000
0000
0000
,
0000
0000
0000
0000
,
0000
0000
0000
0000
,
0000
0000
0000
0000
,
0000
0000
0000
0000
,
0000
0000
0000
0000
,
1000
0001
1000
0001
1000
0001
1000
0001
,
0100
0000
0100
0100
,
0010
0000
1000
0000
0010
1000
0010
0000
,
0100
0000
0001
0000
0100
0001
0100
0000
,
0001
1000
0100
0010
,
0001
0000
1000
0000
0001
0100
0001
0000
,
1000
0000
0100
0000
0010
0000
0001
0010
,
0001
0010
0100
1000
,
0010
0100
0001
0100
,
0010
0010
0010
0010
,
1000
0100
0000
1000
0100
0010
0001
0000
,
0001
0000
0001
0000
0001
0000
0001
0010
,
0000
0000
0001
0010
0100
0000
0100
0000
,
0100
0100
1000
0010
,
0100
0000
0010
0000
0100
0000
0001
0001
,
0000
0001
0001
0001
0000
0000
0000
0000
,
1000
1100
0000
1100
,
0010
0011
0000
0011
,
0001
0101
0000
0101
,
0010
1010
0000
1010
,
1000
0100
0010
0001
,
0001
0000
0010
0000
0100
0000
1000
0100
,
1000
0001
0010
0001
,
1000
0001
1000
0001
1000
0000
0001
0000
,
0100
0100
0010
0010
,
1000
0000
0001
0000
0100
0000
0001
1000
,
0001
0001
1000
1000
,
0100
0000
0010
0000
0001
0000
1000
0001
,
1000
0000
0001
0100
0001
0000
0100
0010
,
0100
0010
1000
0100
,
0010
0000
0100
0010
0100
0000
1000
0100
,
1000
0001
0100
0010
,
1000
1001
0000
0110
,
0000
1001
1001
0000
,
0001
0101
0000
0011
,
0000
0110
0110
0100
,
1000
0000
0010
0000
0100
0000
0001
0100
,
0001
0100
0010
1000
,
0100
0010
0001
0010
,
0100
1000
0001
0100
,
0010
0010
0010
0010
,
1000
1000
1000
0001
,
0100
0100
0001
0001
,
0010
0010
0100
0100
,
1000
1000
0001
0001
,
0100
0100
0010
0010
,
1000
0000
0010
0000
1000
0010
1000
0010
,
1000
0000
0000
0000
,
0001
0000
0101
0000
0001
1000
0100
1000
,
0100
1000
0100
1000
0100
0000
1000
0000
,
0001
0000
1100
0000
1000
0100
1000
0100
,
1000
0100
1000
0100
1000
0000
0001
0000
,
0001
0000
1100
0000
1000
0100
1000
0100
,
1000
0000
0100
0000
1000
0100
1000
0000
,
0001
0000
0011
0000
0001
0010
0001
0010
,
0001
0010
0001
0010
0001
0010
0001
0010
,
0001
0001
0001
1000
,
1000
1000
1000
0010
,
0010
0100
0001
0001
,
0001
0000
1000
0000
0100
0010
0001
0010
,
0100
0000
1000
0000
0001
0000
0100
0010
,
0000
0010
1000
0001
0100
0010
0000
1000
,
0001
0100
0010
0000
1000
0000
0001
0000
,
0100
0010
0001
1001
;

//---------------dance-single - Renard----------------
#NOTES:
     dance-single:
     Renard:
     Easy:
     2:
     0.213,0.293,0.045,0.000,0.000: // measure 1
0000
0000
0000
0000
,  // measure 2
0000
0000
0000
0000
,  // measure 3
0000
0000
0000
0000
,  // measure 4
0000
0000
0000
0000
,  // measure 5
0000
0000
0000
0000
,  // measure 6
0000
0000
0000
0000
,  // measure 7
0000
0000
0000
0000
,  // measure 8
0000
0000
0000
0000
,  // measure 9
0000
0000
0000
0000
,  // measure 10
1000
0001
1000
0001
,  // measure 11
0100
0000
0100
0000
,  // measure 12
0100
0010
1000
0000
,  // measure 13
0010
0000
0010
0000
,  // measure 14
0100
0001
0100
0000
,  // measure 15
0001
0000
0001
0001
,  // measure 16
0010
0100
0010
0000
,  // measure 17
0100
0000
0100
0100
,  // measure 18
1000
0001
1000
0000
,  // measure 19
0010
0000
0010
0100
,  // measure 20
0100
0100
0000
0001
,  // measure 21
0000
0001
1000
1000
,  // measure 22
1000
0001
0000
0100
,  // measure 23
0010
0100
0001
1000
,  // measure 24
0000
0001
1000
0000
,  // measure 25
0000
0000
0001
0000
,  // measure 26
0000
0000
1000
0001
,  // measure 27
0000
0000
0100
0000
,  // measure 28
0000
0000
0010
0100
,  // measure 29
0000
0000
0001
0000
,  // measure 30
0000
0000
1000
0100
,  // measure 31
0000
0000
0010
0000
,  // measure 32
0001
1000
0001
0100
,  // measure 33
0010
0010
0010
0000
,  // measure 34
0010
0000
0010
0000
,  // measure 35
0100
0100
0100
0000
,  // measure 36
0100
0000
0100
0000
,  // measure 37
0001
0001
0001
0000
,  // measure 38
0001
0000
0001
0000
,  // measure 39
1000
1000
1000
0000
,  // measure 40
1000
0000
1000
0000
,  // measure 41
0010
0000
1000
0000
,  // measure 42
0001
0000
0100
0000
,  // measure 43
0001
0000
1000
0000
,  // measure 44
0100
0000
0010
0000
,  // measure 45
0001
1000
0001
0000
,  // measure 46
0100
0010
0100
0000
,  // measure 47
0010
1000
0010
0100
,  // measure 48
0001
1000
0001
1000
,  // measure 49
0001
0000
0101
0000
,  // measure 50
0001
0000
1100
0000
,  // measure 51
0001
0000
0011
0000
,  // measure 52
0001
0000
1010
0000
,  // measure 53
0001
0001
0100
0000
,  // measure 54
0010
0000
1000
0000
,  // measure 55
0100
0000
0010
0000
,  // measure 56
0001
1000
0001
0000
,  // measure 57
0100
0000
0010
0000
,  // measure 58
1000
0000
0010
0000
,  // measure 59
0100
0001
0100
0000
,  // measure 60
0001
0000
0010
0000
,  // measure 61
0100
1000
0001
0000
,  // measure 62
0100
0000
0010
0000
,  // measure 63
1000
0000
0001
0000
,  // measure 64
0100
0001
1000
0000
,  // measure 65
0100
0000
0010
0000
,  // measure 66
0001
1000
0001
1000
,  // measure 67
0001
1000
0001
0000
,  // measure 68
0100
0000
0010
1000
,  // measure 69
0010
0000
0100
0001
,  // measure 70
0000
0001
1000
0000
,  // measure 71
0100
0010
0000
0010
,  // measure 72
0000
0100
0000
1001
;
