#TITLE:Forgive Me;
#SUBTITLE:;
#ARTIST:Infected Mushroom;
#TITLETRANSLIT:;
#SUBTITLETRANSLIT:;
#ARTISTTRANSLIT:;
#CREDIT:;
#BANNER:forgive.png;
#BACKGROUND:forgive-bg.png;
#LYRICSPATH:;
#CDTITLE:;
#MUSIC:forgive.ogg;
#OFFSET:0.000;
#SAMPLESTART:8.667;
#SAMPLELENGTH:12.000;
#SELECTABLE:YES;
#BPMS:0.000=110.000;
#STOPS:126.000=0.545
;

//---------------dance-single - Renard----------------
#NOTES:
     dance-single:
     Renard:
     Challenge:
     9:
     0.724,0.795,0.934,0.119,0.739:
0000
0000
0000
0000
,
0000
0000
0000
0000
,
0000
0000
0000
0000
,
0000
0000
0000
1011
,
1001
0000
0000
0000
0001
0000
0100
0010
0000
0110
0000
0010
1000
0000
0100
0000
,
1001
0000
0000
0000
1000
0000
0001
0100
0000
0010
1000
0000
1010
0000
0000
0000
,
1100
0000
0000
0000
1000
0000
0001
0010
0000
0011
0000
0010
0100
0000
0110
0000
,
1100
0000
1100
0000
1001
0000
0000
0000
0001
0100
0010
0000
0110
0000
0000
0000
,
1010
0000
0000
0000
1001
0000
1000
0100
0000
0100
0000
0010
0001
0000
0001
0000
,
0011
0000
0000
0000
0010
0000
0100
1000
0000
0001
0100
0000
0110
0000
0000
0000
,
0010
0000
1000
0000
0001
0000
0100
0010
0000
0110
0000
0010
0100
0000
0010
0100
,
0001
0000
0000
0000
0000
0000
0001
0000
0000
1000
0000
0000
0010
0000
0000
0000
0000
0000
1000
0000
0000
0010
0000
0000
1001
0000
0000
0000
0000
0000
0001
0000
1000
0000
0001
0000
0200
0000
0000
0000
0000
0000
0000
0000
0000
0000
0000
0000
,
0310
0000
0000
0000
1000
0010
0000
1010
0000
1001
0000
0000
1000
0100
0000
0110
,
0000
0011
0000
0000
0010
0000
0100
1000
0000
1010
0000
0000
0110
0000
0010
0000
,
1000
0000
0001
0000
0100
0010
0000
1000
0000
1100
0000
0000
1000
0100
0000
0000
,
0010
0001
0000
0011
0000
0100
2000
0002
0000
0000
3003
0000
0110
0000
1001
0000
,
0101
0000
0000
0000
0110
0000
0000
0010
0000
1000
0100
0000
1000
0000
0000
0000
,
0001
0000
0010
0000
0011
0000
0010
0100
0000
1000
0010
0000
0110
0000
0101
0000
,
0200
0000
0000
0000
0010
0000
0000
1000
0000
1000
0300
0000
0110
0000
0000
0000
,
0100
0000
0001
0000
0010
0000
0100
1000
0000
0110
0000
0000
0001
0010
0100
1000
,
0001
0000
0100
0000
0110
0000
0010
1000
0000
0100
0010
0000
0110
0000
0010
0100
,
1000
0000
0001
0000
0101
0000
0001
0100
0000
0010
1000
0000
1010
0000
0000
0000
,
1100
0000
0001
0000
0010
0000
0100
1000
0000
0001
0100
0000
0101
0000
0000
0000
,
1001
0000
0000
0000
1000
0000
0100
0010
0000
0001
0010
0000
0011
0000
0010
0000
,
0100
0000
0000
0000
1000
0000
0000
0001
0000
0100
0010
0000
0110
0000
0000
0000
,
0010
0000
1000
0100
1000
0000
1000
0001
0000
0001
0010
0000
0100
0000
1000
0000
,
0001
0000
0100
0000
0110
0000
0010
1000
0000
0001
0100
0000
0110
0000
0010
1000
,
0100
0000
0010
0000
0001
0000
0010
0100
0000
1000
0001
0000
1001
0000
0001
1000
,
0001
0100
0010
1000
0100
0010
0001
0010
0100
1000
0010
0100
0001
0100
0010
1000
,
0100
1000
0001
0010
0001
1000
0010
0100
0001
0010
0100
1000
0001
0100
0010
0100
,
0010
1000
0100
1000
0001
0010
0100
1000
0001
0100
0010
1000
0100
0010
0001
1000
,
0001
0000
0001
0100
0000
0100
0010
0000
0110
0000
1001
0000
0001
0100
0010
1000
,
0100
0010
0001
0100
0010
0100
0001
0100
0010
1000
0100
0010
0001
0010
0100
1000
,
0010
0100
0010
1000
0100
0010
1000
0010
0100
0010
0001
0010
0100
1000
0100
0010
,
0001
0010
0100
0001
0100
0010
0100
1000
0010
0100
0001
0000
1000
0001
1000
1000
,
0001
0000
0000
1000
0000
0000
1000
0000
0000
0000
0000
0000
0001
0000
0000
0001
0000
0000
1000
0000
0001
0000
1000
0000
0002
0000
0000
0000
0000
0000
0000
0000
0000
0000
0000
0000
1003
0000
0000
0000
0000
0000
0000
0000
0000
0000
0000
0000
,
0100
1000
0000
1010
0000
1001
0000
0000
1000
0100
0000
0010
0000
0001
0010
0000
,
0011
0000
0000
0010
0000
0100
1000
0000
0001
0000
0100
0000
0010
0000
1000
0000
,
0001
0100
0000
0110
0000
0000
0010
0000
1000
0000
0100
0000
0010
0000
0001
0000
,
0010
0100
0010
0100
0000
0100
1000
0000
0110
0000
0010
0100
0001
0000
0000
0000
,
0101
0000
0000
0110
0000
0010
1000
0000
0100
0000
0010
0001
0010
0000
0000
0000
,
0110
0000
0000
0100
0000
1000
0010
0000
0101
0000
0000
0000
0100
0000
0000
0000
,
0210
0000
0002
0300
0020
0003
0200
0000
0000
0030
2000
0300
0020
3000
0200
0030
,
0002
0300
2000
0000
0000
0000
0000
3003
0001
1000
0100
0010
1001
0000
1001
0000
,
0010
0000
1010
1010
0000
1010
1010
0000
1000
0000
0100
0010
0001
0000
0011
0000
,
0110
0000
0110
0110
0000
1100
1100
0000
1001
0000
0001
0100
0010
0000
1000
0000
,
1001
0000
0110
0110
0000
1001
1001
0000
1100
0000
1000
0100
0010
0000
0001
0000
,
0011
0000
0110
0110
0000
1100
1100
0000
1001
0000
0001
0100
0010
0000
1000
0000
,
1001
0000
0110
0110
0000
1001
1001
0000
0110
0000
0010
1000
0100
0000
0010
0000
,
0011
0000
0110
0110
0000
1100
1100
0000
1001
0000
0001
1000
0001
0000
0101
0000
,
0101
0000
0110
0110
0000
1010
1010
0000
1010
0000
1000
0100
0010
0000
0001
0000
,
0101
0000
0110
0110
0000
1010
1010
0000
0001
1000
0100
0010
0001
0000
0000
0000
,
0000
0000
0010
0100
0000
1000
0000
0010
0100
0000
0001
0000
1000
0000
0001
1000
,
0000
1000
0001
0000
0101
0000
0000
0000
1011
0000
0000
0000
0000
0000
0000
0000
;

//---------------dance-single - Renard----------------
#NOTES:
     dance-single:
     Renard:
     Hard:
     8:
     0.533,0.500,0.280,0.042,0.526:
0000
0000
0000
0000
,
0000
0000
0000
0000
,
0000
0000
0000
0000
,
0000
0000
0000
1001
,
1001
0000
0000
0000
1000
0000
0010
0100
0000
0010
0000
0100
0001
0000
0010
0000
,
1001
0000
0000
0000
0001
0000
1000
0010
0000
0100
0001
0000
0101
0000
0000
0000
,
0011
0000
0000
0000
0001
0000
1000
0100
0000
1000
0000
0100
0010
0000
0100
0000
,
0010
0000
0001
0000
1001
0000
0000
1000
0000
0010
0100
0000
0110
0000
0000
0000
,
0101
0000
0000
0000
1001
0000
0001
0010
0000
0010
0000
0100
1000
0000
1000
0000
,
1100
0000
0000
0000
0100
0000
0010
0001
0000
1000
0010
0000
0110
0000
0000
0000
,
0100
0000
0001
0000
1000
0000
0010
0100
0000
0010
0000
0100
0010
0000
0100
0000
,
0001
0001
1000
1000
1001
0000
0020
0000
,
0130
0000
0000
0000
0001
0100
0000
0001
0000
1000
0000
0000
0001
0010
0000
0100
,
0000
1000
0000
0000
0100
0000
0010
0001
0000
0001
0010
0000
0100
0000
0010
0000
,
0001
0000
1000
0000
0010
0100
0000
0001
0000
0010
0000
0000
0001
0010
0000
0000
,
0100
1000
0000
0001
0000
2000
0000
0002
0000
0000
3003
0000
0010
0000
1000
0000
,
1010
0000
0000
0000
0110
0000
0000
0100
0000
0001
0010
0000
0001
0000
0000
0000
,
1000
0000
0100
0000
1000
0000
0100
0010
0000
0001
0100
0000
0010
0000
1000
0000
,
0010
0000
0000
0000
0110
0000
0000
0010
0000
0100
0000
0000
0110
0000
0000
0000
,
0010
0000
1000
0000
0100
0000
0010
0001
0000
0001
0000
0000
1000
0000
0001
0000
,
1000
0000
0010
0000
0100
0000
0001
1000
0000
0010
0000
0000
0110
0000
0000
0000
,
1001
0000
0000
0000
0010
0000
1000
0010
0000
0100
0001
0000
0101
0000
0000
0000
,
0011
0000
1000
0000
0100
0000
0010
0001
0000
1000
0010
0000
1000
0000
0000
0000
,
1001
0000
0000
0000
0001
0000
0010
0100
0000
1000
0100
0000
1000
0000
0100
0000
,
0010
0000
0000
0000
0001
0000
0000
1000
0000
0010
0100
0000
0010
0000
0000
0000
,
0100
0000
0001
0000
1000
0000
0001
1000
0000
1000
0100
0000
0010
0000
0001
0000
,
1000
0000
0010
0000
0100
0000
0001
1000
0000
1000
0010
0000
0100
0000
0001
0000
,
0010
0000
0100
0000
1000
0000
0100
0010
0000
0001
1000
0000
1001
0000
0000
0000
,
1000
0000
1000
0001
0000
0001
0100
0000
0100
0010
0000
0010
0100
0000
0100
0001
,
0000
0001
0010
0000
0010
0100
0000
0100
1000
0000
1000
0010
0000
0010
0100
0000
,
0100
0001
0000
0001
0010
0000
0010
0100
0000
0100
1000
0000
1000
0010
0000
0010
,
0100
0000
0000
0000
0000
0000
0000
0000
0110
0000
1001
0000
1000
0001
1000
0000
,
0001
0000
0100
0010
0100
0000
0010
0000
1000
0010
1000
0000
0010
0000
0100
0001
,
0100
0000
0001
0000
0010
0001
0010
0000
0100
0000
1000
0000
0001
0100
0001
0000
,
0100
0000
0010
1000
0010
0000
1000
0000
0100
1000
0100
0000
1000
0001
1000
0001
,
1000
0001
1000
0000
0001
0000
0000
0000
0110
0000
0000
0000
0010
0000
0000
0000
,
1000
0100
0000
0010
0000
0001
0000
0000
0010
0000
0100
1000
0000
1000
0100
0000
,
1000
0000
0000
0100
0000
0010
0001
0000
1000
0000
0010
0000
0100
0000
0001
0000
,
1000
0010
0000
0100
0000
0000
0100
0000
0001
0000
0010
0000
0100
0000
1000
0000
,
0100
0010
0000
0010
0000
0000
0000
0000
0110
0000
0100
0000
1000
0000
0000
0000
,
1010
0000
0000
0010
0000
0100
0001
0000
0010
0000
0100
0000
1000
0000
0000
0000
,
0110
0000
0000
0100
0000
0001
0000
0000
1010
0000
0000
0000
0010
0000
0000
0000
,
1000
0001
0100
0020
0000
1030
0100
0010
,
0001
0020
0000
0130
1001
0000
0001
0100
,
0010
0000
1000
0010
0000
1000
0010
0000
1000
0000
0100
0000
0010
0000
0001
0000
,
1000
0000
0001
0100
0000
0001
0100
0000
0010
0000
1000
0000
0100
0000
0010
0000
,
0001
0000
1000
0010
0000
1000
0010
0000
0100
0000
0001
0000
0010
0000
0100
0000
,
1000
0000
0100
0010
0000
0100
0010
0000
0110
0000
0000
0000
0010
0000
0001
0000
,
1000
0000
0010
0100
0000
0001
0100
0000
0010
0000
1000
0000
0100
0000
0010
0000
,
0001
0000
0010
0100
0000
1000
0001
0000
0010
0000
0100
1000
0010
0000
0100
0000
,
0001
0000
0100
0010
0000
1000
0001
0000
0100
0000
0010
0100
0010
0000
1000
0000
,
0100
0000
0010
0001
0000
0010
0000
0100
1000
0000
0001
0000
0100
0000
0000
0000
,
0010
0000
1000
0010
0000
1000
0000
0001
0100
0000
0010
0000
1000
0000
0100
0010
,
0000
0001
0010
0000
0110
0000
0000
0000
1001
0000
0000
0000
0000
0000
0000
0000
;

//---------------dance-single - Renard----------------
#NOTES:
     dance-single:
     Renard:
     Medium:
     6:
     0.306,0.341,0.059,0.008,0.229:
0000
0000
0000
0000
,
0000
0000
0000
0000
,
0000
0000
0000
0000
,
0000
0000
0000
0000
,
1000
0000
0000
0000
0000
0000
0000
0001
0000
0100
0000
0000
0001
0000
0000
0000
,
1000
0100
0010
0001
,
1000
0000
0000
0000
0001
0000
0000
1000
0000
0010
0000
0000
0100
0000
0000
0000
,
0001
1000
0100
0010
,
0001
0000
0000
0000
0000
0000
0000
1000
0000
0001
0000
0000
0100
0000
0001
0000
,
1000
0100
0010
0001
,
1000
0000
0000
0000
0001
0000
0000
0100
0000
0001
0000
0000
1000
0000
0100
0000
,
0010
0001
0110
0000
,
0010
0000
0000
0000
1000
0000
0000
0010
0000
1000
0000
0000
0001
0000
0000
0100
,
0000
0001
0000
0000
0010
0000
0000
0000
0001
0000
0000
0000
0010
0000
0000
0000
,
0100
0000
0000
0000
1000
0000
0000
0010
0000
0100
0000
0000
0001
0000
0000
0000
,
1000
0000
0000
0100
0000
0000
0000
0010
0000
0000
0000
0000
0001
0000
0000
0000
,
0010
0000
0000
0000
0100
0000
0000
1000
0000
0000
0010
0000
0000
0000
0000
0000
,
0100
0000
0001
0000
0010
0000
0001
0010
,
0000
0100
0000
0000
1000
0000
0010
0000
,
0100
0000
0001
0000
1000
0000
0100
0010
,
0001
0000
0000
0000
1000
0000
0000
0001
0000
0100
0000
0000
0010
0000
0000
1000
,
0000
0100
0000
0010
0000
0000
0000
0000
0001
0000
0000
0000
0010
0000
0000
0000
,
0100
0000
0000
0000
1000
0000
0000
0001
0000
0100
0000
0000
0010
0000
0000
0000
,
1000
0000
0000
0001
0000
0100
0000
0001
0000
0000
0000
0000
1000
0000
0100
0000
,
0010
0000
0000
0000
0001
0000
0000
0010
0000
0000
0100
0000
0000
0000
0000
0000
,
1000
0000
0010
0000
0100
0000
0001
1000
,
0001
0110
0000
1001
,
0100
1001
0000
0110
,
0010
0000
1000
0000
0001
1000
0100
0010
,
0001
0000
1000
0000
0001
0010
0100
1000
,
0001
0100
0010
1000
,
0001
0000
1000
0001
0000
0001
1000
0000
0010
0000
0000
0000
0100
0000
0000
0000
,
0001
0000
0000
1000
0000
0100
1000
0000
0001
0000
0000
0000
1000
0000
0000
0000
,
0001
0000
0000
0010
0000
0001
1000
0000
0001
0000
0000
0000
0100
0000
0000
0000
,
0010
0000
0000
1000
0000
0001
1000
0000
0001
0000
1000
0000
0010
0000
0100
0000
,
0001
0100
0010
0000
1001
0000
1000
0000
,
0001
0000
0000
0100
0000
0001
0000
0000
1000
0000
0000
0100
0000
0000
0010
0000
,
0000
0000
0001
0000
0010
0100
1000
0000
,
0001
0000
0000
0100
0000
0000
0000
0000
0001
0000
0000
0000
1000
0000
0000
0000
,
0100
0000
0000
0010
0000
0000
0000
0000
0001
0000
0010
0000
0100
0000
0000
0000
,
1000
0000
0000
0001
0000
0000
0100
0000
0001
0000
0000
0000
1000
0000
0000
0000
,
0100
0000
0010
0000
0001
0010
0000
0200
,
0000
1300
0010
0100
0000
0001
1000
0001
,
0100
0010
0000
0000
1000
0000
0010
0100
,
0000
0000
0000
0001
0000
0000
1000
0000
0000
0000
0100
0000
0010
0000
0001
0000
,
0000
0000
0000
1000
0000
0000
0001
0000
0000
0000
0100
0000
0010
0000
1000
0000
,
0000
0000
0000
0010
0000
0000
0100
0000
0000
0000
0001
0000
1000
0000
0001
0000
,
0000
0000
0000
0100
0000
0000
0010
0000
1000
0000
0000
0000
0010
0000
0000
0000
,
0000
0000
0000
0100
0000
0001
0000
0000
1000
0000
0100
0000
0010
0000
0000
0000
,
0001
1000
0010
0100
,
0001
0000
0000
1000
0000
0001
0000
0000
1000
0000
0100
0000
0010
0000
0000
0000
,
0001
1000
0001
0100
,
0010
0000
0000
1000
0000
0010
0000
0000
1000
0000
0010
0000
0100
0000
0001
1000
,
0000
0001
0000
0000
1000
0000
0000
0000
1001
0000
0000
0000
0000
0000
0000
0000
;

//---------------dance-single - ----------------
#NOTES:
     dance-single:
     Renard:
     Easy:
     2:
     0.154,0.182,0.034,0.042,0.000: // measure 1
0000
0000
0000
0000
,  // measure 2
0000
0000
0000
0000
,  // measure 3
0000
0000
0000
0000
,  // measure 4
0000
0000
0000
1001
,  // measure 5
1000
0000
0000
0000
0001
0000
0100
0001
,  // measure 6
0100
0000
0000
0000
,  // measure 7
0001
0000
0000
0000
1000
0000
0100
1000
,  // measure 8
0100
0000
0000
0000
,  // measure 9
1000
0000
0000
0000
0010
0000
0100
0001
,  // measure 10
0100
0000
0000
0000
,  // measure 11
0001
0000
0000
0000
0010
0000
0100
1000
,  // measure 12
0100
0000
1001
0000
,  // measure 13
1000
0000
0001
0000
,  // measure 14
0100
0100
0100
0000
,  // measure 15
0010
0000
1000
0000
,  // measure 16
0001
1000
0001
0000
,  // measure 17
1000
0000
1000
0000
,  // measure 18
0100
0000
0010
0000
,  // measure 19
0001
0000
0001
1000
,  // measure 20
0001
0000
0001
0000
,  // measure 21
0100
0000
0100
0000
,  // measure 22
0100
0010
0100
0000
,  // measure 23
0001
0000
0001
0000
,  // measure 24
0001
1000
0001
0000
,  // measure 25
1000
0000
1000
0000
,  // measure 26
0100
0010
0100
0000
,  // measure 27
0010
0000
0001
0000
,  // measure 28
1000
0001
1000
0001
,  // measure 29
0100
0000
0100
0000
,  // measure 30
0200
0000
0000
0000
,  // measure 31
0310
0000
0010
0000
,  // measure 32
0020
0000
0030
0100
,  // measure 33
0000
0100
0000
0100
,  // measure 34
0100
0100
0000
0010
,  // measure 35
0000
0010
0000
1000
,  // measure 36
0001
1000
1001
0001
,  // measure 37
0000
0001
0000
0001
,  // measure 38
0000
0001
0001
0100
,  // measure 39
0000
0010
0000
0100
,  // measure 40
0010
0100
0000
1000
,  // measure 41
0000
1000
0000
1000
,  // measure 42
0000
1000
1000
0002
,  // measure 43
0000
1003
0000
0020
,  // measure 44
0000
0130
0100
0001
,  // measure 45
0000
0001
0000
1000
,  // measure 46
0000
0000
0000
0010
,  // measure 47
0000
0010
0000
0010
,  // measure 48
0000
0000
0100
0001
,  // measure 49
0000
1000
0000
0100
,  // measure 50
0010
0001
0000
1000
,  // measure 51
0001
0200
0000
0000
,  // measure 52
0000
0000
0000
0310
,  // measure 53
0000
0010
0000
1000
,  // measure 54
0000
0000
1001
0000
;
