#TITLE:Flat n' Simple;
#SUBTITLE:;
#ARTIST:Kitsune²;
#TITLETRANSLIT:;
#SUBTITLETRANSLIT:;
#ARTISTTRANSLIT:;
#CREDIT:;
#BANNER:flat.png;
#BACKGROUND:flat-bg.png;
#LYRICSPATH:;
#CDTITLE:;
#MUSIC:flat.ogg;
#OFFSET:0.000;
#SAMPLESTART:17.455;
#SAMPLELENGTH:12.000;
#SELECTABLE:YES;
#BPMS:0.000=220.000;
#STOPS:;
#BGCHANGES:;

//---------------dance-single - Renard----------------
#NOTES:
     dance-single:
     Renard:
     Challenge:
     9:
     0.886,0.839,0.503,0.000,0.330:
0000
0000
0000
0000
,
0000
0000
0000
0000
,
0000
0000
0000
0000
,
0000
0000
0000
0000
,
0001
0000
0000
0010
0000
0100
1000
0010
,
0100
0000
0001
0000
0100
0010
1000
0010
,
0100
0000
0000
0001
0000
0010
0100
1000
,
0001
0000
0000
0000
0100
0000
0010
0000
1000
0001
1000
0000
0001
0000
0000
0000
,
1001
0000
0000
0110
0000
0010
1000
0100
,
0010
0110
0011
0110
,
1100
0000
1000
0010
0000
0100
0010
0100
,
0010
0110
0101
0110
,
1010
0000
0000
1001
0000
1000
0100
0010
,
0001
0110
1100
1001
,
1010
0000
0010
0100
0000
0001
0100
0010
,
1000
0000
0100
0000
0010
0000
0001
0000
0010
0000
0100
1000
0100
0000
0000
0000
,
0010
0001
0100
0010
1000
0010
0000
0101
,
0000
0100
0010
1000
0100
0010
0001
0010
,
0100
1000
0001
1000
0010
1000
0000
1010
,
0000
0010
0100
0001
0010
0100
1000
0100
,
1000
0001
0100
0010
1000
0001
0000
1001
,
0000
0001
1000
0010
0100
0001
0100
0000
,
0010
1000
0001
0100
0010
1000
0000
1001
,
0000
1000
0010
0100
0001
0010
0100
0000
,
0010
0100
1000
0010
0100
0001
0000
0110
,
0000
0010
1000
0010
0100
0001
0010
0000
,
0001
0010
0100
1000
0010
1000
0000
1010
,
0000
0010
0100
0001
0100
0010
1000
0000
,
0001
0100
0001
1000
0001
1000
0000
1100
,
0000
1000
0010
0100
0001
1000
0001
0000
,
0001
1000
0010
0100
0001
1000
0000
1010
,
0000
0001
0100
0010
1000
0000
1001
0000
,
0001
0000
0001
0100
0000
0100
0010
0000
0010
1000
0000
1000
,
0100
0000
0100
0010
0000
0010
0001
0000
0001
0010
0000
0010
,
0100
0000
0100
1000
0000
1000
0010
0000
0010
0100
0000
0100
,
0001
0000
0100
0010
0000
0000
1000
0000
0010
0100
0000
0000
,
0001
0000
0100
0010
0000
0010
1000
0000
1000
0100
0000
0100
,
0010
0000
0010
0001
0000
0001
0010
0000
0010
0100
0000
0100
,
1000
0000
1000
0001
0000
0100
0010
0000
1000
0100
0000
0010
,
0001
0000
0010
0100
0000
1000
0001
0000
0100
0010
0000
1000
,
0010
0000
0010
0100
0000
0100
0001
0000
0000
0100
0000
0100
,
0010
0000
0010
1000
0000
0000
0100
0000
0010
0001
0000
0000
,
0010
0000
0010
0100
0000
0100
1000
0000
0000
0010
0000
0010
,
0100
0000
0100
0001
0000
0001
0100
0000
0100
0010
0000
0010
,
1000
0000
1000
0100
0000
0000
0010
0000
0000
0001
0000
0001
,
0010
0000
0010
0100
0000
0100
1000
0000
1000
0010
0000
0000
,
0100
0000
0001
0100
0000
0010
1000
0000
0100
0010
0000
0001
,
0010
0100
1000
0001
1001
M00M
M00M
M00M
,
1000
0100
0010
0001
0010
0100
1000
0010
,
0100
0001
0100
1000
0100
0010
0100
0001
,
0100
0001
0010
0100
1000
0100
0010
0001
,
0010
1000
0010
0100
0010
0001
0010
0100
,
1000
0001
0100
0010
0100
1000
0100
0010
,
0100
0001
1000
0100
0000
0100
1000
0001
,
0010
0100
1000
0001
0100
0010
0000
0010
,
0100
0010
1000
0100
0010
0001
0010
0100
,
1MMM
0001
0100
0010
1000
0100
1000
0001
,
1000
0010
1000
0100
0010
0001
0100
0001
,
1000
0001
0010
0001
0010
0100
1000
0001
,
0100
0010
0100
1000
0100
0010
0100
0001
,
0010
0100
0010
1000
0010
0100
0010
0001
,
0010
0100
1000
0001
1000
0001
1000
0010
,
0100
0001
0100
0010
1000
0010
0100
0001
,
0100
0000
0010
0000
1000
0000
0010
0000
0100
0001
0100
0000
0101
0000
0000
0000
,
M1M1
0000
1M1M
0000
1000
0100
0010
0001
,
0010
0000
M11M
0000
0100
1000
0010
1000
,
0001
0000
1M1M
0000
0010
0100
0001
0010
,
0100
0000
M11M
0000
0100
1000
0010
1000
,
1M1M
0000
0001
0100
0010
0100
0010
0100
,
M11M
0000
0010
1000
0100
1000
0100
1000
,
11MM
0000
0100
0010
MM11
0000
0010
0100
,
M11M
0000
0000
0000
11MM
0000
0000
0000
1MM1
0000
0001
0100
0001
0000
0000
0000
,
M1M1
0000
0100
0010
1000
0100
0010
0100
,
0000
0100
1000
0010
0100
0001
0100
0010
,
1000
0000
11MM
0000
0100
0010
0001
0010
,
0000
0100
1000
0000
11MM
0000
1M1M
0000
,
M1M1
0000
1M1M
0000
0010
1000
0000
11MM
,
0000
0100
0010
0001
0010
0100
1000
0001
,
0100
0000
0010
0000
1000
0000
0000
0000
0001
0100
0001
1000
0100
0010
0001
0100
,
0001
0000
0000
0000
;

//---------------dance-single - Renard----------------
#NOTES:
     dance-single:
     Renard:
     Hard:
     9:
     0.639,0.668,0.604,0.011,0.000:
0000
0000
0000
0000
,
0000
0000
0000
0000
,
0000
0000
0000
0000
,
0000
0000
0000
0000
,
0000
0000
0000
0000
,
0000
0000
0000
0000
,
0000
0000
0000
0000
,
0000
0000
0000
0000
,
1000
0000
0000
0001
0000
0100
0010
0100
,
0010
1000
0100
0010
,
0001
0000
0000
1000
0000
0001
0010
0001
,
0010
0100
1000
0001
,
0100
0000
0000
0010
0000
1000
0001
1000
,
0001
1000
0100
0010
,
0001
0000
0010
0100
0000
1000
0001
0100
,
0010
1000
0001
0100
0010
0000
1001
0000
,
1000
0000
0100
0000
0010
0001
0000
0011
,
0000
0010
0100
0000
1000
0000
0001
0000
,
0100
0000
0010
0000
1000
0010
0000
1001
,
0000
1000
0100
0000
0010
0000
0001
0000
,
1000
0000
0001
0000
0100
0010
0000
0110
,
0000
0010
1000
0000
0001
0000
0100
0000
,
0001
0000
1000
0000
0100
1000
0000
1001
,
0000
1000
0001
0000
0010
0000
0001
0000
,
1000
0010
0100
0000
0001
0100
0000
0110
,
0000
0010
1000
0000
0100
0000
0010
0000
,
0001
0010
0100
0000
1000
0100
0000
1100
,
0000
1000
0100
0010
0001
0000
1000
0000
,
0001
0100
0010
0000
0100
0010
0000
0110
,
0000
0010
1000
0001
0100
0000
0010
0000
,
1000
0100
0010
0000
0001
0010
0100
1000
,
0001
0100
0010
1000
0001
0000
0100
0000
,
0001
0101
0100
0110
,
0010
1010
1000
1100
,
0100
0110
0010
0011
,
1001
1001
0110
0110
,
1000
1010
0010
0110
,
0100
0101
0001
0011
,
0001
0010
0100
1000
,
0100
0010
0001
1000
,
1000
1100
0100
0110
,
0010
0011
0001
1001
,
0001
0101
0100
0110
,
0010
1100
0100
0110
,
0100
1001
1000
0110
,
0010
1001
0100
1010
,
0101
1010
0101
1001
,
0110
0110
1001
0000
,
1000
0000
0100
0000
0010
0000
0001
0010
,
0001
0010
0100
1000
0000
0001
0000
0100
,
0010
0000
1000
0000
0010
0000
0100
0001
,
0000
0100
0010
0000
1000
0010
1000
0000
,
0100
0000
0010
0000
0001
0000
0010
0100
,
1000
0000
0001
0100
0000
0010
0000
1000
,
0000
0010
0100
0000
0001
0000
0010
0100
,
0000
1000
0000
0001
0100
0000
0010
0000
,
1000
0010
1000
0010
1000
0001
1000
0001
,
1000
0100
1000
0100
1000
0000
1000
0000
,
0001
0010
0001
0010
0001
1000
0001
1000
,
0001
0100
0001
0100
0001
0000
0001
0000
,
1000
0100
1000
0000
0001
0100
0001
0000
,
1000
0100
1000
0000
0001
0100
0001
0000
,
1000
0010
1000
0000
0001
0010
0001
0000
,
1000
0001
1000
0001
1000
0000
0001
0000
,
1001
0000
0000
0110
0000
0010
1000
0001
,
0100
0000
0000
0000
,
1001
0000
0000
0110
0000
0010
0100
0001
,
1000
0000
0000
0000
,
0110
0000
0000
1001
0000
1000
0100
0010
,
0001
0000
0000
0000
,
0110
0000
0000
1100
0000
0010
0001
0010
,
0001
1000
0001
0100
,
0010
0000
1000
0000
0001
0100
0000
0101
,
0000
0001
1000
0100
0010
0001
0010
0100
,
1000
0000
0001
0000
1000
0010
0000
1010
,
0000
1000
0001
0100
0010
1000
0100
0010
,
0001
0010
0100
0000
0110
0000
0100
1000
,
0000
1000
0010
0000
0101
0000
1010
0000
,
1000
0100
0010
0001
0010
0100
1000
0001
,
0200
0000
0000
0000
0000
0300
0000
0000
;

//---------------dance-single - Renard----------------
#NOTES:
     dance-single:
     Renard:
     Medium:
     6:
     0.434,0.442,0.000,0.000,0.000:
0000
0000
0000
0000
,
0000
0000
0000
0000
,
0000
0000
0000
0000
,
0000
0000
0000
0000
,
0000
0000
0000
0000
,
0000
0000
0000
0000
,
0000
0000
0000
0000
,
0000
0000
0000
0000
,
1000
0000
1000
0001
0000
0001
1000
0000
,
0001
0000
0000
0000
,
1000
0000
1000
0001
0000
0001
1000
0000
,
0001
0000
0000
0000
,
0100
0000
0100
0010
0000
0010
0100
0000
,
0010
1000
0001
0000
,
0100
0001
1000
0100
,
0010
0000
0001
0000
1000
0001
1000
0000
,
1000
0000
0001
0000
0100
0010
0000
1000
,
0000
0001
0100
0001
,
1000
0000
0100
0000
0010
0001
0000
1000
,
0000
0001
0010
0100
,
1000
0000
0001
0000
0100
0010
0000
1000
,
0000
0010
0100
0001
,
1000
0000
0100
0000
0010
0001
0000
0010
,
0000
0100
1000
0001
,
0100
0000
0010
0000
1000
0010
0000
0100
,
0000
0001
1000
0100
,
0010
0000
0001
0000
1000
0001
0000
0100
,
0000
0001
1000
0100
,
0010
0000
0001
0000
1000
0001
0000
0100
,
0000
0010
1000
0010
,
1000
0000
0001
0000
0100
0001
0000
0010
,
0000
0100
1000
0001
,
0100
0100
0100
0010
,
0010
0010
1000
1000
,
0001
0001
0001
0010
,
0100
1000
0010
0100
,
0001
0001
0001
1000
,
1000
1000
0001
0001
,
0100
0010
1000
0001
,
0100
0010
1000
0001
,
0100
0100
0100
0001
,
0001
0001
1000
1000
,
0010
0010
0010
1000
,
0001
0100
0010
1000
,
0100
0100
0100
0010
,
0010
0010
0001
0001
,
1000
0001
0100
0010
,
1000
0001
1000
0000
,
0001
0100
0001
1000
,
0100
0000
0000
1000
0000
0100
0000
1000
,
0100
0000
0010
0000
,
0001
1000
0001
0000
,
0100
0001
1000
0010
,
1000
0000
1000
0001
0000
0001
0000
0001
,
0100
0001
0010
0100
,
1000
0001
1000
0000
,
0001
0100
0010
1000
,
0001
0000
0100
0001
0000
1000
0000
0000
,
0001
0100
0010
0000
,
1000
0010
0100
0000
,
0001
0100
0010
1000
,
0010
0000
0100
0001
0000
0100
0000
0010
,
1000
0010
0100
0000
,
0001
0100
0010
1000
,
0010
0000
0000
0010
0000
0000
0100
0000
,
0010
0010
0010
0000
,
1000
0000
0000
1000
0000
0000
0001
0000
,
0001
1000
0001
0000
,
1000
0000
0000
0010
0000
0000
1000
0000
,
0010
0100
0001
1000
,
0100
0010
0001
0010
,
0100
0100
1000
0001
,
1000
0000
0001
0000
0100
0010
0000
1000
,
0000
0010
0100
0001
,
0100
0000
0010
0000
1000
0010
0000
0100
,
0000
0001
0100
0010
,
1000
0000
0100
0000
0010
0001
0000
0010
,
0000
0100
1000
0010
,
0100
0000
0001
0000
0100
0000
0010
1000
,
0010
0000
0000
0000
;

//---------------dance-single - Renard----------------
#NOTES:
     dance-single:
     Renard:
     Easy:
     3:
     0.321,0.397,0.022,0.011,0.000: // measure 1
0000
0000
0000
0000
,  // measure 2
0000
0000
0000
0000
,  // measure 3
0000
0000
0000
0000
,  // measure 4
0000
0000
0000
0000
,  // measure 5
0000
0000
0000
0000
,  // measure 6
0000
0000
0000
0000
,  // measure 7
0000
0000
0000
0000
,  // measure 8
0000
0000
0000
0000
,  // measure 9
1000
1000
1000
1000
,  // measure 10
1000
0000
1000
0000
,  // measure 11
0001
0001
0001
0001
,  // measure 12
0001
0000
0001
0000
,  // measure 13
0100
0100
0100
0100
,  // measure 14
0100
0000
0100
0000
,  // measure 15
0010
0000
0100
0000
,  // measure 16
0010
0100
0010
0000
,  // measure 17
1000
0000
1000
0000
,  // measure 18
0001
1000
0001
0000
,  // measure 19
1000
0000
1000
0000
,  // measure 20
0001
1000
0001
0000
,  // measure 21
0100
0000
0100
0000
,  // measure 22
0010
0100
0010
0000
,  // measure 23
0100
0000
0010
0000
,  // measure 24
0100
0010
0100
0000
,  // measure 25
0010
0000
1000
0000
,  // measure 26
0001
0000
1000
0000
,  // measure 27
0001
0000
0100
0000
,  // measure 28
0001
0010
0001
0000
,  // measure 29
1000
0000
0100
0000
,  // measure 30
0010
0000
0100
0000
,  // measure 31
1000
0000
0001
0000
,  // measure 32
1000
0010
1000
0000
,  // measure 33
0001
0000
0001
0000
,  // measure 34
0100
0000
0100
0010
,  // measure 35
1000
0000
1000
0000
,  // measure 36
0001
0000
0100
0001
,  // measure 37
1000
0000
1000
0000
,  // measure 38
0100
0000
0010
0000
,  // measure 39
0001
1000
0001
1000
,  // measure 40
0001
1000
0001
1000
,  // measure 41
0001
0000
0100
0000
,  // measure 42
0010
1000
0010
0000
,  // measure 43
0100
0000
0001
0000
,  // measure 44
1000
1000
0100
0000
,  // measure 45
0010
0000
0001
0000
,  // measure 46
1000
0001
0100
0001
,  // measure 47
1000
0100
0010
0001
,  // measure 48
2000
0000
3001
0000
,  // measure 49
1000
0000
0001
0000
,  // measure 50
0100
0001
1000
0000
,  // measure 51
0100
0000
1000
0000
,  // measure 52
0001
0010
0001
1000
,  // measure 53
0001
0000
1000
0000
,  // measure 54
0010
1000
0001
0000
,  // measure 55
1000
0001
0100
0000
,  // measure 56
0001
1000
0010
0000
,  // measure 57
1000
1000
1000
0000
,  // measure 58
0001
1000
0001
0000
,  // measure 59
0001
0001
0001
0000
,  // measure 60
1000
0001
1000
0000
,  // measure 61
0010
0010
0010
0000
,  // measure 62
0010
0100
0010
0000
,  // measure 63
0100
0100
0100
0000
,  // measure 64
0010
0100
0010
0000
,  // measure 65
1000
1000
1000
0001
,  // measure 66
1000
0000
0001
0000
,  // measure 67
0001
0001
0001
1000
,  // measure 68
0001
0000
0001
0000
,  // measure 69
0100
0000
0010
0100
,  // measure 70
0010
0000
0100
0000
,  // measure 71
0010
1000
0001
1000
,  // measure 72
0010
0000
1001
0010
,  // measure 73
0010
0010
0010
0000
,  // measure 74
0010
0010
0010
0000
,  // measure 75
0100
0100
0100
0000
,  // measure 76
0100
0100
0100
0000
,  // measure 77
0001
1000
0001
0000
,  // measure 78
1000
0001
1000
0000
,  // measure 79
1000
0100
0010
0001
,  // measure 80
1001
0000
0000
0000
;
