#TITLE:Flat Beat;
#SUBTITLE:;
#ARTIST:Mr. Oizo;
#TITLETRANSLIT:;
#SUBTITLETRANSLIT:;
#ARTISTTRANSLIT:;
#CREDIT:;
#BANNER:beat.png;
#BACKGROUND:beat-bg.png;
#LYRICSPATH:;
#CDTITLE:;
#MUSIC:beat.ogg;
#OFFSET:0.000;
#SAMPLESTART:66.951;
#SAMPLELENGTH:12.000;
#SELECTABLE:YES;
#BPMS:0.000=129.050;
#STOPS:;
#BGCHANGES:;

//---------------dance-single - Renard----------------
#NOTES:
     dance-single:
     Renard:
     Challenge:
     11:
     0.646,0.751,0.413,0.000,0.785:
0000
0000
0000
0000
,
0000
0000
0000
0000
,
0000
0000
0000
0000
,
0000
0000
0000
0000
,
1100
0000
0011
0000
0100
0000
0000
0000
0010
0000
1000
0000
0100
1000
0000
1001
,
0000
0000
0010
0000
0100
0000
1000
0000
0010
0000
0100
0001
0000
0101
0000
0010
,
1000
0000
0100
0000
0010
0000
0001
0000
0010
0000
0100
0000
1000
0001
0000
1001
,
0000
0000
0010
0000
0100
0000
0001
0000
0100
0000
0010
1000
0000
0101
0000
1000
,
0001
0000
0010
0000
0100
0000
1000
0000
0001
0000
1000
0000
0010
1000
0000
1001
,
0000
0000
0100
0000
0010
0000
1000
0000
0100
0000
0010
0001
0000
0011
0000
0100
,
1000
0000
0001
0000
0100
0000
0010
0000
1000
0000
0100
0000
0010
0001
0000
0110
,
0000
0000
0100
0000
1000
0000
0010
0000
0100
0000
0001
0100
0000
0110
0000
1000
,
0010
0000
1000
0000
0000
0000
0000
0001
0100
0000
0000
0000
0000
0000
0001
0000
,
0010
0000
0100
0000
0000
0000
0000
1000
0100
0000
0000
0000
0000
0000
1000
0000
,
0010
0000
0100
0000
0000
0000
0000
0001
0100
0000
0000
0000
0000
0000
0010
0000
,
1000
0000
1000
0000
1000
0000
1000
1000
1000
1000
1000
1000
1000
1000
1000
0000
,
0010
0000
1000
0000
0000
0000
0000
0001
0100
0000
0000
0000
0000
0000
0001
0000
,
0010
0000
0100
0000
0000
0000
0000
1000
0100
0000
0000
0000
0000
0000
1000
0000
,
0010
0000
0100
0000
0000
0000
0000
0001
0100
0000
0000
0000
0000
0000
0010
0000
,
0010
0000
0000
1000
0010
1000
0000
0001
0000
0100
0000
0010
1000
0000
0100
0000
,
1100
0000
0011
0000
0010
0100
0000
1000
0010
0000
0000
1010
0000
1000
0010
0000
,
0100
0000
0001
0000
0100
0001
0000
1000
0010
0000
0000
1100
0000
0000
0011
0000
,
0110
0000
0100
0000
1000
0010
0000
1000
0001
0000
1000
0010
0000
0100
0001
0000
,
1001
0000
1001
0000
1001
0000
0001
0001
0001
0001
0001
0001
0001
0001
0001
0000
,
0011
0000
1100
0000
0100
0010
0000
0001
0100
0000
0000
0101
0000
0001
0100
0000
,
0010
0000
1000
0000
0010
1000
0000
0001
0100
0000
0000
0011
0000
0000
1100
0000
,
0110
0000
0010
0000
0001
0100
0000
0001
1000
0000
0001
0100
0000
0010
1000
0000
,
1001
0000
1001
0000
1001
0000
1000
1000
1000
1000
1000
1000
1000
1000
1000
0000
,
0001
0100
0001
0000
0100
0010
0000
1000
0010
0000
1000
1010
0000
0000
1000
0000
,
0100
0010
0001
0000
0010
0100
0000
1000
0001
0000
0001
0101
0000
0000
0100
0000
,
0010
1000
0100
0000
0010
0001
0000
0010
0100
0000
1000
1100
0000
0000
1000
0000
,
0110
0000
0110
0000
0110
0000
0010
0010
0010
0010
0010
0010
0010
0010
0010
0000
,
1000
0010
1000
0000
0010
0100
0000
0001
0100
0000
0001
0101
0000
0000
0001
0000
,
0010
0100
1000
0000
0100
0010
0000
0001
1000
0000
1000
1010
0000
0000
0010
0000
,
0100
0001
0010
0000
0100
1000
0000
0100
0010
0000
0001
0011
0000
0000
0001
0000
,
0110
0000
0110
0000
0110
0000
0100
0100
0100
0100
0100
0100
0100
0100
0100
0000
,
0001
0100
0001
0000
0100
0000
0010
0000
1000
0000
0100
0000
0010
0001
0000
0010
,
0000
0100
1000
0000
0010
0000
1000
0000
0001
0000
0100
0010
0000
1000
0000
0100
,
0010
0001
0010
0000
0100
0000
1000
0000
0001
0000
0010
0000
0100
1000
0010
0100
,
0000
0000
0001
0000
0100
0000
0010
0000
1000
0100
0010
0001
0000
0001
0010
0100
,
1000
0000
0010
0000
0100
0001
0100
0000
0010
1000
0100
0000
0010
0001
0010
0100
,
0000
0000
0100
1000
0010
0000
0100
0001
0100
0000
0010
1000
0000
0100
0000
0010
,
0001
0010
0100
0000
1000
0000
0010
0000
0100
0001
0100
0010
1000
0100
0000
0010
,
0000
0001
1000
0000
0010
0100
0000
0001
0000
1000
0001
0010
0100
1000
0100
0010
,
0001
0000
0001
0000
000M
0000
000M
0000
000M
0000
000M
0000
000M
0001
000M
0001
,
000M
0000
0001
0000
000M
0000
000M
0000
000M
0000
000M
0001
000M
0001
000M
0001
,
0001
0000
0001
0000
000M
0000
000M
0000
000M
0000
000M
0000
000M
0001
000M
0001
,
000M
0000
0001
0000
000M
0000
000M
0000
000M
0000
000M
0001
000M
0001
000M
0001
,
1000
0000
1000
0000
M000
0000
M000
0000
M000
0000
M000
0000
M000
1000
M000
1000
,
M000
0000
1000
0000
M000
0000
M000
0000
M000
0000
M000
1000
M000
1000
M000
1000
,
1000
0000
1000
0000
M000
0000
M000
0000
M000
0000
M000
0000
M000
1000
M000
1000
,
M000
0000
1000
0000
M000
0000
M000
0000
M000
0000
M000
1000
M000
1000
M000
1000
;

//---------------dance-single - Renard----------------
#NOTES:
     dance-single:
     Renard:
     Hard:
     8:
     0.484,0.563,0.485,0.000,0.444:
0000
0000
0000
0000
,
0000
0000
0000
0000
,
0000
0000
0000
0000
,
0000
0000
0000
0000
,
1001
0000
1001
0000
0000
0000
0000
0000
0001
0000
0000
0000
0100
0010
0000
1000
,
0000
0000
1010
0000
0000
0000
0000
0000
0000
0000
0000
1000
0000
0100
0000
0010
,
0001
0000
1000
0000
0001
0000
0000
0000
0100
0000
0000
0000
0010
1000
0000
0010
,
0000
0000
1000
0000
0000
0000
0000
0000
0000
0000
0000
0100
0000
0010
0000
0001
,
0010
0000
0100
0000
1000
0000
0000
0000
0001
0000
0000
0000
0100
0001
0000
1000
,
0000
0000
1001
0000
0000
0000
0000
0000
0000
0000
0000
1001
0000
0110
0000
0001
,
1000
0000
0001
0000
0100
0000
0000
0000
0010
0000
0000
0000
1000
0100
0000
0010
,
0000
0000
0001
0000
0000
0000
0000
0000
0000
0000
0000
1000
0000
0001
0000
0100
,
0010
1000
0000
0000
0101
0000
0000
0000
,
0001
1000
0000
0000
1100
0000
0000
0000
,
0001
0010
0000
0000
1001
0000
0000
0000
,
0001
0000
0100
0000
0010
0000
1000
0000
0001
0100
0001
0100
0001
0100
0001
0000
,
1000
0100
0000
0000
0011
0000
0000
0000
,
0100
1000
0000
0000
0011
0000
0000
0000
,
1000
0100
0000
0000
0011
0000
0000
0000
,
1000
0001
0100
0010
1000
0000
1000
0000
,
1000
0000
0010
0000
0000
0100
0000
0000
1001
0000
0000
0000
0000
0000
0100
0000
,
0001
0000
0010
0000
0000
0100
0000
0000
1001
0000
0000
0000
0000
0000
1000
0000
,
0100
0000
0010
0000
0000
0001
0000
0000
0110
0000
0000
0000
0000
0000
1000
0000
,
0001
0000
0100
0000
0010
0000
1000
0001
1000
0001
1000
0001
1000
0001
1000
0000
,
0001
0000
0100
0000
0000
0010
0000
0000
1001
0000
0000
0000
0000
0000
1000
0000
,
0100
0000
0010
0000
0000
1001
0000
0000
0110
0000
0000
0000
0000
0000
0010
0000
,
1000
0000
0100
0000
0000
1100
0000
0000
0011
0000
0000
0000
0000
0000
1000
0000
,
0100
0000
0010
0000
0001
1000
0001
1000
0001
1000
0001
1000
0001
1000
0001
0000
,
0100
0000
0010
0000
1000
0000
0001
0000
0100
0000
0000
0110
0000
0000
0000
0000
,
0010
0000
1000
0000
0100
0000
0010
0000
0001
0000
0000
1001
0000
0000
0000
0000
,
0001
0000
0100
0000
0010
0000
1000
0000
0100
0000
0000
1100
0000
0000
1000
0000
,
0001
0000
0010
0000
0001
0000
1000
0000
0001
0100
0001
0100
0001
0100
0001
0000
,
0100
0000
0010
0000
0000
1010
0000
0000
0101
0000
0000
1001
0000
0000
1000
0000
,
0100
0000
0010
0000
0000
0011
0000
0000
0110
0000
0000
1001
0000
0000
1000
0000
,
0100
0000
0010
0000
0000
1001
0000
0000
0110
0000
0000
1001
0000
0000
1000
0000
,
0001
0000
0100
0000
0010
0000
1000
0000
0001
0000
0100
0010
0100
0010
0100
0000
,
0010
0000
1000
0000
0000
0000
0000
0000
0000
0000
0000
0000
0000
0101
0000
0110
,
0000
0000
0110
0000
0000
0000
0000
0000
0000
0000
0000
0010
0000
1000
0000
0100
,
0010
0000
0001
0000
0000
0000
0000
0000
0000
0000
0000
0000
0000
0110
0000
1001
,
0000
0000
1001
0000
0000
0000
0000
0000
0000
0000
0000
0001
0000
0100
0000
0010
,
1000
0000
0010
0000
0000
0000
0000
0000
0000
0000
0000
0000
0000
0110
0000
1001
,
0000
0000
1001
0000
0000
0000
0000
0000
0000
0000
0000
1000
0000
0100
0000
0010
,
0001
0000
1000
0000
0000
0000
0000
0000
0000
0000
0000
0000
0000
0101
0000
0010
,
1000
0100
0010
0001
0010
0100
0100
0100
,
1000
0000
0001
0000
0100
0000
0000
0000
0010
0000
0000
0000
1000
0100
0000
1100
,
0000
0000
1100
0000
0000
0000
0000
0000
0000
0000
0000
1000
0000
0001
0000
0100
,
0010
0000
1000
0000
0100
0000
0000
0000
0010
0000
0001
0000
1000
0001
0000
0100
,
0000
1001
0000
0000
1000
0100
0010
0001
,
0010
0000
0100
0000
0010
0000
0000
0000
0100
0000
1000
0000
0010
0100
0000
0101
,
0000
0000
0101
0000
0000
0000
0000
0000
0001
0000
0100
0010
0000
1000
0000
0001
,
0100
0000
0010
0000
1000
0000
0000
0000
0100
0000
0010
0000
0001
0010
0000
0100
,
0000
0000
1000
0000
0001
0000
0100
0000
0010
0000
1000
0001
0000
0100
0000
0010
;

//---------------dance-single - Renard----------------
#NOTES:
     dance-single:
     Renard:
     Medium:
     5:
     0.286,0.375,0.155,0.010,0.015:
0000
0000
0000
0000
,
0000
0000
0000
0000
,
0000
0000
0000
0000
,
0000
0000
0000
0000
,
1000
0001
0100
0001
,
1000
0100
0010
0001
,
1000
0001
1000
0000
0001
0000
0100
0000
,
0010
1000
0100
0010
,
0001
1000
0001
0000
0010
0000
0100
0000
,
1000
0100
0010
0001
,
1000
0001
1000
0000
0001
0000
0100
0000
,
0010
0000
0010
0000
,
0100
0001
0000
0000
1001
0000
0000
0000
,
1000
0100
0000
0000
1100
0000
0000
0000
,
0010
0001
0000
0000
0011
0000
0000
0000
,
0001
0000
0001
0000
0010
0100
0010
0100
,
0010
0000
0110
0000
,
0100
0000
0110
0000
,
0001
0000
1001
0000
,
2000
0000
0000
0000
,
3001
0100
0000
0000
0010
0000
1010
0000
,
1000
0100
0000
0000
0010
0000
0011
0000
,
0001
0010
0000
0000
0100
0000
1100
0000
,
1000
0001
1000
0001
1000
0001
1000
0001
,
1000
0101
0000
1001
,
1000
0011
0000
1001
,
1000
0101
0000
0011
,
0001
1000
0001
1000
0001
1000
0001
1000
,
0001
0100
0000
0000
0010
0000
0000
0000
,
1000
0100
0000
0000
0010
0000
0000
0000
,
0001
0010
0000
0000
0100
0000
1000
0000
,
0010
0100
0010
0100
0010
0100
0010
0100
,
0010
1000
0000
0100
0010
0000
0000
0000
,
0001
0010
0000
0100
1000
0000
0000
0000
,
0001
0010
0000
0001
1000
0000
0100
0000
,
1000
0010
0100
0001
0100
0000
0001
0000
,
1000
0000
0000
0100
0010
0000
0000
0000
,
0001
0000
0000
0010
0100
0000
0000
0000
,
1000
0000
0000
0010
0100
0000
0000
0000
,
0001
0001
0001
0001
,
1000
0000
0000
0100
0010
0000
0000
0000
,
0001
0000
0000
0010
0100
0000
0000
0000
,
1000
0000
0000
0010
0100
0000
0001
0000
,
1000
1000
0001
0001
,
0100
0100
0000
0000
,
0010
0010
0000
0000
,
1000
0100
0000
0000
0000
0000
0000
0000
,
0010
0001
0000
0000
,
1000
0001
0000
0000
0000
0000
0000
0000
,
0100
0000
0010
0000
0000
0000
1000
0010
,
1000
0010
0000
0000
0000
0000
0000
0000
,
0100
0000
0000
0000
0001
0000
0000
0000
0010
0000
0000
0100
0000
0100
0000
0100
;

//---------------dance-single - Renard----------------
#NOTES:
     dance-single:
     Renard:
     Easy:
     1:
     0.217,0.268,0.186,0.237,0.000: // measure 1
0000
0000
0000
0000
,  // measure 2
0000
0000
0000
0000
,  // measure 3
0000
0000
0000
0000
,  // measure 4
0000
0000
0000
0000
,  // measure 5
1001
1001
0000
0000
,  // measure 6
1001
1001
0000
0000
,  // measure 7
1001
1001
0000
0000
,  // measure 8
1001
1001
0000
0000
,  // measure 9
1001
1001
0000
0000
,  // measure 10
1001
1001
0000
0000
,  // measure 11
1001
1001
0000
0000
,  // measure 12
1001
1001
0000
0000
,  // measure 13
2000
0000
3001
0000
,  // measure 14
0002
0000
1003
0000
,  // measure 15
2000
0000
3001
0000
,  // measure 16
0020
0000
0000
0000
,  // measure 17
0032
0000
1003
0000
,  // measure 18
2000
0000
3001
0000
,  // measure 19
0002
0000
1003
0000
,  // measure 20
0010
0000
0000
0000
,  // measure 21
2000
0000
3001
0100
,  // measure 22
0002
0000
1003
0100
,  // measure 23
2000
0000
3001
0010
,  // measure 24
0002
0000
0000
0003
,  // measure 25
0002
0000
1003
0010
,  // measure 26
2000
0000
3001
0100
,  // measure 27
0002
0000
1003
0100
,  // measure 28
1000
0001
0010
0001
,  // measure 29
2000
0000
3010
0000
,  // measure 30
0002
0000
0013
0000
,  // measure 31
2000
0000
3100
0000
,  // measure 32
0002
0000
0103
0000
,  // measure 33
2000
0000
3001
0000
,  // measure 34
0020
0000
0130
0000
,  // measure 35
0200
0000
0310
0000
,  // measure 36
0002
0000
1003
0000
,  // measure 37
1001
0000
0000
0000
,  // measure 38
0110
0000
0000
0010
,  // measure 39
0100
0000
0000
0100
,  // measure 40
0010
0100
0001
1000
,  // measure 41
0100
0010
0000
0000
,  // measure 42
0001
0010
0000
0100
,  // measure 43
1000
0000
0000
0001
,  // measure 44
0100
0000
0001
0000
,  // measure 45
1000
0000
0000
0100
,  // measure 46
0010
0000
0000
0001
,  // measure 47
0010
0000
0000
0001
,  // measure 48
1000
0000
0001
0100
,  // measure 49
0010
0000
0010
1000
,  // measure 50
0001
0000
1000
0100
,  // measure 51
0010
0000
0001
0000
,  // measure 52
1000
0000
0002
0000
,  // measure 53
0003
0000
0000
0000
;
