#TITLE:Flamenco;
#SUBTITLE:;
#ARTIST:Sub Focus;
#TITLETRANSLIT:;
#SUBTITLETRANSLIT:;
#ARTISTTRANSLIT:;
#CREDIT:;
#BANNER:flamenco.png;
#BACKGROUND:flamenco-bg.png;
#LYRICSPATH:;
#CDTITLE:;
#MUSIC:flamenco.ogg;
#OFFSET:0.000;
#SAMPLESTART:33.101;
#SAMPLELENGTH:12.000;
#SELECTABLE:YES;
#DISPLAYBPM:174.000;
#BPMS:0.000=174.000,212.000=348.000,216.000=696.000,220.000=1392.000,268.000=696.000,272.000=348.000,276.000=174.000;
#STOPS:;
#BGCHANGES:;

//---------------dance-single - Renard----------------
#NOTES:
     dance-single:
     Renard:
     Hard:
     8:
     0.607,0.708,0.196,0.177,0.029:
0000
0000
0000
0000
,
0000
0000
0000
0000
,
0000
0000
0000
0000
,
0000
0000
0000
0000
,
2000
0000
0100
0001
0010
0000
0020
3000
,
0100
0000
0200
0030
0001
0000
0001
0300
,
0010
0000
0020
1000
0100
0000
0001
0030
,
0200
0010
1300
1001
,
1100
0000
0010
0001
0000
0101
0000
1010
,
0000
0001
0100
0010
1000
0100
0010
0001
,
0010
0000
0100
1000
0000
0011
0000
1001
,
0000
0001
0100
0010
1000
0001
0100
0010
,
1000
0000
0100
1000
0000
0011
0000
1100
,
0000
0001
1000
0010
0100
0001
1000
0000
,
1010
0000
0001
0100
0000
0101
0000
0011
,
0000
1100
0000
0001
1000
0100
0010
0000
,
0001
0000
0010
0000
0100
0000
0000
0000
0000
0000
1000
0100
1000
0000
0000
0000
,
0010
0000
0100
0000
0001
0000
0000
0000
0000
0000
0100
0010
0100
0000
0000
0000
,
0010
0000
1000
0000
0100
0000
0000
0000
0000
0000
0010
0001
0010
0000
0000
0000
,
0100
0000
0010
0000
0100
0000
0000
0000
0000
0000
1000
0100
1000
0000
0000
0000
,
0001
0000
0100
0000
0010
0000
0000
0000
0000
0000
1000
0001
1000
0000
0000
0000
,
0001
0000
0100
0000
0010
0000
0000
0000
0000
0000
1000
0001
1000
0000
0000
0000
,
0100
0010
0001
0010
0100
1000
0001
0100
,
0010
1000
0001
0100
0010
1000
0001
1000
,
0001
0100
0010
1000
0000
1000
0010
0100
,
0001
0010
0000
0010
0100
1000
0001
1000
,
0010
0100
0001
0100
0000
0100
0010
1000
,
0100
0010
0011
0000
0001
0010
0110
0000
,
0100
1000
0001
0100
0000
0100
0010
1000
,
0100
0010
0001
0000
0001
0010
0100
0000
,
1000
0010
0100
0001
0000
0001
0100
0010
,
1000
0001
1001
0000
0001
0100
0101
0000
,
0100
0010
1000
0100
0010
0001
0010
0100
,
1000
0001
1000
0000
0001
1000
0001
0000
,
1000
0010
0100
0001
0010
0100
1000
0001
,
0100
0010
0100
0000
0010
0100
0010
0000
,
2000
0000
0100
0001
0010
0000
3020
0000
,
0230
0302
0010
1000
,
0203
0000
0001
0010
0010
0000
1300
0000
,
0100
0001
0010
0000
0011
0000
1001
0000
,
0001
0000
0100
0010
1000
0000
0100
0010
,
0200
0000
2000
0000
0000
0000
0001
3310
,
0000
0000
1000
0100
0010
0000
0001
0010
,
0100
1000
0001
0000
,
0100
0000
0010
1000
0001
0000
0100
0010
,
0200
0000
0002
0000
0000
0000
0010
1303
,
0000
0000
0001
0100
0010
0000
1000
0010
,
0100
0001
1000
0100
0010
0000
0001
0010
,
0100
0000
1000
0100
0010
0000
0001
0010
,
0200
0000
2000
0000
0000
0000
0001
3310
,
0000
0000
0100
1000
0010
0000
0100
0001
,
0100
0000
0010
1000
0010
0000
0100
0000
,
2002
0000
0000
0000
,
0000
0000
0000
0000
,
0000
0000
0000
0000
,
0000
0000
0000
0000
,
0000
0000
0000
0000
,
0000
0000
0000
0000
,
0000
0000
0000
0000
,
0000
0000
0000
0000
,
0000
0000
0000
0000
,
0000
0000
0000
0000
,
0000
0000
0000
0000
,
0000
0000
0000
0000
,
0000
0000
0000
0000
,
0000
0000
0000
0000
,
0000
0000
0000
0000
,
0000
0000
0000
0000
,
0000
0000
0000
3003
,
0001
0100
0010
1000
0100
0010
0001
0010
,
0100
1000
0010
0100
0001
1000
0001
0000
,
1000
0100
0010
0001
0010
0100
1000
0001
,
0100
0010
1000
0000
0010
0100
0001
0000
,
0100
0010
1000
0100
0010
0001
0010
0100
,
1000
0001
0010
0100
1000
0001
0100
0000
,
0001
1000
0100
0000
0010
0001
0010
0000
,
0100
1000
0001
0100
0010
0010
0010
0000
,
1000
0010
0100
0001
0010
0100
1000
0100
,
0010
0001
1000
0010
0100
0001
0100
0000
,
0010
1000
0100
0010
0001
0010
0100
1000
,
0001
0100
0010
1000
0001
0001
0001
0000
,
1000
0100
0010
0001
0010
0100
1000
0001
,
0100
0010
1000
0001
0100
0010
0100
0000
,
0010
1000
0100
0010
0001
0010
0100
1000
,
0001
1000
0010
0100
0001
0100
0010
1000
,
1001
0000
0000
0000
;

//---------------dance-single - Renard----------------
#NOTES:
     dance-single:
     Renard:
     Medium:
     5:
     0.297,0.458,0.010,0.069,0.000:
0000
0000
0000
0000
,
0000
0000
0000
0000
,
0000
0000
0000
0000
,
0000
0000
0000
0000
,
2000
0000
0000
3001
,
0010
0100
1000
0010
,
0200
0000
0000
0301
,
0010
0001
1000
1001
,
1000
0000
0000
0100
0000
0010
0000
0001
,
0000
1000
0000
0001
0100
0000
0001
0000
,
1000
0000
0000
0001
0000
0010
0000
0100
,
0000
1000
0000
0001
0100
0000
0010
0000
,
1000
0000
0000
0010
0000
1000
0000
0001
,
0000
0100
0000
0010
0100
0000
0010
0000
,
1000
0000
0000
0100
0000
0010
0000
0001
,
0000
1000
0000
0010
0100
0000
0010
0000
,
1000
0100
0000
0100
,
0010
0001
0000
0001
,
0100
0010
0000
0010
,
1000
0001
1000
0001
,
1000
0100
0000
0100
,
0010
0001
0000
0001
,
1000
0001
1000
0001
,
0100
0010
0100
0010
0100
0000
0010
0000
,
1000
0010
1000
0010
,
0100
0001
0100
0000
,
0001
0010
0001
0010
,
0100
1000
0100
0000
,
1000
0001
1000
0001
,
0100
0001
0100
0000
,
0010
0000
1000
0000
,
0100
0000
0010
0000
,
0001
1000
0001
0000
,
0100
0010
0100
0000
,
0010
1000
0010
0000
,
0100
0001
0100
0001
,
2000
0000
0000
3100
,
0010
0001
0010
0100
,
2000
0000
0000
3100
,
0010
0001
0010
0100
,
1000
0000
1000
0000
,
0001
0000
0001
0000
0000
0000
0100
0010
,
0000
0000
0000
0000
,
0000
0000
0000
0000
,
1000
0000
1000
0000
,
0001
0000
0001
0000
0000
0000
0010
0100
,
0000
0000
0000
0000
,
0000
0000
0000
0000
,
1000
0000
0001
0000
,
0100
0000
0010
0000
1000
0000
0001
0100
,
0000
0000
0001
0000
,
1000
0000
0100
0010
,
0002
0000
0000
0000
,
0000
0000
0000
0000
,
0000
0000
0000
0000
,
0000
0000
0000
0000
,
0000
0000
0000
0000
,
0000
0000
0000
0000
,
0000
0000
0000
0000
,
0000
0000
0000
0000
,
0000
0000
0000
0000
,
0000
0000
0000
0000
,
0000
0000
0000
0000
,
0000
0000
0000
0000
,
0000
0000
0000
0000
,
0000
0000
0000
0000
,
0000
0000
0000
0000
,
0000
0000
0000
0000
,
0000
0000
0000
0000
,
1003
0000
0001
0000
0000
0100
0001
0000
,
1000
0100
0010
0000
,
0001
0000
1000
0000
0000
0100
1000
0000
,
0001
0010
0100
0000
,
1000
0000
0010
0000
0000
0100
0001
0000
,
1000
0001
0010
0000
,
0100
0000
1000
0000
0000
0001
0100
0000
,
0001
1000
0010
0000
,
1000
0000
0001
0000
0000
0100
0010
0000
,
1000
0001
1000
0000
,
0001
0000
0100
0000
0000
0001
1000
0000
,
0001
1000
0100
0000
,
0020
0000
0000
0000
0000
0030
0001
0000
,
0010
0100
1000
0001
,
0100
0010
1000
0100
,
0020
0000
0000
0030
0001
1000
0001
0000
,
0100
0000
0000
0000
;

//---------------dance-single - Renard----------------
#NOTES:
     dance-single:
     Renard:
     Easy:
     2:
     0.192,0.292,0.020,0.069,0.000: // measure 1
0000
0000
0000
0000
,  // measure 2
0000
0000
0000
0000
,  // measure 3
0000
0000
0000
0000
,  // measure 4
0000
0000
0000
0000
,  // measure 5
1000
0000
0000
0000
,  // measure 6
0001
0000
0010
0000
,  // measure 7
0100
0000
0000
0000
,  // measure 8
0010
0000
0001
0000
,  // measure 9
1000
0000
0001
0000
,  // measure 10
0100
0001
0100
0000
,  // measure 11
0001
0000
1000
0000
,  // measure 12
0100
0000
0000
0000
,  // measure 13
1000
0000
0001
0000
,  // measure 14
0010
0100
0010
0000
,  // measure 15
0100
0000
1000
0000
,  // measure 16
0010
0000
0100
0001
,  // measure 17
1000
0000
0100
0000
,  // measure 18
0010
0000
0001
0000
,  // measure 19
0010
0000
0100
0000
,  // measure 20
1000
0000
1000
0000
,  // measure 21
0001
0000
0100
0000
,  // measure 22
0010
0000
1000
0000
,  // measure 23
0010
0000
0100
0000
,  // measure 24
0001
0000
0001
0000
,  // measure 25
1000
0000
0100
0000
,  // measure 26
1000
0001
1000
0000
,  // measure 27
0001
0000
0100
0000
,  // measure 28
0001
1000
0001
0000
,  // measure 29
1000
0000
0010
0000
,  // measure 30
1000
0001
1000
0000
,  // measure 31
0001
0000
0010
0000
,  // measure 32
0001
1000
0001
0000
,  // measure 33
0100
0000
0010
0000
,  // measure 34
0100
0000
0010
0000
,  // measure 35
1000
0000
0001
0000
,  // measure 36
1000
0000
0001
0000
,  // measure 37
2000
0000
0000
0000
,  // measure 38
3001
0000
0010
0000
,  // measure 39
0200
0000
0000
0000
,  // measure 40
1300
0000
0010
0000
,  // measure 41
0200
0000
0000
0000
,  // measure 42
0001
0000
0000
0010
,  // measure 43
0310
0000
0000
0000
,  // measure 44
0010
0000
0000
0000
,  // measure 45
2000
0000
0000
0000
,  // measure 46
0100
0000
0000
0001
,  // measure 47
3001
0000
0000
0000
,  // measure 48
0100
0000
0001
0000
,  // measure 49
0020
0000
0000
0000
,  // measure 50
0100
0000
0000
0001
,  // measure 51
0031
0000
0000
0000
,  // measure 52
0010
0000
0001
0000
,  // measure 53
2002
0000
0000
0000
,  // measure 54
0000
0000
0000
0000
,  // measure 55
0000
0000
0000
0000
,  // measure 56
0000
0000
0000
0000
,  // measure 57
0000
0000
0000
0000
,  // measure 58
0000
0000
0000
0000
,  // measure 59
0000
0000
0000
0000
,  // measure 60
0000
0000
0000
0000
,  // measure 61
0000
0000
0000
0000
,  // measure 62
0000
0000
0000
0000
,  // measure 63
0000
0000
0000
0000
,  // measure 64
0000
0000
0000
0000
,  // measure 65
0003
3000
0000
0000
,  // measure 66
0000
0000
0000
0000
,  // measure 67
0000
0000
0000
0000
,  // measure 68
0000
0000
0000
0000
,  // measure 69
0000
0000
0000
0000
,  // measure 70
1000
0000
0001
0000
,  // measure 71
0100
0001
0100
0000
,  // measure 72
0001
0000
1000
0000
,  // measure 73
0100
0000
0000
0000
,  // measure 74
0010
0000
0001
0000
,  // measure 75
1000
0010
1000
0000
,  // measure 76
0010
0000
0100
0000
,  // measure 77
0001
0000
0000
0000
,  // measure 78
0010
0000
0100
0000
,  // measure 79
1000
0001
1000
0000
,  // measure 80
0001
0000
0100
0000
,  // measure 81
0010
0000
0000
0000
,  // measure 82
1000
0000
0100
0000
,  // measure 83
0010
0000
0001
0000
,  // measure 84
1000
0001
1000
0001
,  // measure 85
0100
0010
0100
0000
,  // measure 86
1001
0000
0000
0000
;
