#TITLE:First Day;
#SUBTITLE:;
#ARTIST:Timo Maas;
#TITLETRANSLIT:;
#SUBTITLETRANSLIT:;
#ARTISTTRANSLIT:;
#CREDIT:;
#BANNER:first.png;
#BACKGROUND:first-bg.png;
#LYRICSPATH:;
#CDTITLE:;
#MUSIC:first.ogg;
#OFFSET:0.000;
#SAMPLESTART:61.440;
#SAMPLELENGTH:12.000;
#SELECTABLE:YES;
#BPMS:0.000=125.000;
#STOPS:;
#BGCHANGES:;

//---------------dance-single - Renard----------------
#NOTES:
     dance-single:
     Renard:
     Challenge:
     9:
     0.577,0.620,0.182,0.030,0.511:
0000
0000
0000
0000
,
0000
0000
0000
0000
,
0000
0000
0000
0000
,
0000
0000
0000
0000
,
1000
0000
0000
0000
0001
0100
0001
0100
0000
0000
0010
1000
0010
1000
0000
0000
,
0100
1000
0100
1000
0000
0000
0001
0010
0001
0010
0000
0000
1001
0000
0000
0000
,
0001
0000
0000
0000
1000
0010
1000
0010
0000
0000
0100
0001
0100
0001
0000
0000
,
0010
0001
0010
0001
0000
0000
1000
0100
1000
0100
0000
0000
1001
0000
0000
0000
,
0100
0000
1001
0100
0010
0000
0011
0000
,
0100
0000
1001
0010
1000
0000
1001
0000
,
1000
0000
1100
0010
0001
0000
1100
0000
,
1000
0000
0011
0100
1000
0000
0011
0000
,
0010
0000
1001
0010
0100
0000
1100
0000
,
0010
0000
1001
0100
0001
0000
1001
0000
,
0001
0000
0011
0100
1000
0000
0011
0000
,
0001
0000
0000
0000
1100
0000
0010
0000
0001
0000
0000
0000
2002
0000
0000
3003
,
0001
0000
0000
0000
0100
0010
1000
0010
0100
0000
0010
0000
1000
0000
0100
0000
,
0010
0000
0000
0000
0001
0010
0100
0010
0001
0000
1000
0000
0001
0000
0100
0000
,
0010
0000
0000
0000
1000
0100
1000
0010
1000
0000
0000
0000
0001
0000
0010
0000
,
0100
0000
1000
0000
0001
0010
0001
0100
0001
0000
0000
0000
1000
0000
0010
0000
,
0100
0000
0001
0000
1000
0100
1000
0001
1000
0000
0001
0000
0010
0000
0100
0000
,
1000
0000
0001
0000
0010
0001
0100
0001
1000
0000
0010
0000
0100
0000
0001
0000
,
1000
0000
0100
0000
0010
0001
0010
0001
0010
0000
0100
0000
0010
0100
0010
0100
,
0010
0000
0100
0000
1000
0100
1000
0100
1000
0000
0010
0000
1000
0010
1000
0010
,
0100
0000
0000
0000
0001
0010
0100
0000
1000
0000
1000
0001
0000
0001
0100
0000
,
0010
0000
0000
0000
1000
0100
0010
0000
0001
0000
0001
1000
0000
1000
0001
0000
,
0100
0000
0000
0000
0010
1000
0001
0000
0010
0000
0010
0100
0000
0100
1000
0000
,
0001
0000
0000
0000
0100
0010
1000
0000
0001
0000
0001
1000
0000
1000
0100
0000
,
1000
0000
0000
0000
0001
0010
0100
0000
1000
0000
1000
0001
0000
0001
1000
0000
,
0010
0000
0000
0000
0100
0001
1000
0000
0100
0000
0100
1000
0000
1000
0001
0000
,
0010
0000
0000
0000
0100
1000
0001
0000
1000
0000
1000
0010
0000
0010
1000
0000
,
0001
0000
0000
0000
0010
0100
0010
0000
0001
0000
0001
1000
0000
1000
0001
0000
,
1MMM
0000
0000
0000
0001
0100
0010
1000
0010
0000
0100
0000
0001
0000
0010
0000
,
0100
0000
0000
0000
1000
0010
0100
0001
0100
0000
0010
0000
1000
0000
0100
0000
,
0010
0000
0000
0000
0001
0010
0100
1000
0001
0000
0100
0000
0010
0000
0000
0000
,
1000
0000
0000
0000
0010
0100
0001
1000
0100
0000
1000
0000
0001
0000
0000
0000
,
0010
0000
0000
0000
0001
0010
0100
1000
0001
0000
1000
0000
0010
0000
0000
0000
,
1MMM
0000
0000
0000
0001
0100
0010
1000
0001
0000
0100
0000
0010
0000
0000
0000
,
1000
0000
0001
0010
0100
0000
1000
0000
0001
0000
0010
0100
1000
0000
0001
0000
,
0010
0000
0100
1000
0001
0000
0010
0000
0100
0000
1000
0000
0001
0000
0100
0000
,
0010
0000
1000
0010
1000
0000
0010
0100
0001
0000
0100
0010
0000
0010
1000
0000
,
0100
0000
0010
0001
0010
0000
0100
0000
1000
0000
0001
1000
0000
0001
1000
0000
,
MMM1
0000
0100
0010
1000
0000
0010
0000
0100
0000
0100
0001
0000
0001
0010
0000
,
0100
0000
1000
0001
0010
0000
0100
0000
1000
0000
0001
0100
0000
0010
1000
0000
,
0010
0000
0100
0001
0100
0000
0010
0000
1000
0000
1000
0001
0000
0001
0010
0000
,
0100
0000
1000
0100
0010
0000
0001
0000
1000
0000
1000
0001
0000
0001
0100
0000
,
MM1M
0000
1000
0010
0100
0000
0001
0000
0100
0000
0010
1000
0000
0001
0100
0000
,
MM1M
0000
1000
0001
0000
0100
0010
0000
1000
0000
0010
0100
0000
0001
0100
0000
,
0020
0000
0000
0000
,
0030
0000
0000
0000
;

//---------------dance-single - Renard----------------
#NOTES:
     dance-single:
     Renard:
     Hard:
     7:
     0.496,0.521,0.192,0.010,0.126:
0000
0000
0000
0000
,
0000
0000
0000
0000
,
0000
0000
0000
0000
,
0000
0000
0000
0000
,
1001
0000
0001
0100
0010
1000
0000
0010
,
0100
0000
0000
0000
0001
0000
0010
0000
0000
0000
0100
1000
0100
0000
1000
0000
,
0010
0000
0100
0001
0000
1000
0100
0000
,
0010
0000
0001
0000
0010
0000
0100
0000
1000
0000
0001
0000
0100
0000
0010
1000
,
0010
0100
0000
0001
0100
0010
0000
1000
,
0010
0000
0100
0000
0000
0000
0001
0000
0010
0000
0100
1000
0100
0000
1000
0000
,
0001
0100
0000
0010
1000
0010
0000
0100
,
0001
0000
0100
0000
0010
0000
1000
0000
0001
0000
1000
0000
0100
0000
0010
0001
,
0010
0100
1000
0000
0001
0100
0000
0010
,
1000
0000
0000
0000
0010
0000
0100
0000
0000
0000
0001
0100
0010
0000
1000
0000
,
0001
0100
0010
0000
0010
1000
0100
0000
,
0100
0010
0011
0010
0100
1000
1100
0000
,
1000
0010
0100
0001
0100
0100
0010
0010
,
1000
0100
0010
0001
0010
0010
0100
0100
,
1000
0001
0100
0010
1000
1000
0001
0001
,
1000
0100
0010
0001
1000
1000
0001
0001
,
0010
0100
1000
0001
0100
0100
0001
0001
,
0100
0010
1000
0100
0010
0010
0100
0100
,
1000
0100
0010
0001
0010
0100
1000
0001
,
0010
0100
1000
0010
0100
0100
0001
0001
,
1000
0000
0000
0000
0001
0000
0100
0000
0010
0000
0000
1000
0000
0000
0010
0000
,
0100
0000
0000
0000
0001
0000
0010
0000
0100
0000
0000
1000
0000
0000
0001
0000
,
0100
0000
0000
0000
0001
0000
1000
0000
0100
0000
0000
1000
0000
0000
0001
0000
,
1000
0000
0000
0000
0001
0000
0100
0001
0100
0000
0000
0001
0000
0000
1000
0000
,
0100
0000
0000
0000
0010
0000
0001
0000
1000
0000
0000
0001
0000
0000
1000
0000
,
0010
0000
0000
0000
0100
0000
0001
0000
1000
0000
0000
0001
0000
0000
0010
0000
,
0100
0000
0000
0000
1000
0000
0001
0000
0100
0000
0000
0001
0000
0000
1000
0000
,
0100
0000
0000
0000
1000
0000
0001
0100
0001
0000
0000
1000
0000
0000
0001
0000
,
1000
0100
1100
0100
0010
0001
0011
0010
,
0100
0010
0110
0100
1000
0001
1001
0001
,
0100
0010
1010
0010
0100
0001
0101
0001
,
1000
0100
1100
0100
0010
0001
0011
0001
,
1000
0010
0110
0010
1000
0100
0110
0010
,
0001
0100
0110
0010
0100
0001
0110
0010
,
0100
1000
1010
0100
0001
0010
0110
0001
,
0010
0001
0101
0100
0010
1000
1001
1000
,
0001
0000
0100
0000
0010
0000
1000
0000
0010
0000
0000
1000
0000
0000
0001
0000
,
0100
0000
0010
0000
1000
0000
0100
0000
0010
0000
0000
0001
0000
0000
1000
0000
,
0001
0000
0100
0000
0010
0000
1000
0000
0010
0000
0000
0100
0000
0000
0001
0000
,
0100
0000
0010
0000
1000
0000
0100
0000
0010
0000
0001
0010
0100
0000
1000
0001
,
1000
0000
0001
0000
0100
0000
0010
0000
1000
0000
0000
0010
0000
0000
0100
0000
,
0001
0000
1000
0000
0100
0000
0010
0000
0001
0000
0000
1000
0000
0000
0001
0000
,
0100
0000
0010
0000
1000
0000
0010
0000
0100
0000
0000
0001
0000
0000
1000
0000
,
0100
0000
0010
0000
0001
0000
0010
0100
1000
0000
0001
1000
0001
0000
0100
0000
,
0020
0000
0000
0000
,
0030
0000
0000
0000
;

//---------------dance-single - Renard----------------
#NOTES:
     dance-single:
     Renard:
     Medium:
     5:
     0.272,0.322,0.000,0.020,0.000:
0000
0000
0000
0000
,
0000
0000
0000
0000
,
0000
0000
0000
0000
,
0000
0000
0000
0000
,
1000
0000
0001
0000
0000
0100
0000
0000
,
0010
0000
0000
1000
0000
0100
0010
0000
,
0001
0000
1000
0000
0000
0001
0000
0000
,
0100
0000
0000
0010
0000
1000
0010
0000
,
1000
0100
0000
0010
0000
0010
0000
0001
,
0000
1000
0000
0010
0000
0100
0000
0001
,
0000
1000
0000
0100
0000
0010
0000
0001
,
0000
1000
0000
0001
0000
0100
0000
0000
,
0010
1000
0000
0001
0000
0100
0000
0001
,
0000
1000
0000
0100
0000
0000
0010
0001
,
0000
1000
0000
0001
0000
0000
0100
0010
,
0000
1000
0000
0100
0000
0010
0000
0001
,
0000
0000
1000
0001
1000
0000
0001
0000
,
0000
0000
0100
0010
0100
0010
0100
0010
,
0000
0000
1000
0001
1000
0000
0001
0000
,
0000
0000
0100
0010
0100
0010
0100
0010
,
0000
0000
0100
0010
0100
0000
0010
0000
,
0000
0000
1000
0001
1000
0001
1000
0001
,
0000
0000
0100
0010
0100
0000
0010
0000
,
0000
0000
1000
0001
1000
0001
1000
0001
,
1000
0000
0001
0000
0100
0000
0000
0010
,
1000
0000
0100
0000
0010
0000
0000
0001
,
1000
0000
0100
0000
0010
0000
0000
0001
,
1000
0000
0001
0000
0100
0000
0000
0001
,
1000
0000
0100
0000
0010
0000
0000
0001
,
1000
0000
0001
0000
0100
0000
0000
0010
,
1000
0001
0100
0010
,
1000
0100
1000
0100
1000
0001
1000
0001
,
1000
0001
0100
0001
,
0000
0000
1000
0000
0100
0000
0010
0001
,
0000
0010
0100
1000
,
0000
0000
0001
0000
0100
0000
0010
1000
,
0000
0001
0100
0001
,
0000
0000
1000
0000
0100
0000
0010
0001
,
0000
1000
0001
1000
,
0010
0100
0010
0100
0010
0100
0010
0100
,
0010
1000
0100
0010
,
0000
0000
0001
0000
1000
0000
0100
0010
,
0000
0001
1000
0001
,
0000
0000
0100
0000
0010
0000
1000
0010
,
0000
0100
0001
1000
,
0000
0000
0100
0000
0010
0000
0001
1000
,
0000
0001
0010
0100
,
0000
0000
1000
0000
0010
0000
0100
0002
,
2000
0000
0000
0000
,
3003
0000
0000
0000
;

//---------------dance-single - Renard----------------
#NOTES:
     dance-single:
     Renard:
     Easy:
     2:
     0.188,0.219,0.000,0.132,0.000: // measure 1
0000
0000
0000
0000
,  // measure 2
0000
0000
0000
0000
,  // measure 3
0000
0000
0000
0000
,  // measure 4
0000
0000
0000
0000
,  // measure 5
1000
0001
0000
0100
,  // measure 6
0010
1000
0000
0100
,  // measure 7
0010
0001
0000
1000
,  // measure 8
0001
0100
0000
0001
,  // measure 9
1000
0000
0100
0010
,  // measure 10
0001
0000
0010
0100
,  // measure 11
1000
0000
0100
0010
,  // measure 12
0001
0000
1000
0000
,  // measure 13
0001
0000
0001
0000
,  // measure 14
1000
0000
1000
0000
,  // measure 15
0010
0100
0010
0000
,  // measure 16
0100
0010
1000
0001
,  // measure 17
1000
0100
0010
0100
,  // measure 18
0000
1000
0001
1000
,  // measure 19
0000
0010
0100
0010
,  // measure 20
0000
1000
0001
1000
,  // measure 21
0000
0001
0100
0001
,  // measure 22
0000
1000
0100
1000
,  // measure 23
0000
0001
0010
0001
,  // measure 24
0000
1000
0010
1000
,  // measure 25
0001
0000
1000
0000
,  // measure 26
0010
0000
0010
0000
,  // measure 27
0100
0000
0001
0000
,  // measure 28
1000
0000
1000
0000
,  // measure 29
0100
0000
0010
0000
,  // measure 30
0001
0000
0001
0000
,  // measure 31
1000
0000
0010
0000
,  // measure 32
0100
0001
0100
0010
,  // measure 33
1000
0000
0020
0000
,  // measure 34
0130
0001
0010
0000
,  // measure 35
0100
0000
2000
0000
,  // measure 36
3001
0100
0001
0000
,  // measure 37
1000
0000
0200
0000
,  // measure 38
0310
0001
1000
0000
,  // measure 39
0002
0000
0023
0000
,  // measure 40
0230
0000
2300
0000
,  // measure 41
3010
0100
0010
0100
,  // measure 42
0000
0001
1000
0000
,  // measure 43
0000
0001
0010
0002
,  // measure 44
0000
0013
0100
0000
,  // measure 45
0000
1000
0010
2000
,  // measure 46
0000
0000
3010
0100
,  // measure 47
0002
0000
0023
0000
,  // measure 48
0230
0000
2300
0000
,  // measure 49
3001
0000
0000
0000
;
