#TITLE:Fire in the Hole;
#SUBTITLE:;
#ARTIST:General Patton vs The X-Ecutioners;
#TITLETRANSLIT:;
#SUBTITLETRANSLIT:;
#ARTISTTRANSLIT:;
#CREDIT:;
#BANNER:fire.png;
#BACKGROUND:fire-bg.png;
#LYRICSPATH:;
#CDTITLE:;
#MUSIC:fire.ogg;
#OFFSET:0.000;
#SAMPLESTART:53.617;
#SAMPLELENGTH:12.000;
#SELECTABLE:YES;
#BPMS:0.000=94.000;
#STOPS:;
#BGCHANGES:;

//---------------dance-single - Renard----------------
#NOTES:
     dance-single:
     Renard:
     Challenge:
     9:
     0.650,0.566,0.338,0.041,0.620:
0000
0000
0000
0000
,
1001
0000
0001
0100
0010
0000
1000
0100
1000
0000
0001
0010
0001
0000
0100
0000
,
0110
0000
0010
1000
0100
0000
0010
0001
0010
0000
0100
1000
0001
0000
1000
0000
,
0001
0100
0001
0000
0100
0000
0010
1000
0010
0000
1000
0100
1000
0000
0100
0010
,
0001
0010
0100
1000
0001
0010
0100
1000
,
0001
0000
0000
1000
0000
1000
0010
0000
0000
0100
0000
0000
0001
0000
0001
0010
0000
0000
0100
0000
0000
1000
0000
0000
,
0010
0000
0000
0100
0000
0000
0001
0000
0000
0100
0000
0010
0000
0000
0010
1000
0000
0000
0100
0000
0000
0010
0000
0000
,
0001
0000
0000
0010
0000
0000
0100
0000
0000
1000
0000
0000
0001
0000
0001
0100
0000
0000
0010
0000
0000
1000
0000
0000
,
0100
0000
0000
0010
0000
0010
0001
0000
0000
0010
0000
0000
0100
0000
0000
0100
0000
1000
0010
0000
0000
0100
0000
0000
,
0001
0000
0000
0100
0000
0000
0010
0000
0000
1000
0000
0100
0000
0000
0100
0010
0000
0000
0001
0000
0000
0010
0000
0000
,
0100
0000
0000
1000
0000
0000
0001
0000
0000
0010
0000
0100
0000
0000
0100
1000
0000
0000
0010
0000
0000
0100
0000
0000
,
0001
0000
0000
0100
0000
0000
0010
0000
0000
1000
0000
0100
0000
0000
0100
1000
0000
0000
0010
0000
0000
0100
0000
0000
,
0101
0000
0000
0110
0000
0000
1010
0000
0000
1001
0000
0000
1000
0000
0100
0000
0000
0100
0010
0000
0000
0001
0000
0010
,
0100
0000
0000
1000
0000
0000
0001
0000
0000
0100
0000
0010
1000
0000
0010
1000
0000
0000
0010
0000
0000
1000
0000
0100
,
1000
0000
0100
1000
0000
0000
0001
0000
0000
0010
0000
0001
0010
0000
0001
0010
0000
0000
0100
0000
0000
1000
0000
0001
,
1000
0000
0001
0100
0000
0000
0010
0000
0000
1000
0000
0010
1000
0000
0010
1000
0000
0000
0001
0000
0000
0100
0000
0000
,
0010
0000
1000
0001
0000
0100
0010
0000
1000
0100
0000
0010
0001
0000
0010
0100
0000
1000
0001
0000
0010
0100
0000
1000
,
0001
0000
0000
0100
0000
0000
0010
0000
0000
1000
0000
0010
1000
0000
0010
1000
0000
0000
0001
0000
0000
0100
0000
0001
,
0100
0000
0001
0100
0000
0000
0001
0000
0000
0010
0000
0001
0010
0000
0001
0010
0000
0000
0100
0000
0000
0010
0000
0100
,
0010
0000
0100
0010
0000
0000
0100
0000
0000
1000
0000
0100
1000
0000
0100
1000
0000
0000
0010
0000
0000
1000
0000
0000
,
1010
0000
0000
1000
0000
0001
1000
0000
0000
0101
0000
0000
0100
0000
0000
0010
0000
0000
1000
0000
0100
0010
0000
0000
,
0001
0000
0100
0010
0110
0000
0010
1000
1010
0000
1000
0100
1100
0000
0110
0000
,
0011
0000
0001
0010
0011
0000
0010
0100
0110
0000
0100
1000
1100
0000
1000
0000
,
1000
0010
0100
0000
0101
0000
0100
0010
1000
0000
0001
0100
0010
0000
1000
0000
,
0100
0000
0010
0000
0001
0000
0010
0100
1000
0001
0010
0000
0110
0000
1100
0000
,
0011
0000
0110
0000
0100
0000
1000
0010
0100
0001
0100
0000
0101
0000
0110
0000
,
1010
0000
1001
0000
1100
0000
1000
0100
0010
0001
0010
0000
0100
0000
1000
0000
,
2200
0011
33MM
0000
1111
MMMM
0000
0001
,
0100
0000
0010
1000
0000
0000
0010
0000
0100
0001
0000
0100
0010
0000
1000
0100
0000
0010
0001
0000
0010
0100
1000
0001
,
0010
0000
0010
0100
0000
0000
1000
0000
0000
0010
0000
0100
0001
0000
0100
0010
0000
0000
1000
0000
0000
0100
0000
0010
,
0001
0000
0010
0100
0000
0000
1000
0000
0000
0001
0000
0100
0010
0000
1000
0010
0000
0100
0001
0100
0010
1000
0000
0000
,
0100
0000
0000
0010
0000
0001
0010
0000
0000
0100
0000
1000
0001
0000
0010
0100
0000
0000
1000
0000
0000
0001
0000
0100
,
0010
0000
1000
0010
0000
0000
0100
0000
0000
0001
0000
0100
0010
1000
0010
0100
0000
0000
0001
0100
0010
0100
0000
0000
,
0010
0000
1000
0100
0000
0000
0010
0000
0000
0001
0000
0010
0100
0000
1000
0001
0000
0010
0100
0000
0000
1000
0000
0001
,
0100
0000
0000
0010
0000
1000
0010
0000
0000
0100
0000
0001
0100
0000
0010
1000
0000
0100
0010
0000
0000
0001
0010
0100
,
1000
0000
0000
0001
0010
0100
1000
0000
0000
0001
0000
0100
0010
0000
1000
0010
0000
0000
0100
0000
0000
0001
0000
0100
,
0010
0000
0000
0000
0000
0000
1000
0000
0000
0000
0100
0000
0010
0000
0000
0000
0001
0000
0010
0000
0000
0000
0000
0000
0010
0000
0000
0000
0000
0000
1001
0000
0000
0000
0000
0000
0000
0000
0000
0110
0000
0000
0000
0000
0000
0000
0001
0000
,
1000
0000
0000
0000
0000
0001
0100
0000
0000
1010
0000
0000
0100
0000
0001
0010
0000
0000
2002
0000
0000
0000
0000
0000
,
0010
3003
0000
0000
0000
0000
0000
0000
;

//---------------dance-single - Renard----------------
#NOTES:
     dance-single:
     Renard:
     Hard:
     8:
     0.477,0.428,0.184,0.041,0.190:
0000
0000
0000
0000
,
1000
0000
0000
0100
0000
0000
0011
0000
0000
0100
0000
1000
0100
0000
0000
1000
0000
0001
0100
0000
0000
0001
0000
0000
,
0010
0000
0000
0100
0000
0000
1000
0000
0000
0001
0000
0100
0001
0000
0000
1000
0000
0100
1000
0000
0000
0001
0000
0000
,
0010
0000
0001
0010
0000
0000
0001
0000
0000
1000
0000
0100
1000
0000
0000
0001
0000
0100
0001
0000
0000
1000
0000
0000
,
0100
0010
0000
0001
1000
0010
0100
0001
,
1000
0000
0000
0100
0000
0000
0010
0000
0000
0001
0000
1000
0001
0000
0000
0100
0000
0000
0010
0000
0000
1000
0000
0000
,
0100
0000
0000
0010
0000
0000
0001
0000
0000
1000
0000
0010
1000
0000
0000
0001
0000
0000
0100
0000
0000
0001
0000
0000
,
0010
0000
0000
0100
0000
0000
1000
0000
0000
0001
0000
0100
0001
0000
0000
1000
0000
0000
0100
0000
0000
0010
0000
0000
,
0000
0000
0000
0001
0000
0000
1000
0000
0000
0001
0000
0100
0010
0000
0100
0010
0000
0000
1000
0000
0000
0100
0000
0000
,
0010
0000
0000
0001
0000
0000
1000
0000
0000
0001
0000
0100
0001
0000
0000
1000
0000
0000
0100
0000
0000
0010
0000
0000
,
0001
0000
0000
1000
0000
0000
0100
0000
0000
0010
0000
0001
1000
0000
0000
0001
0000
0000
0100
0000
0000
0010
0000
0000
,
1000
0000
0000
0100
0000
0000
1000
0000
0000
0001
0000
0010
0001
0000
0000
1000
0000
0000
0010
0000
0000
0100
0000
0000
,
1001
0000
0000
0000
0000
0000
0110
0000
0000
1001
0000
0000
0000
0000
0010
0000
0000
0000
1001
0000
0000
0000
0000
0000
,
1000
0000
0000
0100
0000
0000
0010
0000
0000
0001
0000
0010
0001
0000
0000
0010
0000
0000
0100
0000
0000
1000
0000
0000
,
0001
0000
0000
0100
0000
0000
0010
0000
0000
1000
0000
0010
1000
0000
0000
0100
0000
0000
0010
0000
0000
0001
0000
0000
,
0010
0000
0000
0100
0000
0000
1000
0000
0000
0001
0000
0100
0001
0000
0000
0100
0000
0000
0010
0000
0000
1000
0000
0000
,
0100
0010
0011
0000
0010
0100
1100
0000
,
1000
0000
0000
0001
0000
0000
0100
0000
0000
0010
0000
1000
0010
0000
0000
1000
0000
0000
0100
0000
0000
0010
0000
0000
,
0001
0000
0000
0010
0000
0000
0100
0000
0000
1000
0000
0001
1000
0000
0000
0001
0000
0000
0100
0000
0000
0010
0000
0000
,
1000
0000
0000
0100
0000
0000
0010
0000
0000
0001
0000
1000
0001
0000
0000
0100
0000
0000
0010
0000
0000
1000
0000
0000
,
0100
0000
0000
0000
0100
0000
0000
0000
0000
0100
0000
0000
0000
0000
0000
0100
0000
0000
0000
0000
0100
0000
0000
0000
,
1000
0001
0100
0001
1000
0100
0010
0001
,
1000
0010
0100
0001
0100
0010
1000
0100
,
0011
2200
0000
0000
3311
0000
1000
0100
,
0010
0000
0000
0001
0000
0000
1000
0000
0000
0001
0000
0100
0001
0000
1000
0001
0000
0000
1100
0000
0000
0000
0000
0000
,
0010
0001
1000
0100
1000
0001
0010
0100
,
1000
0001
0100
0010
1000
0100
0010
0001
,
0010
0000
0000
2200
0000
0000
0000
0000
0000
0000
0000
0000
3311
0000
0000
0000
0000
0000
1000
0000
0001
1000
0000
0000
,
0010
0000
0000
0100
0000
0000
0010
0000
0000
1001
0000
0000
0000
0000
1000
0000
0000
0000
0110
0000
0000
0000
0000
0000
,
1000
0000
0000
0100
0000
0000
0010
0000
0000
0001
0000
1000
0001
0000
0000
0100
0000
0000
0010
0000
0000
1000
0000
0000
,
0100
0000
0000
0010
0000
0000
0001
0000
0000
1000
0000
0001
1000
0000
0000
0100
0000
0000
0010
0000
0000
0001
0000
0000
,
1000
0000
0000
0010
0000
0000
0100
0000
0000
0001
0000
1000
0001
0000
0000
1000
0000
0000
0100
0000
0000
0010
0000
0000
,
0001
0000
0000
1000
0000
0000
0010
0000
0000
1000
0000
0001
1000
0000
0000
0001
0000
0000
0010
0000
0000
0100
0000
0000
,
1000
0000
0000
0001
0000
0000
1000
0000
0000
0001
0000
0100
0001
0000
0000
1000
0000
0000
0010
0000
0000
0100
0000
0000
,
0001
0000
0000
1000
0000
0000
0100
0000
0000
1000
0000
0001
1000
0000
0000
0001
0000
0000
0010
0000
0000
0100
0000
0000
,
1000
0000
0000
0010
0000
0000
0100
0000
0000
0001
0000
1000
0001
0000
0000
1000
0000
0000
0100
0000
0000
0010
0000
0000
,
0001
0000
0000
0001
0000
0000
0001
0000
0000
0001
0000
0000
0000
0000
0000
0001
0000
0000
0000
0000
0001
0000
0000
0000
,
1000
0000
0000
0000
0000
0000
0010
0000
0000
0100
0000
0000
0000
0000
1001
0000
0000
0000
0110
0000
0000
0000
0000
0000
,
1001
0000
0000
0000
;

//---------------dance-single - Renard----------------
#NOTES:
     dance-single:
     Renard:
     Medium:
     5:
     0.347,0.331,0.307,0.000,0.000:
0000
0000
0000
0000
,
1000
0000
0100
0000
1000
0100
1000
0100
,
0010
0000
0001
0000
0010
0001
0010
0001
,
1000
0000
0001
0000
1000
0001
1000
0001
,
0100
0100
0100
0100
,
0110
0000
1001
0000
1000
0100
0010
0000
,
0110
0000
1001
0000
0001
0010
0100
0000
,
0110
0000
1001
0000
1000
0100
0010
0000
,
0110
0000
1001
0000
0001
0010
0100
0000
,
0100
1000
0100
1000
0100
0010
0100
0010
,
0001
0010
0001
0010
0001
0100
0001
0100
,
0010
0100
0010
0100
0010
1000
0010
1000
,
0100
0010
0001
1000
0000
0000
1001
0000
,
0001
0000
0101
0000
0001
1000
0100
0000
,
1000
0000
1100
0000
1000
0001
0010
0000
,
0001
0000
0011
0000
0001
1000
0010
0000
,
1000
0000
1010
0000
1000
0100
1000
0000
,
0001
0000
1001
0000
0001
0100
0001
0010
,
0001
0000
0011
0000
0001
1000
0010
1000
,
0001
0000
1001
0000
1000
0100
0010
0000
,
0011
0110
1100
1001
,
1000
0100
0010
0001
0010
0100
1000
0000
,
0001
0010
0100
1000
0100
0010
0001
0000
,
1000
0001
1000
0000
0110
0000
1001
0000
,
1000
0100
0010
0001
1000
0001
1000
0000
,
0001
0010
0100
1000
0100
0010
0001
0000
,
1000
0100
0010
0001
0010
0100
1000
0000
,
0001
0100
0010
0000
1001
0000
1000
0000
,
0100
0100
0100
0100
0000
0000
1001
0000
,
1000
0000
0100
0000
0010
0001
0010
0001
,
0000
0000
0100
0000
0010
1000
0010
1000
,
0000
0000
0100
0000
0010
0001
1000
0001
,
0000
0101
0000
0000
0001
0000
1000
0000
,
0100
0000
0010
0000
0001
1000
0001
1000
,
0000
0000
0001
0000
0100
0010
0100
0010
,
0000
0000
1000
0000
0001
1000
0001
0000
,
1001
0110
1001
0110
,
0010
1000
0001
0100
0000
0010
1000
0000
,
1001
0000
0000
0000
;

//---------------dance-single - Renard----------------
#NOTES:
     dance-single:
     Renard:
     Easy:
     2:
     0.214,0.195,0.256,0.072,0.000: // measure 1
0000
0000
0000
0000
,  // measure 2
1000
1000
0001
0001
,  // measure 3
1000
1000
0001
0001
,  // measure 4
0100
0100
0010
0010
,  // measure 5
0110
0000
1001
0000
,  // measure 6
1000
0100
0010
0000
,  // measure 7
0010
0000
0010
0000
,  // measure 8
0001
0100
0010
0000
,  // measure 9
0010
0000
0010
0000
,  // measure 10
1000
0001
1000
0000
,  // measure 11
0001
1000
0001
0000
,  // measure 12
0100
0010
0100
0010
,  // measure 13
0100
0100
0100
1001
,  // measure 14
2000
0000
3100
0010
,  // measure 15
0002
0000
0103
0010
,  // measure 16
0200
0000
0310
1000
,  // measure 17
0200
0000
0310
0001
,  // measure 18
1000
0001
0200
0301
,  // measure 19
0001
0010
0200
0000
,  // measure 20
1300
0010
0020
0130
,  // measure 21
0100
0100
0100
0100
,  // measure 22
0010
0100
0001
1000
,  // measure 23
0100
0010
0001
0010
,  // measure 24
0110
0000
1001
0000
,  // measure 25
0001
0100
0010
1000
,  // measure 26
1100
0010
0001
0100
,  // measure 27
0001
0100
0010
1000
,  // measure 28
1001
0000
0110
0000
,  // measure 29
0010
1000
0001
0110
,  // measure 30
0001
1100
0000
0011
,  // measure 31
0000
1100
0000
0011
,  // measure 32
0000
0101
0000
1010
,  // measure 33
0000
0101
0000
1010
,  // measure 34
0000
0110
0000
1001
,  // measure 35
0000
0110
0000
1001
,  // measure 36
0000
1001
0000
1010
,  // measure 37
0001
0000
0001
0000
,  // measure 38
1000
0001
0000
0110
,  // measure 39
1001
0000
0000
0000
;
