#TITLE:Faraway Story;
#SUBTITLE:;
#ARTIST:Sonitus Vir;
#TITLETRANSLIT:;
#SUBTITLETRANSLIT:;
#ARTISTTRANSLIT:;
#CREDIT:;
#BANNER:story.png;
#BACKGROUND:story-bg.png;
#LYRICSPATH:;
#CDTITLE:;
#MUSIC:story.ogg;
#OFFSET:0.000;
#SAMPLESTART:12.382;
#SAMPLELENGTH:12.000;
#SELECTABLE:YES;
#BPMS:0.000=155.063;
#STOPS:;
#BGCHANGES:;

//---------------dance-single - Renard----------------
#NOTES:
     dance-single:
     Renard:
     Hard:
     9:
     0.615,0.621,0.201,0.000,0.513:
0000
0000
0000
0000
,
0000
0000
0000
0000
,
0000
0000
0000
0000
,
0000
0000
0000
0000
,
1000
0000
0000
0000
0000
0000
1000
0000
0000
0000
0001
0100
0001
0000
0100
0000
,
0001
0000
0000
0000
0000
0000
0001
0000
0000
0000
1000
0100
1000
0000
0100
0000
,
1000
0000
0001
1000
0001
0000
1000
0000
0001
0000
1000
0001
1000
0000
0001
0000
,
1001
0000
0110
0000
1001
0001
1000
0000
,
0001
0000
0000
0001
0100
0000
0010
0000
1000
0000
0000
1000
0010
0000
0100
0000
,
0001
0000
0000
0001
0010
0000
0100
0000
1000
0000
0000
0000
0001
0000
0000
0000
,
0001
0000
0000
0100
0010
0000
1000
0000
0100
0000
0000
0100
0010
0000
0001
0000
,
1000
0000
0000
0010
0100
0000
0001
0000
1000
0000
0000
0000
1001
0000
0000
0000
,
1000
0000
0000
0100
0010
0000
0001
0000
1000
0000
0000
0010
0100
0000
0001
0000
,
0010
0000
0000
0100
1000
0000
0010
0000
0100
0000
0000
0000
0001
0000
0000
0000
,
1000
0000
0010
1000
0010
0000
1000
0001
1000
0000
0001
1000
0001
0000
1000
0000
,
0100
0000
0000
1000
0100
0000
0010
0000
0001
0000
0000
0000
1001
0000
0000
0000
,
0001
0000
0000
0100
0000
0000
0010
0000
0000
0000
0000
0000
1000
0000
0010
0000
,
0100
0000
0000
0001
0000
0000
1000
0000
0000
0100
0000
0000
0000
0000
0000
0000
,
0010
0000
0000
0001
0000
0000
0010
0000
0000
0000
0000
0000
0100
0000
1000
0000
,
0010
0000
0000
0100
0000
0000
0001
0000
0000
0100
0000
0000
0000
0000
0010
0000
,
1000
0000
0000
0100
0000
0000
0010
0000
0000
0000
0000
0000
0001
0000
0010
0000
,
0100
0000
0000
1000
0000
0000
0010
0000
0000
0100
0000
0000
0000
0000
0001
0000
,
0100
0000
0000
0010
0000
0000
1000
0000
0000
0000
0000
0000
0100
0000
0010
0000
,
0001
0000
0010
0000
0100
0000
0000
1000
0000
0000
0001
0000
1001
0000
0000
0000
,
0001
0000
0100
0000
0001
0000
1000
0100
0000
1000
0001
0000
0100
0000
0010
0000
,
1000
0000
0100
0000
0010
0000
0001
0010
0000
0100
1000
0000
0001
0000
0100
0000
,
0010
0000
1000
0000
0001
0000
0100
0010
0000
1000
0001
0000
1000
0000
0100
0000
,
0010
0000
0001
0000
0010
0000
0100
1000
0000
0001
0010
0000
0001
0000
0010
0000
,
0100
0000
1000
0000
0001
0000
0100
0010
0000
1000
0010
0000
0100
0000
0001
0000
,
0010
0000
0100
0000
1000
0000
0001
0100
0000
0010
1000
0000
0001
0000
1000
0000
,
0100
0000
0010
0000
0001
0000
1000
0100
0000
0010
0001
0000
1000
0000
0010
0000
,
0100
0000
0001
0000
1000
0000
0100
0010
0000
0001
0010
0000
0100
0000
1000
0000
,
0001
0000
0100
0000
0010
0000
1000
0001
0000
0100
0010
0000
1000
0000
0100
0000
,
0010
0000
0001
0000
0010
0000
0100
1000
0000
0001
0010
0000
0001
0000
1000
0000
,
0010
0000
0100
0000
0001
0000
1000
0010
0000
0100
0001
0000
1000
0000
0100
0000
,
0010
0000
0001
0000
1000
0000
0001
0010
0000
0100
1000
0000
0001
0000
0100
0000
,
0010
0000
1000
0000
0001
0000
0100
0010
0000
1000
0001
0000
0100
0000
0001
0000
,
1000
0000
0100
0000
0010
0000
0001
0010
0000
0100
1000
0000
0001
0000
0100
0000
,
0010
0000
1000
0000
0100
0000
0010
0100
0000
1000
0001
0000
0100
0000
0010
0000
,
1000
0000
0100
0000
0010
0000
0001
0010
0000
0100
1000
0000
1001
0000
0000
0000
,
1001
0000
0000
0100
0000
0000
0010
0000
0000
1000
0000
0000
0100
0000
0010
0000
,
0001
0000
0000
0010
0000
0000
0100
0000
0000
1000
0000
0000
0010
0000
0100
0000
,
0001
0000
0000
0100
0000
0000
0010
0000
0000
1000
0000
0000
0100
0000
0010
0000
,
0001
0000
0000
0010
0000
0000
0100
0000
0000
1000
0000
0000
0110
0000
0000
0000
,
1001
0000
0000
1000
0000
0000
0100
0000
0000
0010
0000
0000
0001
0000
0010
0000
,
0100
0000
0000
1000
0000
0000
0010
0000
0000
0100
0000
0000
0001
0000
0010
0000
,
0100
0000
0000
1000
0000
0000
0001
0000
0000
0100
0000
0000
0010
0000
1000
0000
,
0100
0000
0000
0010
0000
0000
0001
0000
0000
1000
0000
0000
0110
0000
0000
0000
,
1001
0000
0000
0001
0100
0000
0010
0000
0000
1000
0000
0000
0100
0000
0010
0000
,
0001
0000
0000
0010
0100
0000
1000
0000
0000
0010
0000
0000
0100
0000
0001
0000
,
0100
0000
0000
0010
1000
0000
0010
0000
0000
0100
0000
0000
0001
0000
0010
0000
,
0100
0000
0000
1000
0001
0000
0100
0000
0000
0010
0000
0000
1000
0000
0000
0000
,
1001
0000
0000
0001
0100
0000
0010
0000
0000
1000
0000
0000
0100
0000
0010
0000
,
0001
0000
0000
0010
0100
0000
1000
0000
0000
0001
0000
0000
0100
0000
0010
0000
,
1000
0000
0000
0010
0100
0000
0001
0000
0000
0010
0000
0000
0100
0000
1000
0000
,
1100
0000
0000
0110
0000
0000
0011
0000
0000
0101
0000
0000
1010
0000
0000
0000
;

//---------------dance-single - Renard----------------
#NOTES:
     dance-single:
     Renard:
     Medium:
     6:
     0.347,0.404,0.100,0.000,0.050:
0000
0000
0000
0000
,
0000
0000
0000
0000
,
0000
0000
0000
0000
,
0000
0000
0000
0000
,
1000
0000
0000
1000
0000
0001
0100
0000
,
0001
0000
0000
0001
0000
1000
0100
0000
,
1000
0000
0001
0100
0001
0000
1000
0100
,
1000
0001
0110
1001
,
0001
0000
0100
0001
0100
0000
0001
1000
,
0001
0000
1000
0100
1000
0000
1001
0000
,
1000
0000
0010
1000
0010
0000
1000
0001
,
1000
0000
0001
0010
0001
0000
1001
0000
,
0001
0000
0100
0010
0100
0000
0010
0100
,
0010
0000
1000
0001
1000
0000
0001
0000
,
1000
0000
0100
1000
0100
0000
0010
0001
,
0010
0000
0001
1000
0001
0000
1001
0000
,
0001
0000
0000
0001
0000
0000
0100
0000
,
0010
0000
0000
0010
0000
0000
0100
0000
,
0010
0000
0000
0010
0000
0000
1000
0000
,
0100
0000
0000
0100
0000
0000
0010
0000
,
0001
0000
0000
0001
0000
0000
1000
0000
,
0010
0000
0000
0010
0000
0000
0100
0000
,
0001
0000
0000
0001
0000
0000
1000
0000
,
0100
0000
1000
0000
0100
1000
0001
0000
,
1000
0000
0000
0100
0000
0000
1000
0000
0000
0000
0000
0000
0000
0000
0000
0000
,
0001
0000
0000
0010
0000
0000
0001
0000
0000
0000
0000
0000
0100
0000
0000
0000
,
0010
0000
0000
1000
0000
0000
0010
0000
0000
0000
0000
0000
1000
0000
0000
0000
,
0001
0000
0000
0100
0000
0000
0001
0000
0000
0000
0000
0000
1000
0000
0000
0000
,
0001
0000
0000
0010
0000
0000
0001
0000
0000
0000
0000
0000
1000
0000
0000
0000
,
0001
0000
0000
1000
0000
0000
0001
0000
0000
0000
0000
0000
0100
0000
0000
0000
,
0010
0000
0000
1000
0000
0000
0010
0000
0000
0000
0000
0000
0000
0000
0000
0000
,
1000
0000
0000
0100
0000
0000
0010
0000
0000
0001
0000
0000
0000
0000
0000
0000
,
1000
1000
1000
1000
,
0001
1000
0001
1000
,
0010
0010
0010
0010
,
0100
0010
0100
0010
,
0100
0001
0100
0001
,
1000
0000
0001
0000
1000
0000
0001
1000
,
0001
0000
1000
0000
0100
0000
1000
0100
,
1000
0000
0001
0000
0100
0010
0100
0000
,
0110
0000
0000
0001
0000
0000
0100
0010
,
1000
0000
0000
0100
0000
0000
0010
0001
,
0010
0000
0000
0100
0000
0000
1000
0001
,
0100
0000
0000
0001
0000
0000
1000
0000
,
0100
0000
0000
0010
0000
0000
0001
1000
,
0010
0000
0000
1000
0000
0000
0001
0000
,
0100
0000
0000
0001
0000
0000
1000
0100
,
1000
0000
0000
0001
0000
0000
0010
0000
,
0001
0000
0000
1000
0000
0000
0010
1000
,
0010
0000
0000
0100
0000
0000
0001
0000
,
1000
0000
0000
0100
0000
0000
0010
0001
,
1000
0000
0000
0001
0000
0000
0100
0000
,
0010
0000
0000
1000
0000
0000
0010
0100
,
0001
0000
0000
0100
0000
0000
0001
0000
,
1000
0000
0000
0100
0000
0000
0010
0000
,
1001
0000
0000
0110
0000
0000
1001
0000
;

//---------------dance-single - Renard----------------
#NOTES:
     dance-single:
     Renard:
     Easy:
     2:
     0.263,0.280,0.045,0.000,0.000: // measure 1
0000
0000
0000
0000
,  // measure 2
0000
0000
0000
0000
,  // measure 3
0000
0000
0000
0000
,  // measure 4
0000
0000
0000
0000
,  // measure 5
1000
0000
0000
0000
1000
0000
0001
1000
,  // measure 6
0001
0000
0001
0000
,  // measure 7
1000
1000
0001
0001
,  // measure 8
1000
0000
0001
1000
0001
0000
0000
0000
,  // measure 9
1000
1000
0001
0001
,  // measure 10
0100
0100
0010
0000
,  // measure 11
1000
1000
0001
0001
,  // measure 12
1000
0000
0001
1000
0001
0000
0000
0000
,  // measure 13
1000
1000
0001
0001
,  // measure 14
0100
0100
0010
0000
,  // measure 15
1000
0010
1000
0010
,  // measure 16
0100
0001
0100
0000
,  // measure 17
0001
0000
0001
0000
,  // measure 18
1000
0100
1000
0000
,  // measure 19
0001
0000
0001
0000
,  // measure 20
0010
0100
0010
0000
,  // measure 21
0100
0000
0100
0000
,  // measure 22
1000
0100
1000
0000
,  // measure 23
0001
0000
1000
0000
,  // measure 24
0001
0010
0001
1000
,  // measure 25
0001
0000
0001
0000
,  // measure 26
0100
0010
0100
0010
,  // measure 27
1000
0000
1000
0000
,  // measure 28
0010
1000
0100
1000
,  // measure 29
0001
0000
0001
0000
,  // measure 30
0010
0100
0010
0001
,  // measure 31
1000
0000
1000
0000
,  // measure 32
0001
0100
0001
1000
,  // measure 33
0001
0000
1000
0001
,  // measure 34
0100
0000
0010
0100
,  // measure 35
0001
0000
1000
0100
,  // measure 36
0010
0000
0001
1000
,  // measure 37
0010
0000
0100
0001
,  // measure 38
1000
0000
0100
0010
,  // measure 39
0001
0000
0010
0100
,  // measure 40
1000
0001
0100
0110
,  // measure 41
0010
0000
0000
0010
0000
0000
0100
0000
,  // measure 42
0001
0000
0000
1000
0000
0000
0100
0000
,  // measure 43
0010
0000
0000
0001
0000
0000
0010
0000
,  // measure 44
0100
0000
0000
1000
0000
0000
0010
0000
,  // measure 45
0100
0000
0000
0001
0000
0000
1000
0000
,  // measure 46
0100
0000
0000
0010
0000
0000
0001
0000
,  // measure 47
0010
0000
0000
0100
0000
0000
1000
0000
,  // measure 48
0010
0000
0000
0100
0000
0000
0001
0000
,  // measure 49
0100
0000
0000
0001
0000
0000
1000
0000
,  // measure 50
0100
0000
0000
1000
0000
0000
0001
0000
,  // measure 51
0010
0000
0000
0001
0000
0000
1000
0000
,  // measure 52
0010
0000
0000
0100
0000
0000
0001
0000
,  // measure 53
1000
0000
0000
0100
0000
0000
0010
0000
,  // measure 54
0001
0000
0000
1000
0000
0000
0010
0000
,  // measure 55
0100
0000
0000
0001
0000
0000
1000
0000
,  // measure 56
1100
0000
0000
0110
0000
0000
0011
0000
;
