#TITLE:Far Beyond You;
#SUBTITLE:;
#ARTIST:Evil Activities & Chaosphere;
#TITLETRANSLIT:;
#SUBTITLETRANSLIT:;
#ARTISTTRANSLIT:;
#CREDIT:;
#BANNER:far.png;
#BACKGROUND:far-bg.png;
#LYRICSPATH:;
#CDTITLE:;
#MUSIC:far.ogg;
#OFFSET:0.000;
#SAMPLESTART:56.805;
#SAMPLELENGTH:12.000;
#SELECTABLE:YES;
#BPMS:0.000=169.000,32.000=42.250,39.000=84.500,41.000=169.000;
#STOPS:;
#BGCHANGES:;

//---------------dance-single - Renard----------------
#NOTES:
     dance-single:
     Renard:
     Hard:
     9:
     0.577,0.631,0.609,0.171,0.509:
0000
0000
0000
0000
,
0000
0000
0000
0000
,
0000
0000
0000
0000
,
0000
0000
0000
0000
,
1000
0000
0000
0100
0000
0000
0000
0000
0000
0000
0000
0000
0010
0000
0000
0001
0000
0000
0000
0000
0000
0000
0000
0000
1000
0000
0000
0010
0000
0000
0000
0000
0000
0000
0000
0000
0100
0000
0000
0001
0000
0000
0000
0000
0100
0000
0000
0000
,
0010
0000
0000
1000
0000
0000
0000
0000
0000
0000
0000
0000
0001
0000
0000
0100
0000
0000
0000
0000
0000
0000
0000
0000
0001
0000
0000
0010
0000
0000
0000
0000
0000
0000
0000
0000
0100
0000
0000
1000
0000
0000
0000
0000
0100
0000
0000
0000
,
1000
0000
0000
0001
0000
0000
0000
0000
0000
0000
0000
0000
0100
0000
0000
0010
0000
0000
0000
0000
0000
0000
0000
0000
1010
0000
0000
0000
0000
0000
0000
0000
0010
0000
0000
0000
0110
0000
0000
0000
0000
0000
0000
0000
0000
0000
0000
0000
,
0101
0000
0000
0000
,
2002
0000
0000
0003
0020
3000
0200
0030
,
0002
0000
0000
0300
2000
3003
1001
0000
,
0110
0000
1000
0001
0000
0000
1000
0000
0000
0001
0000
0000
0100
0000
0000
0010
0000
0000
1000
0000
0000
0100
0000
0000
,
0020
0000
0000
0031
,
0100
1010
1001
1100
,
0001
0010
0100
0000
1000
0000
0101
0000
,
1001
0000
1000
0000
0010
0100
0001
0010
,
0100
0011
1001
1010
,
0001
0100
0010
0000
0010
1000
0100
0010
,
0001
0000
0000
1001
0000
0000
0000
0000
1000
0001
0000
0001
,
1000
0000
0000
1001
0000
0000
0010
0000
1000
0100
0000
0000
,
0010
0000
0000
0110
0000
0000
0100
0000
1000
0001
0000
0000
,
0101
0000
0000
0000
0010
0000
1000
0000
0000
0010
0000
0000
0100
0000
0000
0001
0000
0000
0010
0000
0000
0100
0000
0000
,
2000
0001
3010
0101
,
1010
0000
0000
0001
0000
0000
0100
0000
0010
1000
0000
0000
,
0100
0010
0001
1000
,
0010
0000
0100
0001
0000
0000
0100
0000
0010
1000
0000
0000
,
0100
0000
0000
0010
0000
0000
0001
0000
1000
0001
0000
0000
,
1000
0000
0001
1000
0000
0000
0001
0000
0100
0010
0000
1000
,
0100
0000
0010
0001
0000
0010
0100
0000
1000
0001
0000
0100
,
0010
0000
1000
0001
0000
0000
0100
0000
0001
1000
0000
0100
,
0010
0000
0001
0010
0000
0100
0010
0000
0001
0010
0000
0100
,
1000
2002
0000
0000
,
0000
0000
0000
0000
,
0000
0000
0000
0000
,
0000
0000
0000
0000
,
3113
0000
0000
1000
0000
1000
0001
0000
0000
0110
0000
0000
,
1000
0100
0010
0001
0000
0000
0001
0010
0100
1000
0000
0000
,
0101
0000
0000
1010
0000
0000
0001
0010
0100
1000
0000
0000
,
0001
0100
0010
1000
0000
0000
1001
0000
0000
1100
0000
0000
,
0011
0000
0000
1001
0000
0000
1000
0010
0100
0001
0000
0000
,
0001
0100
0010
1000
0000
0000
1000
0100
0010
0001
0000
0000
,
0001
0010
0100
1000
0000
0000
1001
0000
0010
1000
0000
0000
,
0101
0000
0000
0000
0010
0000
1000
0000
0000
0000
0000
0000
1001
0000
0000
0000
0000
0000
1100
0000
0000
0011
0000
0000
,
0000
1000
1001
1010
,
0001
0000
0100
0010
0000
0000
1010
0000
0001
0100
0000
0000
,
0011
0000
0000
0110
0000
0000
1001
0000
0001
1000
0000
0000
,
0110
0000
0001
0100
0000
0000
1010
0000
0001
1000
0000
0000
,
1100
0000
0100
0010
0000
0000
0011
0000
0001
0010
0100
1000
,
0001
0000
0000
0101
0000
0000
1010
0000
1000
0010
0100
0001
,
0010
0000
0010
0100
1000
0001
0100
0000
0000
0000
0000
0000
,
0000
2002
0000
0000
,
3113
0000
0000
1000
0000
1000
0010
0000
0010
0100
0000
0100
,
0001
0000
0001
0100
0000
0100
0010
1000
0100
0010
0000
0010
,
0100
0000
0100
1000
0000
1000
0010
0000
0010
0100
0000
0100
,
0001
0000
0000
0000
0000
0000
1001
0000
0000
0000
0000
0000
1000
0000
0000
0000
0100
0000
0010
0000
0000
0100
0000
0000
,
1001
0000
0000
1001
0000
0000
1010
0000
0000
0001
0000
0100
,
0010
0000
1000
0100
0000
0010
0001
0000
0010
0100
1000
0001
,
0100
0000
0010
1000
0000
0000
0001
0000
0000
0100
0000
0100
,
0010
0000
2002
0000
0020
3000
2000
0030
,
3013
0000
0000
1001
0000
1000
0010
0000
0100
0001
0100
0010
,
1000
0000
0000
0101
0000
0000
1010
0000
0000
0001
1000
0100
,
0010
0000
0000
0011
0000
0000
1100
0000
0000
0001
0000
0100
,
0010
0000
1001
0000
0110
0000
1000
0100
,
0011
0000
0000
0100
0000
0100
1000
0000
1000
0010
0000
0000
,
0101
0000
0000
0010
0000
1000
0100
0010
0001
0010
0000
0000
,
0110
0000
0000
0100
0000
1000
0010
0000
0100
0001
0000
0100
,
0010
2002
0000
0000
,
0000
3003
0000
0000
;

//---------------dance-single - Renard----------------
#NOTES:
     dance-single:
     Renard:
     Medium:
     5:
     0.329,0.378,0.095,0.133,0.057:
0000
0000
0000
0000
,
0000
0000
0000
0000
,
0000
0000
0000
0000
,
0000
0000
0000
0000
,
1000
1000
1000
1000
,
0001
0001
0001
0001
,
0100
0000
0000
0100
0000
0000
0100
0000
0010
0100
0000
0000
,
0110
0000
0000
0000
,
2001
0000
3200
0320
,
0032
0000
0203
0320
,
0000
1030
0010
0100
,
0002
0000
0000
0000
0000
0000
0000
0000
0003
1000
0000
0000
,
0100
0010
0001
1000
,
0020
0000
0000
0130
,
0001
1000
0100
0010
,
0002
0000
0000
1003
,
0001
0100
0010
1000
,
0002
0000
0000
0013
,
0100
1000
0001
0100
,
0010
1000
0010
1000
,
0001
0100
0001
0010
,
0100
1000
0001
0100
,
0010
1000
1000
0010
,
0010
0100
0100
0001
,
0001
0010
0010
0100
,
0100
1000
1000
0001
,
0001
1000
1000
1000
,
1000
1000
1000
1000
,
1000
0001
0001
0001
,
0001
0001
0001
0001
,
0001
0200
0000
0000
,
0000
0000
0000
0000
,
0000
0020
0000
0000
,
0000
1000
0000
0330
,
1001
1000
0100
0010
,
0000
0000
0001
0010
0000
0000
0100
0000
0000
1000
0000
0000
,
0001
0100
0010
1000
,
0000
0000
0001
1000
0000
0000
0100
0000
0000
0010
0000
0000
,
0001
1000
0010
0100
,
0000
0000
0001
1000
0000
0000
0100
0000
0000
0010
0000
0000
,
0001
1000
0010
0100
,
0000
0000
0001
1000
0000
0000
0100
0000
0000
0010
0000
0000
,
0001
1000
0001
0100
,
0000
0000
0010
1000
0000
0000
0001
0000
0000
0100
0000
0000
,
0001
1000
0100
0010
,
0000
0000
0001
0010
0000
0000
0100
0000
0000
1000
0000
0000
,
0001
0100
0010
1000
,
0000
0000
0001
1000
0000
0000
0100
0000
0000
0010
0000
0000
,
0001
2000
0000
0000
,
0000
3010
0000
0000
,
1001
0001
1000
0100
,
0010
0001
0010
0100
,
1000
0000
0000
0001
0000
0000
0100
0000
0000
0010
0000
1000
,
0010
1000
0001
0100
,
0001
1000
0100
0010
,
0001
0010
0100
1000
,
0001
0000
0000
0100
0000
0000
0001
0000
0000
1000
0000
0100
,
1000
0101
0000
1001
,
0110
1001
0000
1000
,
0100
0010
0001
0010
,
0100
0000
0000
1000
0000
0000
0010
0000
0000
0100
0000
0010
,
0100
0001
1000
1100
,
0011
0001
0010
0100
,
1000
0001
0100
0010
,
1000
0000
0000
0100
0000
0000
0010
0000
0000
0001
0000
1000
,
0010
0200
0000
0000
,
0000
0300
0000
0000
;

//---------------dance-single - Renard----------------
#NOTES:
     dance-single:
     Renard:
     Easy:
     2:
     0.227,0.347,0.076,0.124,0.000: // measure 1
0000
0000
0000
0000
,  // measure 2
0000
0000
0000
0000
,  // measure 3
0000
0000
0000
0000
,  // measure 4
0000
0000
0000
0000
,  // measure 5
1000
0000
1000
1000
,  // measure 6
0001
0000
0001
0001
,  // measure 7
0000
0000
0100
0010
,  // measure 8
1001
0000
0000
0000
,  // measure 9
2000
0000
3002
0203
,  // measure 10
0320
0000
2030
3200
,  // measure 11
0000
0310
0001
0010
,  // measure 12
0200
0000
0000
1300
,  // measure 13
0001
1000
0100
0010
,  // measure 14
0002
0000
0000
0013
,  // measure 15
0100
1000
0100
0010
,  // measure 16
0002
0000
0000
0013
,  // measure 17
0100
1000
0010
0100
,  // measure 18
0002
0000
0000
0103
,  // measure 19
0010
1000
0000
1000
,  // measure 20
1000
0000
0000
1000
,  // measure 21
0000
0001
0000
0001
,  // measure 22
0001
0000
0000
0001
,  // measure 23
0000
0100
0000
0100
,  // measure 24
0000
0100
0000
0010
,  // measure 25
0000
0100
0000
0010
,  // measure 26
1000
0010
0000
1000
,  // measure 27
0000
0001
0000
0001
,  // measure 28
0001
0001
0001
0001
,  // measure 29
0000
1000
0000
1000
,  // measure 30
1000
1000
1000
1000
,  // measure 31
0000
0020
0000
0000
,  // measure 32
0000
0000
0000
0000
,  // measure 33
0000
0200
0000
0000
,  // measure 34
0000
0000
0330
0000
,  // measure 35
1001
1000
0000
1000
,  // measure 36
0000
0001
0001
0001
,  // measure 37
0001
0100
0000
0100
,  // measure 38
0000
0010
0010
0010
,  // measure 39
0010
1000
0000
1000
,  // measure 40
0000
0100
1000
0100
,  // measure 41
1000
0001
0000
0001
,  // measure 42
0000
0010
0000
0001
,  // measure 43
0000
1000
0000
1000
,  // measure 44
0000
0001
0100
0001
,  // measure 45
0000
1000
0000
0100
,  // measure 46
0000
0010
0001
0010
,  // measure 47
0000
0100
0000
1000
,  // measure 48
0000
0001
0100
0001
,  // measure 49
1000
0010
0000
0000
,  // measure 50
0000
1001
0000
0000
,  // measure 51
0000
0010
0000
0010
,  // measure 52
0000
0010
0000
0010
,  // measure 53
0000
0100
0000
0100
,  // measure 54
0000
0010
0000
0110
,  // measure 55
0110
0010
0000
0100
,  // measure 56
0000
0010
0000
0100
,  // measure 57
0000
0010
0000
0100
,  // measure 58
0000
1001
0000
1001
,  // measure 59
1001
1000
0000
0001
,  // measure 60
0000
0100
0000
0001
,  // measure 61
0000
1000
0000
0100
,  // measure 62
0010
0001
0000
0010
,  // measure 63
0000
0100
0000
0010
,  // measure 64
0000
0001
0000
1000
,  // measure 65
0000
0100
0000
0010
,  // measure 66
0001
2000
0000
0000
,  // measure 67
0000
3000
0000
0000
;
