#TITLE:Eyeopener;
#SUBTITLE:;
#ARTIST:Brisk & Trixxy;
#TITLETRANSLIT:;
#SUBTITLETRANSLIT:;
#ARTISTTRANSLIT:;
#CREDIT:;
#BANNER:eye.png;
#BACKGROUND:eye-bg.png;
#LYRICSPATH:;
#CDTITLE:;
#MUSIC:eye.ogg;
#OFFSET:0.000;
#SAMPLESTART:31.980;
#SAMPLELENGTH:12.000;
#SELECTABLE:YES;
#BPMS:0.000=179.990,0.000=180.000;
#STOPS:0.000=0.015
;
#BGCHANGES:;

//---------------dance-single - Renard----------------
#NOTES:
     dance-single:
     Renard:
     Challenge:
     11:
     0.879,0.860,0.123,0.000,0.857:
0000
0000
0000
0000
,
0000
0000
0000
0000
,
0000
0000
0000
0000
,
0000
0000
0000
0000
,
0001
0000
1000
0001
0000
1000
0001
0000
1000
0000
0001
1000
0000
0001
1000
0000
,
0010
0000
0100
0010
0000
0100
0010
0000
0100
0000
0010
0100
0000
0010
0100
0000
,
0010
0000
1000
0010
0000
1000
0010
0000
1000
0000
0010
1000
0000
0010
1000
0000
,
0001
0000
0100
0001
0000
0100
0001
0000
0100
0000
0001
0100
0000
0001
0100
0000
,
0001
0000
1000
0100
0000
0010
0001
0000
0010
0000
0100
1000
0000
0001
0010
0000
,
0100
0000
1000
0010
0000
0100
0001
0000
0100
0000
0010
1000
0000
0001
0100
0000
,
0010
0000
1000
0100
0000
0010
0001
0000
0010
0000
0100
1000
0000
0001
0010
0000
,
0001
0000
1000
0010
0000
0100
0001
0000
0100
0000
0010
1000
0000
0001
0100
0000
,
0010
0000
1000
0100
0000
1000
0001
0000
0010
0000
0100
1000
0000
0001
1000
0000
,
0010
0000
0100
0001
0000
0100
0010
0000
1000
0000
0001
0100
0000
0010
1000
0000
,
0001
0000
0100
0010
0000
1000
0001
0000
0100
0000
0010
1000
0000
0100
0010
0000
,
0001
0000
0010
0000
0100
0000
1000
0000
0001
0010
0100
1000
0001
0010
0100
1000
,
0001
0000
0000
0000
0100
0010
1000
0100
,
0000
0000
0000
0000
0010
0001
0010
0100
,
0000
0000
1000
0010
0000
0000
0000
0100
,
0001
0110
1010
1001
,
1100
0100
0011
0000
0010
0001
0010
0100
,
0000
0000
0000
0000
1000
0010
0100
0001
,
0000
0000
0100
0010
0000
0000
0000
1000
,
1010
0000
0101
0000
1010
0000
1001
1000
,
0100
0000
0010
0000
0001
0000
0010
0000
0100
0000
1000
0000
0010
0000
0100
0001
,
0100
0000
0010
0000
1000
0000
0100
0000
0010
0000
0001
0000
0010
0000
0100
1000
,
0100
0000
1000
0000
0010
0000
0100
0000
0001
0000
0100
0000
0010
0000
1000
0001
,
1000
0000
0010
0100
0010
0000
1000
0010
1000
0000
0001
0100
0001
0000
0100
0001
,
0100
0010
1000
0100
0010
0001
0010
0100
,
1000
0001
0010
0100
1000
0001
1000
0010
,
0100
0001
1000
0010
0100
0001
1000
0010
0100
0001
0010
0100
1000
0001
0010
0100
,
1000
0000
1001
0000
0110
0000
1000
0010
,
0100
0000
0001
0100
0000
0010
1000
0000
0001
0000
0100
0010
0000
1000
0100
0000
,
0010
0000
0001
0010
0000
0100
1000
0000
0001
0000
0010
0100
0000
1000
0001
0000
,
0100
0000
0010
1000
0000
0001
0000
0100
0010
0000
1000
0000
0001
0100
0010
0000
,
1000
0000
0100
1000
0000
0001
0010
0000
0100
0000
1000
0001
0000
0010
0100
0000
,
1000
0000
0010
0100
0000
0001
0100
0000
0010
0000
1000
0010
0000
0100
0001
0000
,
1000
0000
0010
1000
0000
0100
0010
0000
0001
0000
0010
0100
0000
1000
0001
0000
,
0010
0000
0001
1000
0000
0010
1000
0000
0001
0000
0100
0001
0000
1000
0001
0000
,
1000
0000
0010
1000
0000
0001
0100
0000
0001
0000
1000
0100
0000
1000
0001
0000
,
0010
0000
0001
1000
0000
0001
1000
0000
0010
0000
0100
0001
0000
0100
0010
0000
,
1000
0000
0100
0010
0000
0001
0010
0000
0100
0000
1000
0001
0000
0010
0001
0000
,
1000
0000
0010
1000
0000
0001
0100
0000
0010
0000
1000
0001
0000
0100
0010
0000
,
1000
0000
0100
1000
0000
0001
0010
0000
0001
0000
1000
0010
0000
0100
0001
0000
,
0100
0000
0010
1000
0000
0001
0100
0000
0010
0000
1000
0100
0000
1000
0001
0000
,
0010
0000
0001
1000
0000
0010
1000
0000
0001
0000
0100
0010
0000
1000
0001
0000
,
0100
0000
0010
1000
0000
0100
1000
0000
0001
0000
0010
0001
0000
1000
0010
0000
,
0100
0000
0100
0000
0001
0000
1000
0010
,
0100
0000
0001
0000
0000
0000
1000
0000
0000
0000
0100
0000
0010
0001
0010
0100
,
1000
0000
0001
0000
0000
0000
0100
0000
0010
1000
0010
0100
0010
0000
1000
0000
,
0001
0000
0100
0000
0000
0000
0010
0000
1000
0010
0100
0010
1000
0000
0001
0000
,
0100
0000
0010
0000
0000
0000
1000
0000
0010
0100
0001
1000
0001
0000
0010
0100
,
0010
0000
0001
0000
0000
0000
1000
0000
0001
0000
0010
0000
0100
1000
0100
0010
,
0001
0000
1000
0000
0000
0000
0010
0000
0100
0001
0100
0010
0100
0000
0001
0000
,
1000
0000
0010
0000
0000
0000
0100
0000
0001
0100
0010
0100
0001
0000
1000
0000
,
0010
0000
0100
0000
0000
0000
0001
0000
0100
0010
1000
0001
1000
0000
0100
0010
,
0001
0000
0010
0000
0100
0000
1000
0000
0010
0000
0100
0000
0001
0000
0100
0010
,
1000
0000
0010
0000
0100
0000
0001
0000
0100
0000
0010
1000
0001
0000
0100
0010
,
1000
0000
0001
0000
0100
0000
0010
0000
1000
0000
0100
0000
0010
0000
0001
0010
,
0100
0000
1000
0000
0001
0000
0010
0000
0100
0000
1000
0001
1000
0000
0010
0100
,
0010
0000
0100
0000
0001
0000
0100
0000
0010
0000
1000
0000
0010
0000
0100
0001
,
0100
0000
0010
0000
1000
0000
0100
0000
0010
0000
0001
0010
0100
0000
1000
0001
,
0010
0000
0100
0000
1000
0000
0010
0000
0100
0000
0001
0000
0100
0000
0010
1000
,
0010
0000
0100
0000
0001
0000
0100
0000
0010
0000
1000
0000
0001
0100
0010
1000
,
0001
0000
0000
0000
;

//---------------dance-single - Renard----------------
#NOTES:
     dance-single:
     Renard:
     Hard:
     8:
     0.618,0.609,0.336,0.123,0.123:
0000
0000
0000
0000
,
0000
0000
0000
0000
,
0000
0000
0000
0000
,
0000
0000
0000
0000
,
1000
0000
0000
1000
0000
0000
1000
0000
0001
0000
0000
0001
0000
0000
0001
0000
,
0100
0000
0000
0100
0000
0000
0100
0000
0010
0000
0000
0010
0000
0000
0010
0000
,
1000
0000
0000
1000
0000
0000
1000
0000
0100
0000
0000
0100
0000
0000
0100
0000
,
0010
0000
0000
0010
0000
0000
0010
0000
0001
0000
0000
1000
0000
0000
0001
0000
,
0100
0000
0000
0010
0000
0000
1000
0000
0001
0000
0000
0100
0000
0000
0010
0000
,
1000
0000
0000
0100
0000
0000
0010
0000
0001
0000
0000
0010
0000
0000
0100
0000
,
1000
0000
0000
0001
0000
0000
0010
0000
0001
0000
0000
1000
0000
0000
0010
0000
,
0100
0000
0000
0001
0000
0000
0100
0000
0010
0000
0000
1000
0000
0000
0100
0000
,
0010
0000
0000
0001
0000
0000
0010
0000
0100
0000
0000
1000
0000
0000
0001
0000
,
0010
0000
0000
0001
0000
0000
1000
0000
0010
0000
0000
0100
0000
0000
0001
0000
,
0010
0000
0000
0100
0000
0000
1000
0000
0010
0000
0000
0100
0000
0000
0001
0000
,
1000
0100
0010
0001
0010
0100
1000
0001
,
2000
0000
0000
0000
3100
M010
0001
0020
,
0000
0000
0000
0000
0130
10M0
0010
0200
,
0000
0000
0301
0M20
0000
0000
0000
0130
,
20M0
0000
3001
M00M
0200
0000
0320
0M00
,
1030
01M0
0000
M000
0M10
0001
1000
0002
,
0M00
00M0
0M00
0003
010M
0010
1000
02M0
,
M000
0000
M310
0M02
0000
00M0
0M00
10M3
,
0M02
00M0
0103
M000
0M10
0000
10M0
010M
,
0010
0000
0011
0000
0010
0100
1000
0001
,
0100
0000
0110
0000
0010
1000
0100
0010
,
0001
0000
1000
0000
0001
0000
0100
0010
,
0100
0010
1000
0100
,
0010
0001
0000
0000
1000
0100
0010
0001
,
0000
0000
0000
0000
0001
0010
0100
1000
,
0000
0000
0001
0010
0000
0000
0000
0100
,
1000
0000
0101
0000
1010
0000
1000
0001
,
0100
0000
0010
0000
1000
0100
1000
0000
,
0001
0000
0010
0000
0001
1000
0001
0000
,
0100
0000
0010
0000
1000
0100
1000
0001
,
0010
0000
0001
0000
1000
0000
0010
0100
,
0001
0010
0000
0000
0100
1000
0100
0000
,
1000
0001
0000
0000
0100
0010
1000
0100
,
0010
0001
0000
0000
0010
0100
1000
0001
,
0100
0000
0110
0000
1001
0000
1000
0100
,
0010
0001
1000
0001
0100
0010
1000
0001
,
1000
0100
1000
0001
1000
0010
1000
0001
,
0100
0001
0010
0001
1000
0010
0100
1000
,
0100
0001
0010
0100
1000
0100
0010
0001
,
1000
0001
0100
0010
1000
0100
0010
0001
,
0010
0100
1000
0001
0100
0010
1000
0100
,
0010
0001
0010
0100
0010
0100
1000
0010
,
0100
0001
0010
0100
1000
0000
0101
0000
,
1001
0000
1000
0000
0100
0010
0001
0000
,
0110
0000
1001
0000
0001
0100
0010
0000
,
1010
0000
0101
0000
1000
0100
0010
0001
,
1000
0101
1010
1001
,
1100
0000
0011
0000
0010
0100
1000
0001
,
0100
0000
0110
0000
0010
1000
0100
0010
,
0001
0000
1001
0000
0001
0100
0010
1000
,
0100
0011
1100
0101
,
1010
0000
1000
0000
0100
0010
0001
0010
,
0100
0000
0011
0000
0100
1000
0001
0100
,
0010
0000
0101
0000
0100
0010
1000
0100
,
0010
0000
1100
0000
0010
0001
1000
0001
,
0100
0000
0110
0000
0010
1000
0100
0010
,
0001
0000
0110
0000
0100
1000
0010
0100
,
0001
0000
0110
0000
0010
1000
0100
0010
,
0001
0010
0100
1000
0001
0100
0010
1000
,
0110
0000
0000
0000
;

//---------------dance-single - Renard----------------
#NOTES:
     dance-single:
     Renard:
     Medium:
     5:
     0.395,0.538,0.269,0.056,0.000:
0000
0000
0000
0000
,
0000
0000
0000
0000
,
0000
0000
0000
0000
,
0000
0000
0000
0000
,
1001
1001
0000
0000
,
1000
0000
1000
1000
,
0001
0000
0001
0000
,
1001
0000
0110
0110
,
1001
0000
1000
0000
0100
0000
1000
0100
,
1000
0000
0001
0000
0010
0000
0001
0010
,
0001
0000
0100
0000
0001
0000
0100
0001
,
1000
0010
1000
0001
,
1000
1000
0001
0001
,
0100
0100
0010
0010
,
1000
0010
1000
0010
1000
0010
1000
0010
,
1000
0001
1000
0001
1000
0000
0001
0000
,
1000
0000
0000
0000
0100
0000
0000
0020
,
0000
0000
0000
0030
0001
0000
0000
0200
,
0000
0000
0000
0310
0000
0000
0000
1000
,
0100
0010
0001
1000
,
1001
1001
0000
0000
,
0002
0000
0000
0000
,
0203
0000
0320
0000
,
1030
1000
0100
0010
,
0001
1000
0001
1000
,
0010
0000
0100
0000
0010
0000
0100
0010
,
0100
0001
0100
0001
,
1000
0100
0010
0001
,
1000
0001
0000
0000
0100
0000
0000
0010
,
0000
0000
0000
0000
1000
0000
0000
0100
,
0000
0000
0010
0001
0000
0000
0000
1000
,
0100
0010
0001
1000
,
0001
0001
0100
0100
,
0001
0001
1000
1000
,
0100
0100
0010
0010
,
0001
0000
1000
0000
0010
0000
0100
0010
,
0100
0010
0000
0000
0100
0000
0001
0000
,
1000
0100
0010
0001
,
1000
0100
0010
0001
,
1000
0000
0010
0000
0100
0000
0001
1000
,
0001
1000
0000
0000
0100
0000
0010
0000
,
0001
1000
0100
0010
,
0001
1000
0010
0100
,
0010
0000
1000
0000
0001
0000
1000
0100
,
1000
0100
0000
0000
1000
0000
0100
0000
,
0010
0001
1000
0010
,
0100
0001
0010
0001
,
1001
0110
1001
0110
,
1001
0000
1000
0100
,
0011
0000
0100
1000
,
0101
0000
0010
1000
,
0101
0000
0001
0010
,
1100
0000
0010
0001
,
1010
0000
0001
0100
,
0011
0000
0100
1000
,
0011
0000
0101
1010
,
1001
0000
1000
0100
,
0010
0000
0001
0010
,
0100
0000
1000
0010
,
0100
0000
0001
0100
,
0010
0000
0010
0100
,
0001
0000
0001
1000
,
0100
0000
0100
0010
,
0001
1000
0010
0100
,
1001
0000
0000
0000
;

//---------------dance-single - Renard----------------
#NOTES:
     dance-single:
     Renard:
     Easy:
     2:
     0.269,0.359,0.034,0.235,0.000: // measure 1
0000
0000
0000
0000
,  // measure 2
0000
0000
0000
0000
,  // measure 3
0000
0000
0000
0000
,  // measure 4
0000
0000
0000
0000
,  // measure 5
1001
1001
0000
0000
,  // measure 6
0200
0000
0000
0000
,  // measure 7
0320
0000
0000
0000
,  // measure 8
2030
0000
0000
0000
,  // measure 9
3001
0000
0001
0000
,  // measure 10
0100
0000
0100
0000
,  // measure 11
0010
0000
0010
0000
,  // measure 12
1000
0000
1000
0000
,  // measure 13
0100
0100
0000
0010
,  // measure 14
0001
0000
0001
0000
,  // measure 15
1000
0000
0001
0000
,  // measure 16
0100
0010
0100
0010
,  // measure 17
2000
0000
3200
0000
,  // measure 18
0320
0000
0000
0000
,  // measure 19
0032
0000
0000
0000
,  // measure 20
0203
0000
0320
0000
,  // measure 21
2030
0000
3200
0000
,  // measure 22
0320
0000
0000
0000
,  // measure 23
0032
0000
0000
0000
,  // measure 24
2003
0000
3200
0000
,  // measure 25
0310
0000
0001
0010
,  // measure 26
0100
0000
1000
0100
,  // measure 27
1000
0000
0001
0000
,  // measure 28
0010
0001
1000
0010
,  // measure 29
0200
0000
0000
0000
,  // measure 30
0302
0000
0000
0000
,  // measure 31
0023
0000
0230
0000
,  // measure 32
2300
0000
3002
0103
,  // measure 33
0010
1000
0010
1000
,  // measure 34
0001
0000
1000
0000
,  // measure 35
0001
0100
0001
0100
,  // measure 36
0001
0000
1000
0000
,  // measure 37
0001
0000
0010
0100
,  // measure 38
1000
0000
0001
0010
,  // measure 39
0100
0000
0010
0000
,  // measure 40
0001
1000
0001
0000
,  // measure 41
0100
0000
0100
0000
,  // measure 42
0010
0000
0010
0000
,  // measure 43
1000
0000
1000
0000
,  // measure 44
0100
0010
0001
1000
,  // measure 45
0100
0000
0100
0000
,  // measure 46
1000
0000
1000
0000
,  // measure 47
0001
0010
0001
1000
,  // measure 48
0001
0100
0010
1000
,  // measure 49
0001
0000
0001
0000
,  // measure 50
0100
0000
0100
0000
,  // measure 51
0010
0000
0010
0000
,  // measure 52
1000
0100
1000
0100
,  // measure 53
1000
0000
1000
0000
,  // measure 54
0100
0000
0100
0000
,  // measure 55
0010
0000
0010
0000
,  // measure 56
0001
1000
0001
0100
,  // measure 57
0010
0000
0010
0000
,  // measure 58
1000
0010
1000
0001
,  // measure 59
0100
0000
0100
0000
,  // measure 60
0001
0010
0100
1000
,  // measure 61
0001
0000
0001
1000
,  // measure 62
0100
0000
0100
1000
,  // measure 63
0001
0000
0010
0000
,  // measure 64
0001
1000
0010
0000
,  // measure 65
1001
0000
0000
0000
;
