#TITLE:Express Ur Self;
#SUBTITLE:;
#ARTIST:Cobalt & Heffer;
#TITLETRANSLIT:;
#SUBTITLETRANSLIT:;
#ARTISTTRANSLIT:;
#CREDIT:;
#BANNER:ur.png;
#BACKGROUND:ur-bg.png;
#LYRICSPATH:;
#CDTITLE:;
#MUSIC:ur.ogg;
#OFFSET:0.000;
#SAMPLESTART:43.385;
#SAMPLELENGTH:12.000;
#SELECTABLE:YES;
#BPMS:0.000=173.000;
#STOPS:;
#BGCHANGES:;

//---------------dance-single - Renard----------------
#NOTES:
     dance-single:
     Renard:
     Hard:
     9:
     0.725,0.700,0.372,0.066,0.404:
0000
0000
0000
0000
,
0000
0000
0000
0000
,
0000
0000
0000
0000
,
0000
0000
0000
0000
,
1000
0000
0000
1000
0001
0000
0000
0001
0100
0010
0000
0000
1000
0000
0000
0000
,
0010
0000
0000
0010
0100
0000
0000
0100
0001
1000
0000
0000
0100
0000
0000
0000
,
0010
0000
0000
0000
0001
0000
0000
0001
0010
0100
0000
0000
1000
0000
0000
0000
,
0001
0000
0000
0000
0100
0000
0000
0100
0010
1000
0000
0000
0010
0000
0100
0000
,
0001
0000
0000
0100
0010
0000
0000
1000
0010
0000
0000
0100
0001
0000
0000
0010
,
0100
0000
0000
1000
0100
0000
0000
1000
0001
0000
0100
0000
0010
0000
1000
0000
,
0001
0000
0000
0100
0010
0000
0000
1000
0100
0000
0000
0010
0001
0000
0000
0010
,
0100
1000
0001
0100
0010
1000
0001
0100
,
0010
0000
0000
1000
0010
0000
0000
0100
0001
0000
0000
0010
0001
0000
0000
0010
,
0100
1000
0001
0010
0100
1000
0001
0100
,
0010
0000
0000
1000
0010
0000
0000
0100
0001
0000
0000
0010
0001
0000
0000
0010
,
0100
0000
0100
1000
0000
1000
0001
0000
2002
0000
0000
0000
0000
0000
3003
0000
,
M001
0100
0010
1000
0010
0100
0001
0010
,
0100
0000
1000
0000
0001
0000
0010
0000
0001
0000
1000
0001
1000
0000
0001
0000
,
0100
0010
1000
0100
0010
0001
0010
0100
,
1000
0000
0010
0000
0100
0000
0001
0000
1000
0000
0010
0000
0100
0000
0010
0100
,
0010
0000
1000
0000
0010
0000
0100
0010
0100
0000
0001
0000
0100
0000
0001
0100
,
0001
0000
0100
0000
0010
0000
1000
0010
1000
0000
0010
0000
1000
0000
0001
0000
,
1000
0000
0100
0000
0010
0000
0001
0000
1000
0001
1000
0000
1001
0000
0000
0000
,
0001
0100
0010
1000
0001
1000
2002
0000
0000
0000
0000
3003
,
100M
0100
0010
0001
1000
0100
0010
0001
,
1000
0100
0010
0001
1000
0100
0010
0000
,
0001
0010
0100
1000
0001
0010
0100
1000
,
0001
0010
0100
1000
0001
0010
0100
0000
,
1000
0010
0100
0001
1000
0010
0100
0001
,
1000
0010
0100
0001
1000
0010
0100
0000
,
0001
0100
0010
1000
0001
0100
0010
1000
,
0001
0100
0010
1000
0010
0000
1001
0000
,
1000
0100
0010
0011
0000
0001
0010
0100
,
0110
0000
1100
0000
1000
0010
1010
0000
,
1010
0000
0100
0010
0000
0001
0100
0010
,
1000
1010
1001
1100
,
1100
0000
0100
0010
0000
0010
0001
0010
,
0110
0000
1100
0000
0001
1000
0010
0000
,
1000
0010
0100
0101
0000
0001
0100
0010
,
1010
0000
1001
0000
1000
0100
1100
0000
,
0001
0010
0100
1100
0000
1000
0100
0010
,
0110
0000
0011
0000
0001
0100
0101
0000
,
0101
0000
0010
0100
0000
1000
0010
0100
,
0001
0101
1001
0011
,
0011
0000
0010
0100
0000
0100
1000
0100
,
0110
0000
0011
0000
1000
0001
0100
0000
,
0001
0100
0010
1010
0000
1000
0010
0100
,
0101
0000
1001
0000
0001
0010
0011
0000
,
0001
0000
0000
0001
0010
0000
0000
0010
0100
1000
0000
0000
0001
0000
0000
0000
,
0100
0000
0000
0100
0010
0000
0000
0010
1000
0010
0000
0000
0100
0000
0000
0000
,
0001
0000
0000
0001
0010
0000
0000
0010
0100
1000
0000
0000
0001
0000
0000
0000
,
1000
0000
0000
1000
0010
0000
0000
0010
0100
0001
0000
0000
0100
0000
0000
0000
,
0010
0000
0000
0010
1000
0000
0000
1000
0010
1000
0000
0000
0010
0000
0000
0000
,
0100
0000
0000
0100
0001
0000
0000
0001
0100
0001
0000
0000
0100
0000
0000
0000
,
0001
0000
0000
0001
0010
0000
0000
0010
0100
1000
0000
0000
0001
0000
0000
0000
,
1000
0000
0000
1000
0010
0000
0000
0010
0100
0000
0001
0000
0100
0000
0010
0000
,
1000
0000
0010
0000
0100
0000
0000
0001
0000
0000
0100
0000
0010
0000
1000
0000
,
0100
0000
0010
0000
0001
0000
0000
0010
0000
0000
0100
0000
1000
0000
0010
0000
,
0100
0000
0001
0000
0100
0000
0000
0010
0000
0000
1000
0000
0100
0000
0010
0000
,
MMM1
0000
0010
0000
0100
0000
0000
1000
0000
0001
1000
0000
0001
0000
0100
0000
,
0010
0000
1000
0000
0001
0000
0000
0100
0000
0000
0010
0000
1000
0000
0010
0000
,
0100
0000
0001
0000
0010
0000
0000
0100
0000
0000
1000
0000
0100
0000
0010
0000
,
0001
0000
1000
0000
0001
0000
0100
0010
0000
1000
0001
0000
0100
0000
0010
0000
,
1000
0000
0010
0100
0001
0000
0100
0010
1000
0000
0002
0000
2000
0000
0000
0000
,
3003
0000
0000
0000
;

//---------------dance-single - Renard----------------
#NOTES:
     dance-single:
     Renard:
     Medium:
     6:
     0.406,0.455,0.022,0.011,0.000:
0000
0000
0000
0000
,
0000
0000
0000
0000
,
0000
0000
0000
0000
,
0000
0000
0000
0000
,
1000
0001
0100
0001
,
1000
0001
0100
0001
,
1000
0001
0100
0001
,
1000
0000
0100
0000
0010
0001
1000
0001
,
0100
0000
0100
0000
0001
1000
0001
0000
,
1000
0100
0010
0001
,
0100
0000
0010
0000
1000
0001
1000
0000
,
0001
0100
0010
1000
,
0100
0000
0010
0000
0001
1000
0001
0000
,
0010
0100
1000
0001
,
0100
0010
1000
0001
,
1000
0000
0100
0000
0010
0001
1000
0001
,
0100
0000
0010
0000
1000
0000
0100
0010
,
0001
0000
1000
0001
1000
0000
0001
0000
,
0100
0010
1000
0100
,
0010
0000
0001
0000
0010
0000
0100
1000
,
0001
1000
0001
0000
0100
0000
0010
1000
,
0010
0000
0100
0001
0100
0000
0001
0000
,
1001
0000
0110
0000
,
1000
0010
0100
0000
0001
0000
1000
0000
,
0100
0000
0010
0000
0000
0001
0000
0000
,
1000
0000
0000
1000
0000
0000
1000
0000
,
0001
0000
0010
0000
0000
0100
0000
0000
,
1000
0000
0000
0001
0000
0000
0100
0000
,
0010
0000
1000
0000
0000
0010
0000
0000
,
0100
0000
0000
0001
0000
0000
1000
0000
,
0100
0000
0010
0000
0000
0001
0000
0000
,
1000
0000
0001
0000
0100
0010
0100
0000
,
0010
0000
0000
1000
0000
0000
0001
0100
,
0001
1000
0100
0010
,
0001
0000
0000
1000
0000
0000
0001
0010
,
0001
1000
0010
0100
,
0001
0000
0000
1000
0000
0100
0010
0100
,
0010
0000
0001
0000
1000
0001
1000
0000
,
0001
0000
0000
0100
0000
0000
0010
1000
,
0010
0000
1000
0000
0001
0100
0001
0000
,
1000
0000
0000
0100
0000
0000
0010
0001
,
1000
0000
0001
0000
0100
0001
0100
0000
,
0001
0000
0000
1000
0000
0000
0100
0010
,
0100
0000
0010
0000
0001
1000
0001
0000
,
0100
0000
0000
0010
0000
0000
1000
0001
,
1000
0000
0001
0000
0100
0001
0100
0000
,
0001
0000
0000
1000
0000
0000
0100
0000
,
1000
0000
0001
0000
0010
0001
0010
0000
,
0001
0000
0010
0000
0100
1000
0100
0000
,
1000
0010
0100
0001
,
1000
0000
0100
0000
0010
0001
0010
0000
,
0100
1000
0001
0100
,
0010
1000
0010
1000
,
0001
0100
0001
0100
,
0001
0010
0001
0010
,
0100
0000
1000
0000
0001
0100
0010
1000
,
0010
0000
1000
0000
0000
0100
0010
0000
,
0001
0000
0010
0000
0000
0100
1000
0000
,
0001
0000
0100
0000
0000
0001
1000
0000
,
0001
0000
1000
0000
0000
0100
1000
0000
,
0001
0000
0010
0000
0000
0001
1000
0000
,
0001
0000
0100
0000
0000
0010
0100
0000
,
0010
1000
0100
0010
,
0001
0000
1000
0000
0001
0100
0020
0000
,
0030
0000
0000
0000
;

//---------------dance-single - Renard----------------
#NOTES:
     dance-single:
     Renard:
     Easy:
     2:
     0.278,0.315,0.000,0.175,0.000: // measure 1
0000
0000
0000
0000
,  // measure 2
0000
0000
0000
0000
,  // measure 3
0000
0000
0000
0000
,  // measure 4
0000
0000
0000
0000
,  // measure 5
1000
0001
0000
0100
,  // measure 6
0010
1000
0000
0001
,  // measure 7
0010
0100
0000
1000
,  // measure 8
0001
0100
0010
1000
,  // measure 9
0001
0001
0001
0001
,  // measure 10
1000
0000
1000
0000
,  // measure 11
0001
0001
0001
0001
,  // measure 12
0100
0000
0100
0000
,  // measure 13
1000
1000
1000
1000
,  // measure 14
0001
0000
0001
0000
,  // measure 15
1000
1000
1000
1000
,  // measure 16
0100
0000
0100
0000
,  // measure 17
1000
0000
0001
0000
,  // measure 18
0100
0010
0100
0000
,  // measure 19
0010
0000
1000
0000
,  // measure 20
0100
0000
0010
0000
,  // measure 21
0001
1000
0001
0100
,  // measure 22
0010
0000
1000
0000
,  // measure 23
0001
0000
0001
0000
,  // measure 24
0000
1000
0100
0010
,  // measure 25
0002
0000
0023
0000
,  // measure 26
0230
0000
0000
0000
,  // measure 27
2300
0000
3020
0000
,  // measure 28
0230
0000
0000
0000
,  // measure 29
0302
0000
0023
0000
,  // measure 30
0230
0000
0000
0000
,  // measure 31
2300
0000
3002
0000
,  // measure 32
0203
0000
0000
0000
,  // measure 33
0301
0001
0001
0001
,  // measure 34
0100
0010
0100
0010
,  // measure 35
1000
1000
1000
1000
,  // measure 36
0010
0100
0010
0100
,  // measure 37
0001
0001
0001
0001
,  // measure 38
0100
0010
0100
0010
,  // measure 39
1000
1000
1000
1000
,  // measure 40
0010
0100
0010
0100
,  // measure 41
0010
0000
0100
0000
,  // measure 42
0001
1000
0001
0000
,  // measure 43
0100
0000
0010
0000
,  // measure 44
1000
0001
1000
0000
,  // measure 45
0001
0000
0100
0000
,  // measure 46
0010
0000
1000
0000
,  // measure 47
0100
0000
0010
0000
,  // measure 48
0001
1000
0001
1000
,  // measure 49
0001
0000
1000
0000
,  // measure 50
0010
0000
0200
0000
,  // measure 51
0301
0000
1000
0000
,  // measure 52
0100
0000
0020
0000
,  // measure 53
0031
0000
0010
0000
,  // measure 54
0100
0000
2000
0000
,  // measure 55
3001
0000
0100
0000
,  // measure 56
0010
0000
1000
0001
,  // measure 57
1000
0100
1000
0100
,  // measure 58
0010
0000
0010
0000
,  // measure 59
0001
0010
0001
0010
,  // measure 60
0100
0000
0100
0000
,  // measure 61
1000
0001
1000
0001
,  // measure 62
0100
0000
0100
0000
,  // measure 63
0010
1000
0010
1000
,  // measure 64
0001
0000
0200
0000
,  // measure 65
0300
0000
0000
0000
;
