#TITLE:Exotica;
#SUBTITLE:;
#ARTIST:Banzai;
#TITLETRANSLIT:;
#SUBTITLETRANSLIT:;
#ARTISTTRANSLIT:;
#CREDIT:;
#BANNER:exotica.png;
#BACKGROUND:exotica-bg.png;
#LYRICSPATH:;
#CDTITLE:;
#MUSIC:exotica.ogg;
#OFFSET:0.000;
#SAMPLESTART:16.271;
#SAMPLELENGTH:12.000;
#SELECTABLE:YES;
#BPMS:0.000=118.000;
#STOPS:;
#BGCHANGES:;

//---------------dance-single - Renard----------------
#NOTES:
     dance-single:
     Renard:
     Challenge:
     10:
     0.666,0.712,0.449,0.068,0.708:
0000
0000
0000
0000
,
0000
0000
0000
0000
,
0000
0000
0000
0000
,
0000
0000
0000
0000
,
0101
0000
0000
1001
0000
0000
0001
0100
0010
0000
1000
0000
0100
0010
0100
0000
,
1100
0000
0000
1010
0000
0000
1001
0000
0001
0000
0100
0000
0001
1000
0100
0000
,
0110
0000
0000
1100
0000
0000
0001
1000
0001
0000
0100
0000
1001
0000
0100
0000
,
1001
0000
0000
0101
0000
0000
0001
1000
0100
0000
1000
0010
1000
0001
1000
0000
,
1100
0000
0100
0010
0001
0000
0001
0010
0100
0000
1100
0000
1010
0000
1001
0000
,
1100
0000
0100
0010
0001
0000
0001
0010
0100
0000
1000
0000
0101
0000
1001
0000
,
0011
0000
0001
0100
0010
0000
0010
1000
0100
0000
0011
0000
0110
0000
1100
0000
,
1001
0000
0001
0100
0001
0000
1000
0100
0010
0001
0010
0100
1000
0000
1001
0000
,
2001
0000
0010
0000
0100
0000
0010
0010
,
0002
3000
0000
0000
0000
0000
0100
0000
0100
0000
0000
0010
0000
0000
1000
0003
,
1001
0000
0001
0100
0010
0000
0010
1000
0100
0000
0100
0010
0001
0000
0001
0010
,
0100
0000
0100
1000
0000
1000
0010
0100
0001
0000
0001
0100
0000
0100
0010
0000
,
1002
0000
0100
0000
0010
0000
0100
0100
,
2000
0003
0000
0000
0000
0000
0010
0000
0010
0000
0000
0100
0000
0000
0001
3000
,
1001
0000
0000
0110
0000
0000
0010
1000
0100
0000
0010
0000
0001
0000
0010
0000
,
0110
0000
0000
1100
0000
0000
0001
1000
0010
0000
0100
0000
0001
0100
0001
0000
,
1001
0000
0000
1100
0000
0000
0001
0010
0100
0000
1000
0000
0001
0000
0100
0000
,
1001
0000
0000
1100
0000
0000
1000
0001
0100
0000
0001
0000
1000
0010
1000
0000
,
0001
0100
0001
1000
0000
0100
1000
0001
0000
0010
0001
1000
0000
0001
0100
0000
,
0001
0000
0000
1000
0000
0000
0000
0000
0000
0001
0000
0000
0000
0000
0000
0000
0000
0000
1001
0000
0000
0000
0000
0000
1000
0000
0000
0100
0000
0000
0010
0000
0000
0000
0000
0000
0001
0000
0000
0000
0000
0000
0010
0000
0001
0000
0010
0000
,
0001
0000
1000
0000
0001
0000
0100
0000
0010
1000
0000
0001
0000
1000
0100
0010
,
0001
0000
0000
0000
0000
0000
1000
0000
0000
0000
0000
0000
0001
0000
0000
0000
0000
0000
0100
0000
0000
0000
0000
0000
0010
0000
0000
1000
0000
0000
0000
0000
0000
0001
0000
0000
0000
0000
0000
0000
1000
0000
0001
0000
0000
0000
1000
0000
,
0001
0100
0010
1000
0000
0010
1000
0001
0000
1000
0000
0100
0000
1000
0001
0000
,
0100
0000
0000
0001
0000
0000
0000
0000
0000
1000
0000
0000
0100
0000
0000
0000
0000
0000
0010
0000
0000
0000
0000
0000
0001
0000
0000
0010
0000
0000
0100
0000
0000
0000
0000
0000
0100
0000
0000
0000
0000
0000
1000
0000
0100
0000
1000
0000
,
0100
0000
1000
0000
0001
0000
0100
0000
0001
1000
0000
0001
0000
0100
0001
1000
,
0001
0000
0000
0000
0000
0000
1000
0000
0000
0000
0000
0000
0100
0000
0000
0000
0000
0000
0010
0000
0000
0000
0000
0000
0001
0000
0000
1000
0000
0000
0000
0000
0000
0001
0000
0000
0000
0000
0000
0000
1000
0000
0001
0000
0000
0000
1000
0000
,
0001
0100
0000
1010
0000
0000
1000
0100
0000
0011
0000
0000
0000
0000
0100
0000
,
0000
0000
0000
1000
0000
0000
0000
0000
0000
0010
0000
0000
0000
0000
0000
0000
0000
0000
0100
0000
0000
0000
0000
0000
0001
0000
0000
1000
0000
0000
0100
0000
0000
0000
0000
0000
0010
0000
0000
0000
0000
0000
0001
0000
0010
0000
0001
0000
,
0010
0000
0100
0000
1000
0000
0010
0000
0100
0001
0000
1000
0000
0001
0100
0010
,
1000
0000
0000
0000
0000
0000
0100
0000
0000
0000
0000
0000
0010
0000
0000
0000
0000
0000
0001
0000
0000
0000
0000
0000
1000
0000
0000
0001
0000
0000
0000
0000
0000
1000
0000
0000
0000
0000
0000
0000
0001
0000
1000
0000
0000
0000
0001
0000
,
1000
0100
0010
0001
0000
0001
0010
0100
1000
0010
0000
0010
0100
0001
0100
0000
,
0001
0000
0000
0100
0000
0000
0001
0000
0000
0001
0000
0000
1000
0000
0000
0100
0000
0000
0010
0000
0000
0001
0000
0000
1000
0000
0000
0001
0000
0000
0100
0000
0000
0010
0000
0000
1000
0000
0000
0000
0000
0000
0001
0000
0100
0000
0001
0000
,
0100
0000
0010
1000
0100
0000
0010
0000
0001
0000
0011
0000
1100
0000
0000
0000
,
1000
0000
0010
0100
0001
0000
1000
0000
0100
0000
0110
0000
1001
0000
0000
0000
,
1001
0000
0010
0100
0010
0000
1000
0100
0010
0001
0010
0000
0011
0000
0010
0000
,
1100
0000
0001
0000
1001
0000
0001
0100
0010
1000
0001
0000
1001
0000
0110
0000
,
0010
0000
1000
0000
0100
0000
0010
0000
0001
0010
0000
0100
0000
1000
0001
0100
,
0001
0000
0000
0000
0000
0000
1000
0000
0000
0000
0000
0000
0100
0000
0000
0000
0000
0000
0010
0000
0000
0000
0000
0000
0001
0000
0000
0010
0000
0000
0000
0000
0000
0100
0000
0000
0000
0000
0000
0000
1000
0000
0001
0000
0000
0000
1000
0000
,
0001
0000
0100
0000
0010
0000
1000
0000
0100
0010
0000
0001
0000
0010
0100
1000
,
0010
0000
0000
0000
0000
0000
0100
0000
0000
0000
0000
0000
0001
0000
0000
0000
0000
0000
1000
0000
0000
0000
0000
0000
0100
0000
0000
1000
0000
0000
0000
0000
0000
0010
0000
0000
0000
0000
0000
0000
1000
0000
0010
0000
0000
0000
1000
0000
,
0010
0000
1000
0000
0100
0000
0010
0000
0001
0010
0000
0001
0000
0100
0001
1000
,
0001
0000
0000
0000
0000
0000
1000
0000
0000
0000
0000
0000
0100
0000
0000
0000
0000
0000
0010
0000
0000
0000
0000
0000
0001
0000
0000
1000
0000
0000
0000
0000
0000
0001
0000
0000
0000
0000
0000
0000
0100
0000
0001
0000
0000
0000
0100
0000
,
0001
0000
1000
0000
0100
0000
0010
0000
0001
0010
0000
0100
0000
1000
0010
1000
,
0010
0000
0000
0000
0000
0000
1000
0000
0000
0000
0000
0000
0001
0000
0000
0000
0000
0000
0100
0000
0000
0000
0000
0000
0001
0000
0000
1000
0000
0000
0000
0000
0000
0100
0000
0000
0000
0000
0000
0000
1000
0000
0001
0000
0000
0000
1000
0000
,
0002
0000
0100
0000
0010
0000
1000
0203
,
0010
0000
0000
0000
0010
0000
1000
0000
0001
0000
0000
0001
0000
0000
0001
0300
,
0010
0000
0010
1000
0100
0000
0100
0010
0001
0000
0001
0010
0100
0000
0100
1000
,
0010
0000
1000
0000
1010
0000
1000
0100
0010
0001
1000
0000
1001
0000
0000
0000
,
2000
0000
0010
0000
0100
0000
0001
3020
,
0100
0000
0000
0000
0100
0000
0001
0000
1000
0000
0000
1000
0000
0000
1000
0030
,
0100
0000
0100
0001
0010
0000
0010
0100
1000
0000
1000
0100
0010
0000
0010
0001
,
0100
0000
0001
0000
0101
0000
0001
0010
0100
1000
0001
0000
1001
0000
0110
0000
,
1001
0000
0000
0000
;

//---------------dance-single - Renard----------------
#NOTES:
     dance-single:
     Renard:
     Hard:
     8:
     0.537,0.522,0.314,0.000,0.437:
0000
0000
0000
0000
,
0000
0000
0000
0000
,
0000
0000
0000
0000
,
0000
0000
0000
0000
,
1001
0000
0000
1001
0000
0000
1000
0000
0100
0000
0010
0000
0001
0000
1000
0000
,
1001
0000
0000
1001
0000
0000
0001
0000
0010
0000
0100
0000
1000
0000
0001
0000
,
1001
0000
0000
1001
0000
0000
1000
0000
0100
0000
0010
0000
0001
0000
1000
0000
,
1001
0000
0000
1001
0000
0000
0001
0000
0010
0000
0100
0000
1000
0000
0001
0000
,
0100
0000
0000
0110
0000
0000
0010
1000
0010
0000
1000
0000
0100
0000
0010
0000
,
0001
0000
0000
0011
0000
0000
0010
0100
0010
0000
0100
0000
1000
0000
0010
0000
,
0100
0000
0000
0110
0000
0000
0100
0001
0100
0000
0001
0000
0100
0000
0010
0000
,
1010
0000
0000
1010
0000
0000
1000
0100
1000
0000
0001
0000
0010
0001
0010
0000
,
0001
1000
0010
0100
0001
0010
0100
1000
,
1000
0000
0000
0000
0001
0000
0100
0000
0010
0000
0000
1000
0000
0000
0001
0000
,
0100
0000
0000
0100
0001
0000
1000
0000
0100
0000
0000
0100
1000
0000
0001
0000
,
0010
0000
0000
0010
0001
0000
1000
0000
0010
0000
0000
0010
0100
0000
0001
0000
,
0010
0000
0011
0000
0010
0100
1000
0001
,
0100
0000
0000
0000
0010
0000
1000
0000
0001
0000
0000
0100
0000
0000
0001
0000
,
1000
0000
0000
1100
0000
0000
1000
0100
1000
0000
0001
0000
0010
0000
0001
0000
,
1000
0000
0000
0101
0000
0000
0001
0010
0001
0000
1000
0000
0100
1000
0100
0000
,
1000
0000
0000
0101
0000
0000
0001
1000
0001
0000
1000
0000
0010
0000
0100
0000
,
0001
0000
0000
1001
0000
0000
1000
0100
1000
0000
0001
0000
0010
0001
0010
0000
,
0001
0000
1000
0010
0000
0100
0001
0010
0000
0001
0000
0010
0000
0100
1000
0000
,
0001
0100
0000
0010
0000
0000
1000
0000
0001
0100
0010
0000
1000
0000
0001
1000
,
0001
0000
1000
0000
0100
0000
0010
0000
0001
1000
0000
0001
0000
0100
0010
0100
,
0010
0000
1000
0000
0100
0000
0010
0000
0001
1000
0000
0001
0000
0100
0010
0000
,
1000
0100
1000
0100
0000
1000
0001
1000
0000
0001
0000
0100
0000
0001
0010
0000
,
0001
1000
0000
0100
0000
1000
0001
0000
0010
0001
1000
0000
0001
0000
0100
0000
,
0001
0000
0100
0000
0010
0000
1000
0000
0001
1000
0000
0001
0000
0000
1000
0000
,
0100
0000
0010
0000
0001
0000
1000
0000
0010
0100
0000
0010
0000
0000
0100
0000
,
0001
1000
0001
0100
0000
0000
0001
0010
0000
0001
0000
0000
1000
0000
0100
0000
,
1000
0000
0001
0000
0010
0000
0001
0000
1000
0000
0010
0000
0100
0000
0001
1000
,
0001
0000
1000
0000
0100
0000
0010
0000
0001
1000
0000
1001
0000
0000
0000
0000
,
1000
0000
0100
0000
0010
0000
0001
0000
1000
0001
0000
1001
0000
0000
1000
0000
,
0001
0100
0001
0100
0000
0001
0100
0001
0000
1000
0000
0100
0000
0010
0001
0000
,
1000
0000
0100
0000
0010
0000
0001
0000
1000
0000
0010
0000
0100
0000
0001
0100
,
0001
0100
0110
0000
0010
1000
1001
0000
,
1000
0100
0110
0000
0010
0001
1001
0000
,
0001
0000
0100
0000
0010
0000
1000
0010
0000
1000
0010
0000
1000
0000
0000
0000
,
0001
0000
0010
0000
0001
0000
1000
0001
0000
0100
0001
0000
1000
0000
0000
0000
,
0001
0000
0000
0000
0100
0000
0001
0000
1000
0100
0000
1000
0000
0000
0001
0000
,
0010
0000
0001
0000
1000
0000
0001
0000
0100
0001
0000
1000
0000
0000
0001
0000
,
0010
0000
0100
0000
1000
0000
0001
0000
1000
0010
0000
1000
0000
0000
0001
0000
,
0100
0000
0001
0000
0010
0000
0001
0000
1000
0001
0000
0100
0000
0000
0010
0000
,
1000
0000
0100
0000
0010
0000
0001
0000
1000
0010
0000
1000
0000
0000
0001
0000
,
0100
0000
0001
0000
1000
0000
0100
0000
0010
0001
0000
1000
0000
0000
0001
0000
,
0010
0000
0100
0000
1000
0000
0010
0000
0100
0001
0000
0100
0000
0000
0010
0000
,
1000
0000
0100
0000
0010
0000
0001
0000
1000
0100
0000
1000
0000
0000
0001
0000
,
0010
0000
1001
0000
0010
0000
1001
1000
,
0100
0000
0000
0000
0011
0000
0100
0000
1000
0000
0000
0101
0000
0000
1010
0000
,
1001
0000
1000
0100
0010
0000
0001
0010
,
0100
0000
1000
0010
0100
0001
0001
0000
,
0100
0000
1010
0000
0100
0000
0011
0100
,
1000
0000
0000
0000
1010
0000
0100
0000
0001
0000
0000
0011
0000
0000
0110
0000
,
1100
0000
0000
1000
0010
0000
0000
0000
0100
0000
0000
0100
0001
0000
0000
0000
,
0010
0000
0000
0010
0001
0000
1000
0000
0100
0000
0010
0000
0001
0000
1000
0000
,
0110
0000
0000
0000
;

//---------------dance-single - Renard----------------
#NOTES:
     dance-single:
     Renard:
     Medium:
     5:
     0.332,0.404,0.127,0.000,0.000:
0000
0000
0000
0000
,
0000
0000
0000
0000
,
0000
0000
0000
0000
,
0000
0000
0000
0000
,
1000
0000
0001
0000
0100
0001
0100
0001
,
1000
0000
0100
0000
1000
0000
0100
1000
,
0100
0000
1000
0000
0001
0010
0001
0010
,
0001
0000
1000
0000
0010
0000
1000
0010
,
1000
0101
0000
0011
,
0100
1010
0000
0101
,
0001
1100
0000
0011
,
0001
1010
0000
0101
,
0001
1100
0000
0000
,
1000
0000
0010
0100
,
0001
0000
0010
0001
0010
0000
0100
0000
,
1000
0000
0010
0100
0010
0100
0001
1000
,
0001
0101
0000
0000
,
0001
0000
1000
0000
0100
0000
0010
0001
,
1000
0000
0010
0000
1000
0001
1000
0001
,
0100
0000
0010
0000
1000
0100
1000
0100
,
1000
0000
0001
0000
0010
0001
1000
0001
,
0100
0000
0010
0000
1000
0001
1000
0010
,
0100
0001
1000
0010
,
1000
0001
0100
0001
,
0010
0100
1000
0001
0010
0100
1000
0001
,
0010
0100
1000
0001
0010
0100
1000
0000
,
0001
0100
0010
1000
,
0010
0100
0001
0100
,
0001
1000
0010
0100
0001
1000
0010
0100
,
0001
1000
0010
0100
0001
1000
0010
0000
,
0100
0001
1000
0100
,
0010
0001
0010
0100
,
1000
0001
0100
0010
1000
0001
0100
0010
,
1000
0001
0100
0010
1000
0001
0100
0010
,
1000
0100
0010
0100
,
1000
0001
0010
0100
,
1000
0101
0000
0011
,
0000
1100
0000
1010
,
1000
0000
0001
0000
0100
0001
0100
0000
,
0001
0000
1000
0000
0100
1000
0100
0000
,
1000
0000
0001
0000
0100
0010
0100
0010
,
1000
0000
0001
0000
0100
0010
0100
0010
,
1000
0000
0001
0000
0100
0010
0100
0010
,
1000
0000
0001
0000
0100
0010
0100
0010
,
1000
0000
0001
0000
0010
0100
0010
0100
,
1000
0000
0001
0000
0010
0100
0010
0100
,
1000
0000
0001
0000
0010
0100
0010
0100
,
1000
0001
0010
0100
,
1000
0000
0001
0000
0100
0000
0010
1000
,
0010
0000
0100
0001
0100
0000
0001
0000
,
1000
0100
0010
0001
,
1000
0001
0100
0010
,
1000
0000
0001
0000
0100
0000
0001
1000
,
0001
0000
1000
0100
1000
0000
0001
0000
,
0010
0001
1000
0010
,
0100
0000
0001
0000
0010
0100
0010
0000
,
1001
0000
0000
0000
;

//---------------dance-single - Renard----------------
#NOTES:
     dance-single:
     Renard:
     Easy:
     2:
     0.176,0.237,0.008,0.000,0.000: // measure 1
0000
0000
0000
0000
,  // measure 2
0000
0000
0000
0000
,  // measure 3
0000
0000
0000
0000
,  // measure 4
0000
0000
0000
0000
,  // measure 5
1000
0000
1000
1000
,  // measure 6
0001
0000
0001
0001
,  // measure 7
0010
0000
0010
0010
,  // measure 8
0100
0000
0100
0010
,  // measure 9
1000
0000
0010
0000
,  // measure 10
0100
0000
0001
0000
,  // measure 11
0010
0000
0100
0000
,  // measure 12
1000
0000
0010
0100
,  // measure 13
0010
0000
0010
0100
,  // measure 14
0001
0000
0001
1000
,  // measure 15
0100
0000
0100
0000
,  // measure 16
0100
0000
0100
0100
,  // measure 17
0010
0000
0010
0001
,  // measure 18
1000
0000
1000
0000
,  // measure 19
0001
0000
1000
0100
,  // measure 20
1000
0000
0001
0010
,  // measure 21
0001
0000
1000
0010
,  // measure 22
1000
0000
0001
0100
,  // measure 23
0001
0000
0001
0000
,  // measure 24
0001
0000
0001
0000
,  // measure 25
1000
0000
1000
0000
,  // measure 26
1000
0000
1000
0000
,  // measure 27
0010
0000
0010
0000
,  // measure 28
0010
0000
0010
0000
,  // measure 29
0100
0000
0100
0000
,  // measure 30
0100
0000
0100
0000
,  // measure 31
0001
0000
0001
0000
,  // measure 32
1000
0000
1000
0000
,  // measure 33
0010
0010
0010
0000
,  // measure 34
0010
0010
0010
0000
,  // measure 35
1000
0000
1000
0000
,  // measure 36
0001
0000
0001
0000
,  // measure 37
0100
0010
0100
0010
,  // measure 38
0100
0010
0100
0010
,  // measure 39
0100
0010
0100
0010
,  // measure 40
0100
0010
0100
0010
,  // measure 41
1000
1000
1000
0000
,  // measure 42
0001
0001
0001
0000
,  // measure 43
1000
1000
1000
0000
,  // measure 44
0001
0001
0001
0000
,  // measure 45
1000
1000
0001
0001
,  // measure 46
1000
1000
0001
0001
,  // measure 47
0100
0100
0010
0010
,  // measure 48
1000
0001
1000
0001
,  // measure 49
1000
0000
0000
0000
,  // measure 50
0100
0000
0010
0000
,  // measure 51
0001
0010
0100
1000
,  // measure 52
0001
0000
0001
0000
,  // measure 53
1000
0000
0000
0000
,  // measure 54
0001
0000
0001
0000
,  // measure 55
1000
0010
0100
0001
,  // measure 56
0010
0100
1000
0001
,  // measure 57
0110
0000
0000
0000
;
