#TITLE:Exlxaxl (Neophyte & EA Remix);
#SUBTITLE:;
#ARTIST:Jappo & Lancinhouse;
#TITLETRANSLIT:;
#SUBTITLETRANSLIT:;
#ARTISTTRANSLIT:;
#CREDIT:;
#BANNER:ex.png;
#BACKGROUND:ex-bg.png;
#LYRICSPATH:;
#CDTITLE:;
#MUSIC:ex.ogg;
#OFFSET:0.000;
#SAMPLESTART:61.590;
#SAMPLELENGTH:12.000;
#SELECTABLE:YES;
#BPMS:0.000=171.400;
#STOPS:;
#BGCHANGES:;

//---------------dance-single - Renard----------------
#NOTES:
     dance-single:
     Renard:
     Challenge:
     9:
     0.550,0.685,0.599,0.328,0.439:
0000
0000
0000
0000
,
0000
0000
0000
0000
,
0000
0000
0000
0000
,
0000
0000
0000
0000
,
1100
1010
1001
0101
,
0011
0000
0000
0011
0000
0000
0110
0000
0100
1000
0000
0000
,
1000
1010
0101
1010
,
0001
0000
0100
0010
0000
1000
0010
0000
0100
0001
0000
0000
,
1001
0000
0000
0101
0000
0110
0110
0000
0000
0000
0000
0000
,
1000
0000
0010
0100
0000
0001
0100
0000
0000
0000
0000
0000
,
0110
0000
0000
1010
0000
1001
1001
0000
0000
0000
0000
0000
,
1000
0000
0100
0010
0000
0001
0010
0000
0000
0000
0000
0000
,
0110
0000
0000
0011
0000
0011
0011
0000
0000
0000
0000
0000
,
0110
0000
0100
1000
0000
0010
0100
0000
0000
0000
0000
0000
,
0101
0000
0000
0110
0000
0110
0110
0000
0000
0010
0000
0000
,
1000
0000
0010
0100
0000
0001
0100
0000
0010
1000
0000
0000
,
0001
0000
0000
0100
0000
0000
1000
0000
0010
0001
0000
0000
,
0010
0000
0000
1000
0000
0000
0100
0000
0001
0010
0000
0000
,
0001
0000
0000
0100
0000
0000
1000
0000
0010
1000
0000
0000
,
0100
0000
0000
0010
0000
0000
1000
0000
0001
0100
0000
0001
,
0100
0000
0000
0010
0000
0000
1000
0000
0100
0010
0000
0000
,
0001
0000
0000
0010
0000
0000
1000
0000
0010
0100
0000
0000
,
0001
0000
0000
0100
0000
0000
1000
0000
0010
0100
0000
0000
,
0001
0000
0000
0000
0000
0000
0100
0000
0000
0000
0000
0010
,
2002
0000
0000
0000
,
0000
0000
0000
3000
,
2000
0003
0002
3000
,
2000
0000
0003
0000
0002
0000
0000
3003
,
2000
0000
0002
0000
,
3000
0000
0200
0003
0020
0300
2000
0030
,
0200
0000
0000
0000
,
0000
3000
0310
0001
0010
0100
2000
0000
,
0020
0000
0000
3000
0200
0000
0030
0000
,
0002
0000
0000
0300
2000
0000
0000
0000
,
0003
0000
3001
0200
0000
0302
0200
0000
,
0003
0000
0310
0200
0000
0310
0200
0000
,
0320
0000
1000
0000
,
0100
0000
0001
0000
,
0100
0000
1000
0000
,
0100
0000
0001
0000
,
0100
0000
0000
0100
0000
0100
0100
0000
0000
0000
0000
0000
,
1000
0000
1000
1000
0000
1000
1000
0000
0000
0000
0000
0000
,
0001
0000
0000
0001
0000
0100
0100
0000
0000
0000
0000
0000
,
0100
0100
0100
0100
0100
0100
0100
0000
0100
0100
0000
0030
,
0110
0000
0000
0101
0000
0100
0010
0000
0000
1100
0000
0000
,
0110
0000
0010
0011
0000
0001
0011
0000
0000
0110
0000
0000
,
1100
0000
0000
1001
0000
0010
1000
0000
0000
0101
0000
0000
,
0010
0000
1000
0001
0000
0100
0010
0000
0000
0110
0000
0000
,
1010
0000
0000
0101
0000
0110
0110
0000
0000
1010
0000
0000
,
1100
0000
0100
0010
0000
0001
0010
0000
0000
0110
0000
0000
,
1100
0000
0000
0011
0000
0100
0010
0000
0000
1100
0000
0000
,
1000
0000
0010
0100
0000
0001
0001
0000
0010
0100
0000
0000
,
1000
0000
0010
0100
0000
0001
0100
0000
0010
0100
0000
1000
,
0100
0000
0001
0100
0000
0010
0100
0000
0001
0100
1000
0100
,
0010
0000
0100
0001
0000
0100
0010
0000
0100
1000
0000
0100
,
0001
0000
0100
0010
0000
0100
1000
0000
0100
0001
0000
0000
,
0010
0000
0100
0010
0000
1000
0010
0000
0001
0010
0000
0100
,
0010
0000
1000
0010
0000
0100
0010
0001
0010
0100
0000
0000
,
0010
0000
1000
0010
0000
0100
0010
0000
0001
0010
0000
0000
,
0100
0010
1000
0010
0100
0010
0001
0010
0100
0010
0000
0000
,
0110
0000
0000
2200
0000
0000
0011
3300
0000
0000
0000
0000
,
0101
0000
0001
0200
0000
0000
0010
0000
0000
0000
0000
0000
,
1000
0000
0000
0002
0000
0000
1010
0303
0000
0000
0000
0000
,
0101
0000
0010
1000
0000
0100
1000
0000
0000
1100
0000
0000
,
0011
0110
2200
0000
,
0001
0000
0001
0010
0000
0010
0001
0000
3300
0000
0000
0000
,
2002
0000
0000
0000
0000
0000
0000
0000
0000
0000
0000
0000
0000
0000
0000
0000
3003
0000
0000
0000
0000
0000
0000
0000
0001
0000
0000
0100
0000
0000
1000
0000
0000
0100
0000
0000
0010
0000
0000
0001
0000
0000
1000
0000
0000
0100
0000
0000
,
1001
0000
0000
0000
0000
0000
0202
0000
0000
0003
0000
0010
,
2000
0000
0000
0000
,
0000
0000
0000
0000
,
0000
0000
0000
0000
0000
0000
0000
0000
0000
0000
0000
3300
;

//---------------dance-single - Renard----------------
#NOTES:
     dance-single:
     Renard:
     Hard:
     9:
     0.495,0.608,0.705,0.193,0.280:
0000
0000
0000
0000
,
0000
0000
0000
0000
,
0000
0000
0000
0000
,
0000
0000
0000
0000
,
1000
1000
0001
0001
,
0100
0000
0000
0100
0000
0000
0100
0000
0010
1000
0000
0000
,
0001
0001
0100
0100
,
0001
0000
0010
0001
0000
1000
0100
0000
1000
0001
0000
0000
,
0100
0000
0000
0100
0000
0010
1000
0000
0000
0000
0000
0000
,
0001
0000
0100
0010
0000
1000
0001
0000
0000
0000
0000
0000
,
0110
0000
0000
1001
0000
1000
0100
0000
0000
0000
0000
0000
,
0011
0000
0100
1000
0000
0001
0010
0000
0000
0001
0000
0000
,
1010
0000
0000
0001
0000
0100
0010
0000
0000
0000
0000
0000
,
1100
0000
0010
0001
0000
1000
0010
0000
0000
0100
0000
0000
,
0101
0000
0000
1010
0000
1000
0100
0000
0000
0010
0000
0000
,
0001
0000
0010
0100
0000
1000
0001
0000
0100
0010
0000
0000
,
1010
0000
0000
0101
0000
0000
1001
0000
1000
0100
0000
0000
,
0011
0000
0000
1100
0000
0000
1001
0000
0001
0100
0000
0000
,
1010
0000
0000
0101
0000
0000
1001
0000
1000
0100
0000
0000
,
0011
0000
0000
1100
0000
0000
1001
0000
0001
0100
0000
0000
,
0010
0000
0000
1000
0000
0000
0001
0000
1000
0100
0000
0000
,
0010
0000
0000
0001
0000
0000
0010
0000
0100
1000
0000
0000
,
0001
0000
0000
0100
0000
0000
0010
0000
1000
0001
0000
0000
,
0100
0000
0000
0010
0000
0000
1000
0000
0000
0100
0000
0010
,
0002
0000
0000
0000
,
0000
0000
0000
0000
,
0000
0000
0000
0000
,
0000
0000
0000
0000
0000
0000
0000
0000
0000
0000
0000
0003
,
2000
0000
3002
0000
,
0000
0203
0320
2030
,
0200
0000
0000
3000
,
0000
0320
0032
0203
,
0020
0300
2000
0030
,
0200
3000
0020
0000
,
0000
0000
0000
0000
,
0000
0000
0000
0330
,
2001
0000
0001
0000
,
0001
0000
0000
0000
0000
0000
0001
0000
3000
0000
0000
0000
,
1002
0000
1000
0000
,
1000
0000
1000
1003
,
1001
0000
0000
0001
0000
0100
0010
0000
0000
1001
0000
0000
,
1100
0000
0010
0001
0000
1000
0100
0000
0000
1001
0000
0000
,
0110
0001
1010
0001
,
0110
0000
0000
0110
0000
0000
1001
0000
0001
1000
0000
0000
,
1001
0000
0000
1000
0000
0100
0010
0000
0000
1001
0000
0000
,
0001
0000
0100
0010
0000
1000
0001
0000
0000
1001
0000
0000
,
1000
0000
0000
0100
0000
0010
0001
0000
0000
1001
0000
0000
,
0001
0000
0100
0010
0000
1000
0001
0000
0000
1001
0000
0000
,
1100
0000
0000
0010
0000
0001
1000
0000
0000
1001
0000
0000
,
0001
0000
0100
0010
0000
1000
0001
0000
0000
0100
0000
0000
,
0101
0000
0000
0100
0000
0010
1000
0000
0000
0001
0000
0000
,
0100
0000
0001
1000
0000
0100
0010
0000
0001
1000
0000
0000
,
0001
0000
0000
0101
0000
0000
1010
0000
1000
0100
0000
0000
,
1000
0000
0000
0011
0000
0000
1100
0000
1000
0001
0000
0000
,
0110
0000
0000
1001
0000
0000
1000
0000
0100
0010
0000
0000
,
0011
0000
0000
1100
0000
0000
0001
0000
0100
0010
0000
0000
,
1010
0000
0000
0101
0000
0000
1001
0000
1000
0100
0000
0000
,
0011
0000
0000
1100
0000
0000
1001
0000
0010
0100
0000
0000
,
0011
0000
0000
1100
0000
0000
1001
0000
0100
0010
0000
0000
,
1001
0110
1001
1001
,
1000
0000
0000
0100
0000
0010
0001
0000
0000
0010
0000
0000
,
0110
0000
0100
1000
0000
0010
0100
0000
0000
1001
0000
0000
,
1100
0011
1100
1001
,
0100
0000
0010
1000
0000
0100
0010
0000
0000
1001
0000
0000
,
0101
0000
0000
1010
0000
1000
0100
0000
0000
0011
0000
0000
,
1100
0000
0001
0100
0000
0010
1000
0000
0000
1100
0000
0000
,
0012
0000
0200
0003
,
0310
0000
0000
0000
0000
0000
1001
0000
0000
0000
0000
0020
,
0200
0000
0000
0000
,
0000
0000
0000
0000
,
0330
0000
0000
0000
;

//---------------dance-single - Renard----------------
#NOTES:
     dance-single:
     Renard:
     Medium:
     6:
     0.412,0.575,0.908,0.183,0.000:
0000
0000
0000
0000
,
0000
0000
0000
0000
,
0000
0000
0000
0000
,
0000
0000
0000
0000
,
1000
1000
1000
0000
,
1000
0000
1000
1000
,
0001
0001
0001
0000
,
0001
1000
0010
0000
,
0100
0001
0100
0000
,
0001
1000
0100
0000
,
0010
0001
1000
0000
,
0110
1001
0110
1001
,
0010
1000
0001
0000
,
0100
0001
0010
0000
,
0110
1001
0110
0000
,
1010
0101
1001
0000
,
1100
1100
1100
0010
,
0101
0101
0101
0010
,
1100
1100
1100
0010
,
0101
0101
0101
0010
,
1010
1010
1010
0100
,
0011
0011
0011
0100
,
1010
1010
1010
0100
,
0011
0000
1001
0000
,
0220
0000
0000
0000
,
0000
0000
0000
0000
,
0000
0000
0000
0000
,
0000
0000
0000
0330
,
0020
0000
2030
0000
,
0000
3100
0020
0000
,
0002
0000
0030
0000
,
0003
0100
0020
0000
,
2030
0000
3200
0000
,
0320
0000
0032
0000
,
2000
0000
0000
0000
,
0000
0000
0000
3003
,
0210
0000
0010
0000
,
0010
0000
0010
0000
,
0010
0000
0010
0000
,
0010
0000
0010
0310
,
0010
0100
0110
0000
,
0001
1000
1001
0000
,
1010
0000
0101
0000
,
2002
0000
0000
3003
,
1000
1100
0011
1000
,
0101
1010
1001
1000
,
0100
0011
1100
0001
,
1010
0101
1001
0110
,
1001
0101
1010
1001
,
1100
0011
1100
0001
,
0110
1001
0110
1000
,
0010
0100
0001
1000
,
0100
0010
1001
0001
,
0100
0010
1001
1000
,
0100
0010
1001
0001
,
0100
0010
1001
1000
,
0100
0010
1001
0001
,
0100
0010
1001
1000
,
0100
0010
1001
0110
,
1001
0110
1001
0000
,
0101
0101
0101
0010
,
1100
1100
1100
0000
,
1100
1100
1100
0010
,
0101
0101
0101
0000
,
0011
0011
0011
0100
,
1010
1010
1010
0000
,
2002
0000
0000
3003
,
0110
0000
1001
0000
,
2002
0000
0000
0000
,
0000
0000
0000
0000
,
3003
0000
0000
0000
;

//---------------dance-single - Renard----------------
#NOTES:
     dance-single:
     Renard:
     Easy:
     2:
     0.262,0.372,0.087,0.232,0.000: // measure 1
0000
0000
0000
0000
,  // measure 2
0000
0000
0000
0000
,  // measure 3
0000
0000
0000
0000
,  // measure 4
0000
0000
0000
0000
,  // measure 5
1000
0000
1000
0000
,  // measure 6
1000
0000
1000
1000
,  // measure 7
0001
0000
0001
0000
,  // measure 8
0001
0000
0001
0001
,  // measure 9
0100
0100
0100
0000
,  // measure 10
0100
0100
0100
0000
,  // measure 11
0010
0010
0010
0000
,  // measure 12
0010
0010
0010
0000
,  // measure 13
1000
1000
1000
0000
,  // measure 14
0001
0001
0001
0000
,  // measure 15
1000
1000
1000
0000
,  // measure 16
0100
0010
0001
1000
,  // measure 17
0001
0000
0001
0001
,  // measure 18
0100
0000
0100
0100
,  // measure 19
0010
0000
0010
0010
,  // measure 20
1000
0010
1000
0010
,  // measure 21
1000
0000
1000
1000
,  // measure 22
0100
0000
0100
0100
,  // measure 23
0010
0000
0010
0010
,  // measure 24
0001
0000
1000
0000
,  // measure 25
0202
0000
0000
0000
,  // measure 26
0000
0000
0000
0000
,  // measure 27
0000
0000
0000
0000
,  // measure 28
0000
0000
0303
0000
,  // measure 29
0001
0000
0001
0000
,  // measure 30
0000
0000
0200
0000
,  // measure 31
0020
0000
0000
0000
,  // measure 32
0000
0000
0330
0000
,  // measure 33
1000
0000
1000
0000
,  // measure 34
0100
0000
0010
0000
,  // measure 35
0000
0000
0000
0000
,  // measure 36
0000
0000
0000
0000
,  // measure 37
2001
0000
0001
0000
,  // measure 38
0001
0000
3001
0000
,  // measure 39
1002
0000
1000
0000
,  // measure 40
1000
0000
1003
0000
,  // measure 41
0210
0000
0010
0000
,  // measure 42
0010
0000
0310
0000
,  // measure 43
0010
0000
1000
0000
,  // measure 44
0100
0010
0001
0000
,  // measure 45
2000
0000
3001
0000
,  // measure 46
0002
0000
1003
0000
,  // measure 47
2000
0000
3001
0000
,  // measure 48
0100
0200
0310
0000
,  // measure 49
0020
0000
0130
0000
,  // measure 50
0200
0000
0310
0000
,  // measure 51
1000
0100
0010
0001
,  // measure 52
1000
1000
1000
1000
,  // measure 53
0001
0001
0001
1000
,  // measure 54
0010
0010
0010
0100
,  // measure 55
0001
0001
0001
0010
,  // measure 56
0200
0000
2300
0000
,  // measure 57
3010
0010
0010
0200
,  // measure 58
0301
0001
0001
0020
,  // measure 59
0130
0000
1000
0010
,  // measure 60
0100
0000
1001
1001
,  // measure 61
2000
0000
3100
0010
,  // measure 62
0002
0000
0103
0001
,  // measure 63
0020
0000
0130
1000
,  // measure 64
0010
0100
0001
1001
,  // measure 65
2000
0000
3100
0010
,  // measure 66
0002
0000
0103
0001
,  // measure 67
0110
0000
0000
0000
,  // measure 68
1001
0000
2000
0000
,  // measure 69
0200
0000
0000
0000
,  // measure 70
0000
0000
0000
0000
,  // measure 71
3300
0000
0000
0000
;
